  0
SECTION
  2
HEADER
  9
$ACADVER
  1
AC1015
  9
$ACADMAINTVER
 70
     6
  9
$DWGCODEPAGE
  3
DOS932
  9
$INSBASE
 10
0.0
 20
0.0
 30
0.0
  9
$EXTMIN
 10
0.0
 20
0.0
 30
0.0
  9
$EXTMAX
 10
297.0
 20
200.0
 30
10.0
  9
$LIMMIN
 10
0.0
 20
0.0
  9
$LIMMAX
 10
297.0
 20
200.0
  9
$ORTHOMODE
 70
     0
  9
$REGENMODE
 70
     1
  9
$FILLMODE
 70
     1
  9
$QTEXTMODE
 70
     0
  9
$MIRRTEXT
 70
     1
  9
$LTSCALE
 40
10.0
  9
$ATTMODE
 70
     1
  9
$TEXTSIZE
 40
0.2
  9
$TRACEWID
 40
0.05
  9
$TEXTSTYLE
  7
Standard
  9
$CLAYER
  8
0
  9
$CELTYPE
  6
Continuous
  9
$CECOLOR
 62
   256
  9
$CELTSCALE
 40
1.0
  9
$DISPSILH
 70
     0
  9
$DIMSCALE
 40
1.0
  9
$DIMASZ
 40
1.05
  9
$DIMEXO
 40
1.05
  9
$DIMDLI
 40
0.38
  9
$DIMRND
 40
0.0
  9
$DIMDLE
 40
0.0
  9
$DIMEXE
 40
1.05
  9
$DIMTP
 40
0.0
  9
$DIMTM
 40
0.0
  9
$DIMTXT
 40
3.5
  9
$DIMCEN
 40
0.09
  9
$DIMTSZ
 40
0.0
  9
$DIMTOL
 70
     0
  9
$DIMLIM
 70
     0
  9
$DIMTIH
 70
     0
  9
$DIMTOH
 70
     0
  9
$DIMSE1
 70
     0
  9
$DIMSE2
 70
     0
  9
$DIMTAD
 70
     1
  9
$DIMZIN
 70
     0
  9
$DIMBLK
  1

  9
$DIMASO
 70
     1
  9
$DIMSHO
 70
     1
  9
$DIMPOST
  1

  9
$DIMAPOST
  1

  9
$DIMALT
 70
     0
  9
$DIMALTD
 70
     2
  9
$DIMALTF
 40
25.4
  9
$DIMLFAC
 40
1.0
  9
$DIMTOFL
 70
     0
  9
$DIMTVP
 40
0.0
  9
$DIMTIX
 70
     0
  9
$DIMSOXD
 70
     0
  9
$DIMSAH
 70
     0
  9
$DIMBLK1
  1

  9
$DIMBLK2
  1

  9
$DIMSTYLE
  2
Standard
  9
$DIMCLRD
 70
     7
  9
$DIMCLRE
 70
     7
  9
$DIMCLRT
 70
     7
  9
$DIMTFAC
 40
0.5
  9
$DIMGAP
 40
1.75
  9
$DIMJUST
 70
     0
  9
$DIMSD1
 70
     0
  9
$DIMSD2
 70
     0
  9
$DIMTOLJ
 70
     1
  9
$DIMTZIN
 70
     0
  9
$DIMALTZ
 70
     0
  9
$DIMALTTZ
 70
     0
  9
$DIMUPT
 70
     0
  9
$DIMDEC
 70
     1
  9
$DIMTDEC
 70
     4
  9
$DIMALTU
 70
     2
  9
$DIMALTTD
 70
     2
  9
$DIMTXSTY
  7
Standard
  9
$DIMAUNIT
 70
     0
  9
$DIMADEC
 70
     0
  9
$DIMALTRND
 40
0.0
  9
$DIMAZIN
 70
     0
  9
$DIMDSEP
 70
     0
  9
$DIMATFIT
 70
     3
  9
$DIMFRAC
 70
     0
  9
$DIMLDRBLK
  1

  9
$DIMLUNIT
 70
     2
  9
$DIMLWD
 70
     0
  9
$DIMLWE
 70
     0
  9
$DIMTMOVE
 70
     0
  9
$LUNITS
 70
     2
  9
$LUPREC
 70
     4
  9
$SKETCHINC
 40
0.1
  9
$FILLETRAD
 40
0.0
  9
$AUNITS
 70
     0
  9
$AUPREC
 70
     0
  9
$MENU
  1
acad
  9
$ELEVATION
 40
0.0
  9
$PELEVATION
 40
0.0
  9
$THICKNESS
 40
0.0
  9
$LIMCHECK
 70
     0
  9
$CHAMFERA
 40
0.0
  9
$CHAMFERB
 40
0.0
  9
$CHAMFERC
 40
0.0
  9
$CHAMFERD
 40
0.0
  9
$SKPOLY
 70
     0
  9
$TDCREATE
 40
2458393.367488426
  9
$TDUCREATE
 40
0.000000000
  9
$TDUPDATE
 40
2458392.992303241
  9
$TDUUPDATE
 40
0.000000000
  9
$TDINDWG
 40
0.0000000000
  9
$TDUSRTIMER
 40
0.0000000000
  9
$USRTIMER
 70
     1
  9
$ANGBASE
 50
0.0
  9
$ANGDIR
 70
     0
  9
$PDMODE
 70
     0
  9
$PDSIZE
 40
0.0
  9
$PLINEWID
 40
0.0
  9
$SPLFRAME
 70
     0
  9
$SPLINETYPE
 70
     6
  9
$SPLINESEGS
 70
     8
  9
$HANDSEED
  5
569
  9
$SURFTAB1
 70
     6
  9
$SURFTAB2
 70
     6
  9
$SURFTYPE
 70
     6
  9
$SURFU
 70
     6
  9
$SURFV
 70
     6
  9
$UCSBASE
  2

  9
$UCSNAME
  2

  9
$UCSORG
 10
0.0
 20
0.0
 30
0.0
  9
$UCSXDIR
 10
1.0
 20
0.0
 30
0.0
  9
$UCSYDIR
 10
0.0
 20
1.0
 30
0.0
  9
$UCSORTHOREF
  2

  9
$UCSORTHOVIEW
 70
     0
  9
$UCSORGTOP
 10
0.0
 20
0.0
 30
0.0
  9
$UCSORGBOTTOM
 10
0.0
 20
0.0
 30
0.0
  9
$UCSORGLEFT
 10
0.0
 20
0.0
 30
0.0
  9
$UCSORGRIGHT
 10
0.0
 20
0.0
 30
0.0
  9
$UCSORGFRONT
 10
0.0
 20
0.0
 30
0.0
  9
$UCSORGBACK
 10
0.0
 20
0.0
 30
0.0
  9
$PUCSBASE
  2

  9
$PUCSNAME
  2

  9
$PUCSORG
 10
0.0
 20
0.0
 30
0.0
  9
$PUCSXDIR
 10
1.0
 20
0.0
 30
0.0
  9
$PUCSYDIR
 10
0.0
 20
1.0
 30
0.0
  9
$PUCSORTHOREF
  2

  9
$PUCSORTHOVIEW
 70
     0
  9
$PUCSORGTOP
 10
0.0
 20
0.0
 30
0.0
  9
$PUCSORGBOTTOM
 10
0.0
 20
0.0
 30
0.0
  9
$PUCSORGLEFT
 10
0.0
 20
0.0
 30
0.0
  9
$PUCSORGRIGHT
 10
0.0
 20
0.0
 30
0.0
  9
$PUCSORGFRONT
 10
0.0
 20
0.0
 30
0.0
  9
$PUCSORGBACK
 10
0.0
 20
0.0
 30
0.0
  9
$USERI1
 70
     0
  9
$USERI2
 70
     0
  9
$USERI3
 70
     0
  9
$USERI4
 70
     0
  9
$USERI5
 70
     0
  9
$USERR1
 40
0.0
  9
$USERR2
 40
0.0
  9
$USERR3
 40
0.0
  9
$USERR4
 40
0.0
  9
$USERR5
 40
0.0
  9
$WORLDVIEW
 70
     1
  9
$SHADEDGE
 70
     3
  9
$SHADEDIF
 70
    70
  9
$TILEMODE
 70
     1
  9
$MAXACTVP
 70
    16
  9
$PINSBASE
 10
0.0
 20
0.0
 30
0.0
  9
$PLIMCHECK
 70
     0
  9
$PEXTMIN
 10
1.000000E+20
 20
1.000000E+20
 30
1.000000E+20
  9
$PEXTMAX
 10
-1.000000E+20
 20
-1.000000E+20
 30
-1.000000E+20
  9
$PLIMMIN
 10
0.0
 20
0.0
  9
$PLIMMAX
 10
12.0
 20
9.0
  9
$UNITMODE
 70
     0
  9
$VISRETAIN
 70
     0
  9
$PLINEGEN
 70
     1
  9
$PSLTSCALE
 70
     0
  9
$TREEDEPTH
 70
  3020
  9
$CMLSTYLE
  2
Standard
  9
$CMLJUST
 70
     0
  9
$CMLSCALE
 40
1.0
  9
$PROXYGRAPHICS
 70
     0
  9
$MEASUREMENT
 70
     1
  9
$CELWEIGHT
370
     0
  9
$ENDCAPS
280
     0
  9
$JOINSTYLE
280
     0
  9
$LWDISPLAY
290
     0
  9
$INSUNITS
 70
     0
  9
$HYPERLINKBASE
  1

  9
$STYLESHEET
  1

  9
$XEDIT
290
     1
  9
$CEPSNTYPE
380
     0
  9
$PSTYLEMODE
290
     1
  9
$FINGERPRINTGUID
  2

  9
$VERSIONGUID
  2

  9
$EXTNAMES
290
     1
  9
$PSVPSCALE
 40
0.0
  0
ENDSEC
  0
SECTION
  2
CLASSES
  0
CLASS
  1
LWPOLYLINE
  2
AcDbPolyline
  3
AutoCAD 2000
 90
        0
280
     0
281
     1
  0
CLASS
  1
IMAGE
  2
AcDbRasterImage
  3
ISM
 90
      127
280
     0
281
     1
  0
CLASS
  1
OLE2FRAME
  2
AcDbOle2Frame
  3
AutoCAD 2000
 90
        0
280
     0
281
     1
  0
CLASS
  1
HATCH
  2
AcDbHatch
  3
AutoCAD 2000
 90
        0
280
     0
281
     1
  0
CLASS
  1
DICTIONARYVAR
  2
AcDbDictionaryVar
  3
AutoCAD 2000
 90
        0
280
     0
281
     0
  0
CLASS
  1
RASTERVARIABLES
  2
AcDbRasterVariables
  3
ISM
 90
        0
280
     0
281
     0
  0
CLASS
  1
IMAGEDEF
  2
AcDbRasterImageDef
  3
ISM
 90
        0
280
     0
281
     0
  0
CLASS
  1
IMAGEDEF_REACTOR
  2
AcDbRasterImageDefReactor
  3
ISM
 90
        1
280
     0
281
     0
  0
CLASS
  1
IDBUFFER
  2
AcDbIdBuffer
  3
AutoCAD 2000
 90
        0
280
     0
281
     0
  0
CLASS
  1
SPATIAL_FILTER
  2
AcDbSpatialFilter
  3
AutoCAD 2000
 90
        0
280
     0
281
     0
  0
CLASS
  1
XRECORD
  2
AcDbXrecord
  3
AutoCAD 2000
 90
        0
280
     0
281
     0
  0
CLASS
  1
SORTENTSTABLE
  2
AcDbSortentsTable
  3
AutoCAD 2000
 90
        0
280
     0
281
     0
  0
CLASS
  1
LAYER_INDEX
  2
AcDbLayerIndex
  3
AutoCAD 2000
 90
        0
280
     0
281
     0
  0
CLASS
  1
SPATIAL_INDEX
  2
AcDbSpatialIndex
  3
AutoCAD 2000
 90
        0
280
     0
281
     0
  0
CLASS
  1
OBJECT_PTR
  2
CAseDLPNTableRecord
  3
"ASE-LPNTableRecord"
 90
        1
280
     0
281
     0
  0
CLASS
  1
LAYOUT
  2
AcDbLayout
  3
AutoCAD 2000
 90
        0
280
     0
281
     0
  0
CLASS
  1
PLOTSETTINGS
  2
AcDbPlotSettings
  3
AutoCAD 2000
 90
        0
280
     0
281
     0
  0
CLASS
  1
ACDBDICTIONARYWDFLT
  2
AcDbDictionaryWithDefault
  3
AutoCAD 2000
 90
        0
280
     0
281
     0
  0
CLASS
  1
ACDBPLACEHOLDER
  2
AcDbPlaceHolder
  3
AutoCAD 2000
 90
        0
280
     0
281
     0
  0
CLASS
  1
VBA_PROJECT
  2
AcDbVbaProject
  3
acadvba
 90
        0
280
     0
281
     0
  0
CLASS
  1
WIPEOUT
  2
AcDbWipeout
  3
WipeOut|AutoCAD Express Tool|expresstools@autodesk.com
 90
      127
280
     0
281
     1
  0
CLASS
  1
WIPEOUTVARIABLES
  2
AcDbWipeoutVariables
  3
WipeOut|AutoCAD Express Tool|expresstools@autodesk.com
 90
        0
280
     0
281
     0
  0
CLASS
  1
RTEXT
  2
RText
  3
RText|AutoCAD Express Tool|expresstools@autodesk.com
 90
        0
280
     0
281
     1
  0
CLASS
  1
ARCALIGNEDTEXT
  2
AcDbArcAlignedText
  3
ATEXT|AutoCAD Express Tool|expresstools@autodesk.com
 90
        0
280
     0
281
     1
  0
ENDSEC
  0
SECTION
  2
TABLES
  0
TABLE
  2
VPORT
  5
7
100
AcDbSymbolTable
 70
     1
  0
VPORT
  5
15
100
AcDbSymbolTableRecord
100
AcDbViewportTableRecord
  2
*ACTIVE
 70
     0
 10
0.0
 20
0.0
 11
1.0
 21
1.0
 12
6.591288
 22
4.579184
 13
0.0
 23
0.0
 14
1.0
 24
1.0
 15
0.0
 25
0.0
 16
0.0
 26
0.0
 36
1.0
 17
0.0
 27
0.0
 37
0.0
 40
9.158369
 41
0.688564
 42
50.0
 43
0.0
 44
0.0
 50
0.0
 51
0.0
 71
     0
 72
   100
 73
     1
 74
     1
 75
     0
 76
     0
 77
     0
 78
     0
281
     0
 65
     0
110
0.0
120
0.0
130
0.0
111
1.0
121
0.0
131
0.0
112
0.0
122
1.0
132
0.0
345
0
346
0
 79
     0
146
0.0
  0
ENDTAB
  0
TABLE
  2
LTYPE
  5
4
100
AcDbSymbolTable
 70
     5
  0
LTYPE
  5
11
100
AcDbSymbolTableRecord
100
AcDbLinetypeTableRecord
  2
ByBlock
 70
    64
  3

 72
    65
 73
     0
 40
0.0
  0
LTYPE
  5
12
100
AcDbSymbolTableRecord
100
AcDbLinetypeTableRecord
  2
ByLayer
 70
    64
  3

 72
    65
 73
     0
 40
0.0
  0
LTYPE
  5
13
100
AcDbSymbolTableRecord
100
AcDbLinetypeTableRecord
  2
Continuous
 70
    64
  3
Solid line
 72
    65
 73
     0
 40
0.0
  0
LTYPE
  5
106
100
AcDbSymbolTableRecord
100
AcDbLinetypeTableRecord
  2
CENTER
 70
    64
  3
____ _ ____ _ ____ _ ____ _ ____ _ ____ _ ____
 72
    65
 73
     4
 40
2.0
 49
1.25
 74
     0
 49
-0.25
 74
     0
 49
0.25
 74
     0
 49
-0.25
 74
     0
  0
LTYPE
  5
2CD
100
AcDbSymbolTableRecord
100
AcDbLinetypeTableRecord
  2
DOT
 70
    64
  3
..............................................
 72
    65
 73
     2
 40
0.5
 49
0.25
 74
     0
 49
-0.25
 74
     0
  0
ENDTAB
  0
TABLE
  2
LAYER
  5
2
100
AcDbSymbolTable
 70
     1
  0
LAYER
  5
14
100
AcDbSymbolTableRecord
100
AcDbLayerTableRecord
  2
0
 70
     0
 62
     7
  6
Continuous
290
     1
370
    -3
390
1D
  0
ENDTAB
  0
TABLE
  2
STYLE
  5
3
100
AcDbSymbolTable
 70
     2
  0
STYLE
  5
17
100
AcDbSymbolTableRecord
100
AcDbTextStyleTableRecord
  2
Standard
 70
     0
 40
0.0
 41
1.0
 50
0.0
 71
     0
 42
0.0
  3
ＭＳ Ｐゴシック
  4

1001
ACAD
1000
ＭＳ Ｐゴシック
1071
        1
  0
STYLE
  5
161
100
AcDbSymbolTableRecord
100
AcDbTextStyleTableRecord
  2
TopStyle2
 70
     0
 40
0.0
 41
1.0
 50
0.0
 71
     0
 42
0.0
  3
HG丸ｺﾞｼｯｸM-PRO
  4

1001
ACAD
1000
HG丸ｺﾞｼｯｸM-PRO
1071
        2
  0
ENDTAB
  0
TABLE
  2
VIEW
  5
5
100
AcDbSymbolTable
 70
     0
  0
ENDTAB
  0
TABLE
  2
UCS
  5
6
100
AcDbSymbolTable
 70
     0
  0
ENDTAB
  0
TABLE
  2
APPID
  5
8
100
AcDbSymbolTable
 70
     2
  0
APPID
  5
16
100
AcDbSymbolTableRecord
100
AcDbRegAppTableRecord
  2
ACAD
 70
     0
  0
APPID
  5
26
100
AcDbSymbolTableRecord
100
AcDbRegAppTableRecord
  2
TOPsolid_Draft
 70
     0
  0
ENDTAB
  0
TABLE
  2
DIMSTYLE
  5
9
100
AcDbSymbolTable
 70
     1
100
AcDbDimStyleTable
 71
     0
  0
DIMSTYLE
105
18
100
AcDbSymbolTableRecord
100
AcDbDimStyleTableRecord
  2
Standard
 70
     0
  3

  4

 40
1.0
 41
1.05
 42
1.05
 43
0.38
 44
1.05
 45
0.0
 46
0.0
 47
0.0
 48
0.0
 71
     0
 72
     0
 73
     0
 74
     0
 75
     0
 76
     0
 77
     1
 78
     0
 79
     0
140
3.5
141
0.09
142
0.0
143
25.4
144
1.0
145
0.0
146
0.5
147
1.75
148
0.0
170
     0
171
     2
172
     0
173
     0
174
     0
175
     0
176
     7
177
     7
178
     7
179
     0
271
     1
272
     4
273
     2
274
     2
275
     0
276
     0
277
     2
278
    46
279
     0
280
     0
281
     0
282
     0
283
     1
284
     0
285
     0
286
     0
288
     0
289
     3
340
17
341
0
342
0
343
0
344
0
371
    -2
372
    -2
  0
ENDTAB
  0
TABLE
  2
BLOCK_RECORD
  5
1
100
AcDbSymbolTable
 70
    25
  0
BLOCK_RECORD
  5
A
100
AcDbSymbolTableRecord
100
AcDbBlockTableRecord
  2
*MODEL_SPACE
340
20
  0
BLOCK_RECORD
  5
B
100
AcDbSymbolTableRecord
100
AcDbBlockTableRecord
  2
*PAPER_SPACE
340
21
  0
BLOCK_RECORD
  5
27
100
AcDbSymbolTableRecord
100
AcDbBlockTableRecord
  2
$DFT_DRAWING
340
0
102
{BLKREFS
331
58
102
}
  0
BLOCK_RECORD
  5
29
100
AcDbSymbolTableRecord
100
AcDbBlockTableRecord
  2
$DFT_DRAWING950
340
0
102
{BLKREFS
331
56
102
}
  0
BLOCK_RECORD
  5
59
100
AcDbSymbolTableRecord
100
AcDbBlockTableRecord
  2
AID85
340
0
102
{BLKREFS
331
80
102
}
  0
BLOCK_RECORD
  5
8E
100
AcDbSymbolTableRecord
100
AcDbBlockTableRecord
  2
AID185
340
0
102
{BLKREFS
331
B8
102
}
  0
BLOCK_RECORD
  5
BE
100
AcDbSymbolTableRecord
100
AcDbBlockTableRecord
  2
AID274
340
0
102
{BLKREFS
331
C7
102
}
  0
BLOCK_RECORD
  5
C8
100
AcDbSymbolTableRecord
100
AcDbBlockTableRecord
  2
AID279
340
0
102
{BLKREFS
331
D1
102
}
  0
BLOCK_RECORD
  5
D2
100
AcDbSymbolTableRecord
100
AcDbBlockTableRecord
  2
AID284
340
0
102
{BLKREFS
331
DB
102
}
  0
BLOCK_RECORD
  5
DC
100
AcDbSymbolTableRecord
100
AcDbBlockTableRecord
  2
AID289
340
0
102
{BLKREFS
331
E5
102
}
  0
BLOCK_RECORD
  5
E6
100
AcDbSymbolTableRecord
100
AcDbBlockTableRecord
  2
AID294
340
0
102
{BLKREFS
331
EF
102
}
  0
BLOCK_RECORD
  5
FC
100
AcDbSymbolTableRecord
100
AcDbBlockTableRecord
  2
AID323
340
0
102
{BLKREFS
331
10A
102
}
  0
BLOCK_RECORD
  5
10D
100
AcDbSymbolTableRecord
100
AcDbBlockTableRecord
  2
AID339
340
0
102
{BLKREFS
331
11F
102
}
  0
BLOCK_RECORD
  5
164
100
AcDbSymbolTableRecord
100
AcDbBlockTableRecord
  2
AID504
340
0
102
{BLKREFS
331
2CC
102
}
  0
BLOCK_RECORD
  5
489
100
AcDbSymbolTableRecord
100
AcDbBlockTableRecord
  2
*D12
340
0
  0
BLOCK_RECORD
  5
49C
100
AcDbSymbolTableRecord
100
AcDbBlockTableRecord
  2
*D13
340
0
  0
BLOCK_RECORD
  5
4AE
100
AcDbSymbolTableRecord
100
AcDbBlockTableRecord
  2
*D14
340
0
  0
BLOCK_RECORD
  5
4BF
100
AcDbSymbolTableRecord
100
AcDbBlockTableRecord
  2
AID2093
340
0
102
{BLKREFS
331
4CA
102
}
  0
BLOCK_RECORD
  5
4CB
100
AcDbSymbolTableRecord
100
AcDbBlockTableRecord
  2
AID2099
340
0
102
{BLKREFS
331
4D6
102
}
  0
BLOCK_RECORD
  5
4D8
100
AcDbSymbolTableRecord
100
AcDbBlockTableRecord
  2
*D17
340
0
  0
BLOCK_RECORD
  5
4EA
100
AcDbSymbolTableRecord
100
AcDbBlockTableRecord
  2
*D18
340
0
  0
BLOCK_RECORD
  5
4FC
100
AcDbSymbolTableRecord
100
AcDbBlockTableRecord
  2
*D19
340
0
  0
BLOCK_RECORD
  5
50E
100
AcDbSymbolTableRecord
100
AcDbBlockTableRecord
  2
*D20
340
0
  0
BLOCK_RECORD
  5
520
100
AcDbSymbolTableRecord
100
AcDbBlockTableRecord
  2
*D21
340
0
  0
BLOCK_RECORD
  5
52F
100
AcDbSymbolTableRecord
100
AcDbBlockTableRecord
  2
AID2143
340
0
102
{BLKREFS
331
536
102
}
  0
BLOCK_RECORD
  5
53A
100
AcDbSymbolTableRecord
100
AcDbBlockTableRecord
  2
*D23
340
0
  0
BLOCK_RECORD
  5
54B
100
AcDbSymbolTableRecord
100
AcDbBlockTableRecord
  2
AID2165
340
0
102
{BLKREFS
331
556
102
}
  0
ENDTAB
  0
ENDSEC
  0
SECTION
  2
BLOCKS
  0
BLOCK
  5
D
100
AcDbEntity
  8
0
390
0
100
AcDbBlockBegin
  2
*MODEL_SPACE
 70
     0
 10
0.0
 20
0.0
 30
0.0
  3
*MODEL_SPACE
  1

  0
ENDBLK
  5
E
100
AcDbEntity
  8
0
390
0
100
AcDbBlockEnd
  0
BLOCK
  5
F
100
AcDbEntity
 67
     1
  8
0
390
0
100
AcDbBlockBegin
  2
*PAPER_SPACE
 70
     0
 10
0.0
 20
0.0
 30
0.0
  3
*PAPER_SPACE
  1

  0
ENDBLK
  5
10
100
AcDbEntity
 67
     1
  8
0
390
0
100
AcDbBlockEnd
  0
BLOCK
  5
28
100
AcDbEntity
  8
0
390
0
100
AcDbBlockBegin
  2
$DFT_DRAWING
 70
     0
 10
0.0
 20
0.0
 30
0.0
  3
D_FRAME_DRAWING
  1

  0
INSERT
  5
56
100
AcDbEntity
  8
0
390
0
100
AcDbBlockReference
  2
$DFT_DRAWING950
 10
0.0
 20
0.0
 30
0.0
  0
ENDBLK
  5
57
100
AcDbEntity
  8
0
390
0
100
AcDbBlockEnd
  0
BLOCK
  5
2A
100
AcDbEntity
  8
0
390
0
100
AcDbBlockBegin
  2
$DFT_DRAWING950
 70
     0
 10
0.0
 20
0.0
 30
0.0
  3
#draft drawing
  1

  0
LINE
  5
2B
100
AcDbEntity
  8
0
390
0
  6
Continuous
 62
     8
100
AcDbLine
 10
10.0
 20
10.0
 30
0.0
 11
287.0
 21
10.0
 31
0.0
  0
LINE
  5
2C
100
AcDbEntity
  8
0
390
0
  6
Continuous
 62
     8
100
AcDbLine
 10
287.0
 20
10.0
 30
0.0
 11
287.0
 21
200.0
 31
0.0
  0
LINE
  5
2D
100
AcDbEntity
  8
0
390
0
  6
Continuous
 62
     8
100
AcDbLine
 10
287.0
 20
200.0
 30
0.0
 11
10.0
 21
200.0
 31
0.0
  0
LINE
  5
2E
100
AcDbEntity
  8
0
390
0
  6
Continuous
 62
     8
100
AcDbLine
 10
10.0
 20
200.0
 30
0.0
 11
10.0
 21
10.0
 31
0.0
  0
LINE
  5
2F
100
AcDbEntity
  8
0
390
0
  6
Continuous
 62
     8
100
AcDbLine
 10
74.25
 20
200.0
 30
0.0
 11
74.25
 21
205.0
 31
0.0
  0
MTEXT
  5
30
100
AcDbEntity
  8
0
390
0
 62
     8
100
AcDbMText
 10
37.125
 20
205.0
 30
0.0
 40
3.5
 41
0.408333
 71
     2
 72
     1
  1
1
210
0.0
220
0.0
230
1.0
 73
     1
 44
1.0
  0
LINE
  5
31
100
AcDbEntity
  8
0
390
0
  6
Continuous
 62
     8
100
AcDbLine
 10
74.25
 20
10.0
 30
0.0
 11
74.25
 21
5.0
 31
0.0
  0
MTEXT
  5
32
100
AcDbEntity
  8
0
390
0
 62
     8
100
AcDbMText
 10
37.125
 20
5.0
 30
0.0
 40
3.5
 41
0.408333
 71
     8
 72
     1
  1
1
210
0.0
220
0.0
230
1.0
 73
     1
 44
1.0
  0
LINE
  5
33
100
AcDbEntity
  8
0
390
0
  6
Continuous
 62
     8
100
AcDbLine
 10
148.5
 20
200.0
 30
0.0
 11
148.5
 21
205.0
 31
0.0
  0
MTEXT
  5
34
100
AcDbEntity
  8
0
390
0
 62
     8
100
AcDbMText
 10
111.375
 20
205.0
 30
0.0
 40
3.5
 41
2.547222
 71
     2
 72
     1
  1
2
210
0.0
220
0.0
230
1.0
 73
     1
 44
1.0
  0
LINE
  5
35
100
AcDbEntity
  8
0
390
0
  6
Continuous
 62
     8
100
AcDbLine
 10
222.75
 20
200.0
 30
0.0
 11
222.75
 21
205.0
 31
0.0
  0
MTEXT
  5
36
100
AcDbEntity
  8
0
390
0
 62
     8
100
AcDbMText
 10
185.625
 20
205.0
 30
0.0
 40
3.5
 41
2.723437
 71
     2
 72
     1
  1
3
210
0.0
220
0.0
230
1.0
 73
     1
 44
1.0
  0
LINE
  5
37
100
AcDbEntity
  8
0
390
0
  6
Continuous
 62
     8
100
AcDbLine
 10
222.75
 20
10.0
 30
0.0
 11
222.75
 21
5.0
 31
0.0
  0
MTEXT
  5
38
100
AcDbEntity
  8
0
390
0
 62
     8
100
AcDbMText
 10
259.875
 20
205.0
 30
0.0
 40
3.5
 41
2.716146
 71
     2
 72
     1
  1
4
210
0.0
220
0.0
230
1.0
 73
     1
 44
1.0
  0
MTEXT
  5
39
100
AcDbEntity
  8
0
390
0
 62
     8
100
AcDbMText
 10
259.875
 20
5.0
 30
0.0
 40
3.5
 41
2.716146
 71
     8
 72
     1
  1
4
210
0.0
220
0.0
230
1.0
 73
     1
 44
1.0
  0
LINE
  5
3A
100
AcDbEntity
  8
0
390
0
  6
Continuous
 62
     8
100
AcDbLine
 10
287.0
 20
157.5
 30
0.0
 11
292.0
 21
157.5
 31
0.0
  0
MTEXT
  5
3B
100
AcDbEntity
  8
0
390
0
 62
     8
100
AcDbMText
 10
292.0
 20
183.75
 30
0.0
 40
3.5
 41
3.137923
 71
     6
 72
     1
  1
A
210
0.0
220
0.0
230
1.0
 73
     1
 44
1.0
  0
LINE
  5
3C
100
AcDbEntity
  8
0
390
0
  6
Continuous
 62
     8
100
AcDbLine
 10
10.0
 20
157.5
 30
0.0
 11
5.0
 21
157.5
 31
0.0
  0
MTEXT
  5
3D
100
AcDbEntity
  8
0
390
0
 62
     8
100
AcDbMText
 10
5.0
 20
183.75
 30
0.0
 40
3.5
 41
3.137923
 71
     4
 72
     1
  1
A
210
0.0
220
0.0
230
1.0
 73
     1
 44
1.0
  0
LINE
  5
3E
100
AcDbEntity
  8
0
390
0
  6
Continuous
 62
     8
100
AcDbLine
 10
287.0
 20
105.0
 30
0.0
 11
292.0
 21
105.0
 31
0.0
  0
MTEXT
  5
3F
100
AcDbEntity
  8
0
390
0
 62
     8
100
AcDbMText
 10
292.0
 20
131.25
 30
0.0
 40
3.5
 41
2.527778
 71
     6
 72
     1
  1
B
210
0.0
220
0.0
230
1.0
 73
     1
 44
1.0
  0
LINE
  5
40
100
AcDbEntity
  8
0
390
0
  6
Continuous
 62
     8
100
AcDbLine
 10
10.0
 20
105.0
 30
0.0
 11
5.0
 21
105.0
 31
0.0
  0
MTEXT
  5
41
100
AcDbEntity
  8
0
390
0
 62
     8
100
AcDbMText
 10
5.0
 20
131.25
 30
0.0
 40
3.5
 41
2.527778
 71
     4
 72
     1
  1
B
210
0.0
220
0.0
230
1.0
 73
     1
 44
1.0
  0
LINE
  5
42
100
AcDbEntity
  8
0
390
0
  6
Continuous
 62
     8
100
AcDbLine
 10
287.0
 20
52.5
 30
0.0
 11
292.0
 21
52.5
 31
0.0
  0
MTEXT
  5
43
100
AcDbEntity
  8
0
390
0
 62
     8
100
AcDbMText
 10
292.0
 20
78.75
 30
0.0
 40
3.5
 41
2.966797
 71
     6
 72
     1
  1
C
210
0.0
220
0.0
230
1.0
 73
     1
 44
1.0
  0
LINE
  5
44
100
AcDbEntity
  8
0
390
0
  6
Continuous
 62
     8
100
AcDbLine
 10
10.0
 20
52.5
 30
0.0
 11
5.0
 21
52.5
 31
0.0
  0
MTEXT
  5
45
100
AcDbEntity
  8
0
390
0
 62
     8
100
AcDbMText
 10
5.0
 20
78.75
 30
0.0
 40
3.5
 41
2.966797
 71
     4
 72
     1
  1
C
210
0.0
220
0.0
230
1.0
 73
     1
 44
1.0
  0
MTEXT
  5
46
100
AcDbEntity
  8
0
390
0
 62
     8
100
AcDbMText
 10
292.0
 20
26.25
 30
0.0
 40
3.5
 41
2.722222
 71
     6
 72
     1
  1
D
210
0.0
220
0.0
230
1.0
 73
     1
 44
1.0
  0
MTEXT
  5
47
100
AcDbEntity
  8
0
390
0
 62
     8
100
AcDbMText
 10
5.0
 20
26.25
 30
0.0
 40
3.5
 41
2.722222
 71
     4
 72
     1
  1
D
210
0.0
220
0.0
230
1.0
 73
     1
 44
1.0
  0
LINE
  5
48
100
AcDbEntity
  8
0
390
0
  6
Continuous
 62
     8
100
AcDbLine
 10
148.5
 20
10.0
 30
0.0
 11
148.5
 21
5.0
 31
0.0
  0
LINE
  5
49
100
AcDbEntity
  8
0
390
0
  6
Continuous
 62
     8
100
AcDbLine
 10
158.5
 20
10.0
 30
0.0
 11
158.5
 21
5.0
 31
0.0
  0
LINE
  5
4A
100
AcDbEntity
  8
0
390
0
  6
Continuous
 62
     8
100
AcDbLine
 10
138.5
 20
10.0
 30
0.0
 11
138.5
 21
5.0
 31
0.0
  0
LINE
  5
4B
100
AcDbEntity
  8
0
390
0
  6
Continuous
 62
     8
100
AcDbLine
 10
168.5
 20
10.0
 30
0.0
 11
168.5
 21
5.0
 31
0.0
  0
LINE
  5
4C
100
AcDbEntity
  8
0
390
0
  6
Continuous
 62
     8
100
AcDbLine
 10
128.5
 20
10.0
 30
0.0
 11
128.5
 21
5.0
 31
0.0
  0
LINE
  5
4D
100
AcDbEntity
  8
0
390
0
  6
Continuous
 62
     8
100
AcDbLine
 10
178.5
 20
10.0
 30
0.0
 11
178.5
 21
5.0
 31
0.0
  0
LINE
  5
4E
100
AcDbEntity
  8
0
390
0
  6
Continuous
 62
     8
100
AcDbLine
 10
118.5
 20
10.0
 30
0.0
 11
118.5
 21
5.0
 31
0.0
  0
LINE
  5
4F
100
AcDbEntity
  8
0
390
0
  6
Continuous
 62
     8
100
AcDbLine
 10
188.5
 20
10.0
 30
0.0
 11
188.5
 21
5.0
 31
0.0
  0
LINE
  5
50
100
AcDbEntity
  8
0
390
0
  6
Continuous
 62
     8
100
AcDbLine
 10
108.5
 20
10.0
 30
0.0
 11
108.5
 21
5.0
 31
0.0
  0
LINE
  5
51
100
AcDbEntity
  8
0
390
0
  6
Continuous
 62
     8
100
AcDbLine
 10
198.5
 20
10.0
 30
0.0
 11
198.5
 21
5.0
 31
0.0
  0
LINE
  5
52
100
AcDbEntity
  8
0
390
0
  6
Continuous
 62
     8
100
AcDbLine
 10
98.5
 20
10.0
 30
0.0
 11
98.5
 21
5.0
 31
0.0
  0
LINE
  5
53
100
AcDbEntity
  8
0
390
0
  6
Continuous
 62
     8
100
AcDbLine
 10
198.5
 20
10.0
 30
0.0
 11
98.5
 21
10.0
 31
0.0
  0
LINE
  5
54
100
AcDbEntity
  8
0
390
0
  6
Continuous
 62
     8
100
AcDbLine
 10
198.5
 20
5.0
 30
0.0
 11
98.5
 21
5.0
 31
0.0
  0
ENDBLK
  5
55
100
AcDbEntity
  8
0
390
0
100
AcDbBlockEnd
  0
BLOCK
  5
5A
100
AcDbEntity
  8
0
390
0
100
AcDbBlockBegin
  2
AID85
 70
     0
 10
0.0
 20
0.0
 30
0.0
  3
#draft border with alignment
  1

  0
LINE
  5
5B
100
AcDbEntity
  8
0
390
0
  6
Continuous
 62
     7
100
AcDbLine
 10
172.0
 20
10.0
 30
0.0
 11
287.0
 21
10.0
 31
0.0
  0
LINE
  5
5C
100
AcDbEntity
  8
0
390
0
  6
Continuous
 62
     7
100
AcDbLine
 10
172.0
 20
58.0
 30
0.0
 11
287.0
 21
58.0
 31
0.0
  0
LINE
  5
5D
100
AcDbEntity
  8
0
390
0
  6
Continuous
 62
     7
100
AcDbLine
 10
172.0
 20
10.0
 30
0.0
 11
172.0
 21
58.0
 31
0.0
  0
LINE
  5
5E
100
AcDbEntity
  8
0
390
0
  6
Continuous
 62
     7
100
AcDbLine
 10
287.0
 20
10.0
 30
0.0
 11
287.0
 21
58.0
 31
0.0
  0
LINE
  5
5F
100
AcDbEntity
  8
0
390
0
  6
Continuous
 62
     9
100
AcDbLine
 10
287.0
 20
51.856682
 30
0.0
 11
172.0
 21
51.856682
 31
0.0
  0
LINE
  5
60
100
AcDbEntity
  8
0
390
0
  6
Continuous
 62
     9
100
AcDbLine
 10
287.0
 20
40.642313
 30
0.0
 11
172.0
 21
40.642313
 31
0.0
  0
LINE
  5
61
100
AcDbEntity
  8
0
390
0
  6
Continuous
 62
     9
100
AcDbLine
 10
287.0
 20
36.542169
 30
0.0
 11
172.0
 21
36.542169
 31
0.0
  0
LINE
  5
62
100
AcDbEntity
  8
0
390
0
  6
Continuous
 62
     9
100
AcDbLine
 10
287.0
 20
28.480012
 30
0.0
 11
172.0
 21
28.480012
 31
0.0
  0
LINE
  5
63
100
AcDbEntity
  8
0
390
0
  6
Continuous
 62
     9
100
AcDbLine
 10
191.06501
 20
10.0
 30
0.0
 11
191.06501
 21
28.480012
 31
0.0
  0
LINE
  5
64
100
AcDbEntity
  8
0
390
0
  6
Continuous
 62
     9
100
AcDbLine
 10
210.163182
 20
10.0
 30
0.0
 11
210.163182
 21
28.480012
 31
0.0
  0
LINE
  5
65
100
AcDbEntity
  8
0
390
0
  6
Continuous
 62
     9
100
AcDbLine
 10
229.261081
 20
10.0
 30
0.0
 11
229.261081
 21
28.480012
 31
0.0
  0
LINE
  5
66
100
AcDbEntity
  8
0
390
0
  6
Continuous
 62
     9
100
AcDbLine
 10
287.0
 20
21.382604
 30
0.0
 11
229.261081
 21
21.382604
 31
0.0
  0
LINE
  5
67
100
AcDbEntity
  8
0
390
0
  6
Continuous
 62
     9
100
AcDbLine
 10
248.767874
 20
21.382604
 30
0.0
 11
248.767874
 21
28.480012
 31
0.0
  0
LINE
  5
68
100
AcDbEntity
  8
0
390
0
  6
Continuous
 62
     9
100
AcDbLine
 10
229.261081
 20
24.671098
 30
0.0
 11
210.163182
 21
24.671098
 31
0.0
  0
LINE
  5
69
100
AcDbEntity
  8
0
390
0
  6
Continuous
 62
     9
100
AcDbLine
 10
210.163182
 20
24.668855
 30
0.0
 11
191.06501
 21
24.668855
 31
0.0
  0
LINE
  5
6A
100
AcDbEntity
  8
0
390
0
  6
Continuous
 62
     9
100
AcDbLine
 10
191.06501
 20
24.668855
 30
0.0
 11
172.0
 21
24.668855
 31
0.0
  0
LINE
  5
6B
100
AcDbEntity
  8
0
390
0
  6
Continuous
 62
     9
100
AcDbLine
 10
191.06501
 20
28.480012
 30
0.0
 11
191.06501
 21
36.542169
 31
0.0
  0
LINE
  5
6C
100
AcDbEntity
  8
0
390
0
  6
Continuous
 62
     9
100
AcDbLine
 10
210.163182
 20
28.480012
 30
0.0
 11
210.163182
 21
36.542169
 31
0.0
  0
LINE
  5
6D
100
AcDbEntity
  8
0
390
0
  6
Continuous
 62
     9
100
AcDbLine
 10
229.261081
 20
28.480012
 30
0.0
 11
229.261081
 21
36.542169
 31
0.0
  0
LINE
  5
6E
100
AcDbEntity
  8
0
390
0
  6
Continuous
 62
     9
100
AcDbLine
 10
248.767874
 20
28.480012
 30
0.0
 11
248.767874
 21
36.542169
 31
0.0
  0
LINE
  5
6F
100
AcDbEntity
  8
0
390
0
  6
Continuous
 62
     9
100
AcDbLine
 10
267.887786
 20
28.480012
 30
0.0
 11
267.887786
 21
36.542169
 31
0.0
  0
LINE
  5
70
100
AcDbEntity
  8
0
390
0
  6
Continuous
 62
     9
100
AcDbLine
 10
191.06501
 20
36.542169
 30
0.0
 11
191.06501
 21
40.642313
 31
0.0
  0
LINE
  5
71
100
AcDbEntity
  8
0
390
0
  6
Continuous
 62
     9
100
AcDbLine
 10
210.163182
 20
36.542169
 30
0.0
 11
210.163182
 21
40.642313
 31
0.0
  0
LINE
  5
72
100
AcDbEntity
  8
0
390
0
  6
Continuous
 62
     9
100
AcDbLine
 10
229.261081
 20
36.542169
 30
0.0
 11
229.261081
 21
40.642313
 31
0.0
  0
LINE
  5
73
100
AcDbEntity
  8
0
390
0
  6
Continuous
 62
     9
100
AcDbLine
 10
248.767874
 20
36.542169
 30
0.0
 11
248.767874
 21
40.642313
 31
0.0
  0
LINE
  5
74
100
AcDbEntity
  8
0
390
0
  6
Continuous
 62
     9
100
AcDbLine
 10
267.887786
 20
36.542169
 30
0.0
 11
267.887786
 21
40.642313
 31
0.0
  0
LINE
  5
75
100
AcDbEntity
  8
0
390
0
  6
Continuous
 62
     9
100
AcDbLine
 10
189.056259
 20
40.642313
 30
0.0
 11
189.056259
 21
51.856682
 31
0.0
  0
LINE
  5
76
100
AcDbEntity
  8
0
390
0
  6
Continuous
 62
     9
100
AcDbLine
 10
229.258465
 20
40.642313
 30
0.0
 11
229.258465
 21
51.856682
 31
0.0
  0
LINE
  5
77
100
AcDbEntity
  8
0
390
0
  6
Continuous
 62
     9
100
AcDbLine
 10
247.674009
 20
40.642313
 30
0.0
 11
247.674009
 21
51.856682
 31
0.0
  0
LINE
  5
78
100
AcDbEntity
  8
0
390
0
  6
Continuous
 62
     9
100
AcDbLine
 10
247.674009
 20
46.249498
 30
0.0
 11
287.0
 21
46.249498
 31
0.0
  0
LINE
  5
79
100
AcDbEntity
  8
0
390
0
  6
Continuous
 62
     9
100
AcDbLine
 10
229.258465
 20
46.249498
 30
0.0
 11
247.674009
 21
46.249498
 31
0.0
  0
LINE
  5
7A
100
AcDbEntity
  8
0
390
0
  6
Continuous
 62
     9
100
AcDbLine
 10
189.056259
 20
46.249498
 30
0.0
 11
229.258465
 21
46.249498
 31
0.0
  0
LINE
  5
7B
100
AcDbEntity
  8
0
390
0
  6
Continuous
 62
     9
100
AcDbLine
 10
172.0
 20
46.249498
 30
0.0
 11
189.056259
 21
46.249498
 31
0.0
  0
LINE
  5
7C
100
AcDbEntity
  8
0
390
0
  6
Continuous
 62
     9
100
AcDbLine
 10
189.056015
 20
51.856682
 30
0.0
 11
189.056015
 21
58.0
 31
0.0
  0
LINE
  5
7D
100
AcDbEntity
  8
0
390
0
  6
Continuous
 62
     9
100
AcDbLine
 10
229.257297
 20
51.856682
 30
0.0
 11
229.257297
 21
58.0
 31
0.0
  0
LINE
  5
7E
100
AcDbEntity
  8
0
390
0
  6
Continuous
 62
     9
100
AcDbLine
 10
247.673427
 20
51.856682
 30
0.0
 11
247.673427
 21
58.0
 31
0.0
  0
ENDBLK
  5
7F
100
AcDbEntity
  8
0
390
0
100
AcDbBlockEnd
  0
BLOCK
  5
8F
100
AcDbEntity
  8
0
390
0
100
AcDbBlockBegin
  2
AID185
 70
     0
 10
0.0
 20
0.0
 30
0.0
  3
#draft border with alignment
  1

  0
LINE
  5
90
100
AcDbEntity
  8
0
390
0
  6
Continuous
 62
     7
100
AcDbLine
 10
88.0
 20
10.0
 30
0.0
 11
172.0
 21
10.0
 31
0.0
  0
LINE
  5
91
100
AcDbEntity
  8
0
390
0
  6
Continuous
 62
     7
100
AcDbLine
 10
88.0
 20
43.99
 30
0.0
 11
172.0
 21
43.99
 31
0.0
  0
LINE
  5
92
100
AcDbEntity
  8
0
390
0
  6
Continuous
 62
     7
100
AcDbLine
 10
88.0
 20
10.0
 30
0.0
 11
88.0
 21
43.99
 31
0.0
  0
LINE
  5
93
100
AcDbEntity
  8
0
390
0
  6
Continuous
 62
     7
100
AcDbLine
 10
172.0
 20
10.0
 30
0.0
 11
172.0
 21
43.99
 31
0.0
  0
LINE
  5
94
100
AcDbEntity
  8
0
390
0
  6
Continuous
 62
     9
100
AcDbLine
 10
88.0
 20
15.665
 30
0.0
 11
172.0
 21
15.665
 31
0.0
  0
LINE
  5
95
100
AcDbEntity
  8
0
390
0
  6
Continuous
 62
     9
100
AcDbLine
 10
88.0
 20
21.33
 30
0.0
 11
172.0
 21
21.33
 31
0.0
  0
LINE
  5
96
100
AcDbEntity
  8
0
390
0
  6
Continuous
 62
     9
100
AcDbLine
 10
88.0
 20
26.995
 30
0.0
 11
172.0
 21
26.995
 31
0.0
  0
LINE
  5
97
100
AcDbEntity
  8
0
390
0
  6
Continuous
 62
     9
100
AcDbLine
 10
88.0
 20
32.66
 30
0.0
 11
172.0
 21
32.66
 31
0.0
  0
LINE
  5
98
100
AcDbEntity
  8
0
390
0
  6
Continuous
 62
     9
100
AcDbLine
 10
88.0
 20
38.325
 30
0.0
 11
172.0
 21
38.325
 31
0.0
  0
LINE
  5
99
100
AcDbEntity
  8
0
390
0
  6
Continuous
 62
     9
100
AcDbLine
 10
162.664654
 20
10.0
 30
0.0
 11
162.664654
 21
15.665
 31
0.0
  0
LINE
  5
9A
100
AcDbEntity
  8
0
390
0
  6
Continuous
 62
     9
100
AcDbLine
 10
153.324515
 20
10.0
 30
0.0
 11
153.324515
 21
15.665
 31
0.0
  0
LINE
  5
9B
100
AcDbEntity
  8
0
390
0
  6
Continuous
 62
     9
100
AcDbLine
 10
143.986913
 20
10.0
 30
0.0
 11
143.986913
 21
15.665
 31
0.0
  0
LINE
  5
9C
100
AcDbEntity
  8
0
390
0
  6
Continuous
 62
     9
100
AcDbLine
 10
97.742741
 20
10.0
 30
0.0
 11
97.742741
 21
15.665
 31
0.0
  0
LINE
  5
9D
100
AcDbEntity
  8
0
390
0
  6
Continuous
 62
     9
100
AcDbLine
 10
128.983997
 20
10.0
 30
0.0
 11
128.983997
 21
15.665
 31
0.0
  0
LINE
  5
9E
100
AcDbEntity
  8
0
390
0
  6
Continuous
 62
     9
100
AcDbLine
 10
162.664654
 20
15.665
 30
0.0
 11
162.664654
 21
21.33
 31
0.0
  0
LINE
  5
9F
100
AcDbEntity
  8
0
390
0
  6
Continuous
 62
     9
100
AcDbLine
 10
153.324515
 20
15.665
 30
0.0
 11
153.324515
 21
21.33
 31
0.0
  0
LINE
  5
A0
100
AcDbEntity
  8
0
390
0
  6
Continuous
 62
     9
100
AcDbLine
 10
143.986913
 20
15.665
 30
0.0
 11
143.986913
 21
21.33
 31
0.0
  0
LINE
  5
A1
100
AcDbEntity
  8
0
390
0
  6
Continuous
 62
     9
100
AcDbLine
 10
97.742741
 20
15.665
 30
0.0
 11
97.742741
 21
21.33
 31
0.0
  0
LINE
  5
A2
100
AcDbEntity
  8
0
390
0
  6
Continuous
 62
     9
100
AcDbLine
 10
128.983997
 20
15.665
 30
0.0
 11
128.983997
 21
21.33
 31
0.0
  0
LINE
  5
A3
100
AcDbEntity
  8
0
390
0
  6
Continuous
 62
     9
100
AcDbLine
 10
162.664654
 20
21.33
 30
0.0
 11
162.664654
 21
26.995
 31
0.0
  0
LINE
  5
A4
100
AcDbEntity
  8
0
390
0
  6
Continuous
 62
     9
100
AcDbLine
 10
153.324515
 20
21.33
 30
0.0
 11
153.324515
 21
26.995
 31
0.0
  0
LINE
  5
A5
100
AcDbEntity
  8
0
390
0
  6
Continuous
 62
     9
100
AcDbLine
 10
143.986913
 20
21.33
 30
0.0
 11
143.986913
 21
26.995
 31
0.0
  0
LINE
  5
A6
100
AcDbEntity
  8
0
390
0
  6
Continuous
 62
     9
100
AcDbLine
 10
97.742741
 20
21.33
 30
0.0
 11
97.742741
 21
26.995
 31
0.0
  0
LINE
  5
A7
100
AcDbEntity
  8
0
390
0
  6
Continuous
 62
     9
100
AcDbLine
 10
128.983997
 20
21.33
 30
0.0
 11
128.983997
 21
26.995
 31
0.0
  0
LINE
  5
A8
100
AcDbEntity
  8
0
390
0
  6
Continuous
 62
     9
100
AcDbLine
 10
162.664654
 20
26.995
 30
0.0
 11
162.664654
 21
32.66
 31
0.0
  0
LINE
  5
A9
100
AcDbEntity
  8
0
390
0
  6
Continuous
 62
     9
100
AcDbLine
 10
153.324515
 20
26.995
 30
0.0
 11
153.324515
 21
32.66
 31
0.0
  0
LINE
  5
AA
100
AcDbEntity
  8
0
390
0
  6
Continuous
 62
     9
100
AcDbLine
 10
143.986913
 20
26.995
 30
0.0
 11
143.986913
 21
32.66
 31
0.0
  0
LINE
  5
AB
100
AcDbEntity
  8
0
390
0
  6
Continuous
 62
     9
100
AcDbLine
 10
97.742741
 20
26.995
 30
0.0
 11
97.742741
 21
32.66
 31
0.0
  0
LINE
  5
AC
100
AcDbEntity
  8
0
390
0
  6
Continuous
 62
     9
100
AcDbLine
 10
128.983997
 20
26.995
 30
0.0
 11
128.983997
 21
32.66
 31
0.0
  0
LINE
  5
AD
100
AcDbEntity
  8
0
390
0
  6
Continuous
 62
     9
100
AcDbLine
 10
162.664654
 20
32.66
 30
0.0
 11
162.664654
 21
38.325
 31
0.0
  0
LINE
  5
AE
100
AcDbEntity
  8
0
390
0
  6
Continuous
 62
     9
100
AcDbLine
 10
153.324515
 20
32.66
 30
0.0
 11
153.324515
 21
38.325
 31
0.0
  0
LINE
  5
AF
100
AcDbEntity
  8
0
390
0
  6
Continuous
 62
     9
100
AcDbLine
 10
143.986913
 20
32.66
 30
0.0
 11
143.986913
 21
38.325
 31
0.0
  0
LINE
  5
B0
100
AcDbEntity
  8
0
390
0
  6
Continuous
 62
     9
100
AcDbLine
 10
97.742741
 20
32.66
 30
0.0
 11
97.742741
 21
38.325
 31
0.0
  0
LINE
  5
B1
100
AcDbEntity
  8
0
390
0
  6
Continuous
 62
     9
100
AcDbLine
 10
128.983997
 20
32.66
 30
0.0
 11
128.983997
 21
38.325
 31
0.0
  0
LINE
  5
B2
100
AcDbEntity
  8
0
390
0
  6
Continuous
 62
     9
100
AcDbLine
 10
162.664654
 20
38.325
 30
0.0
 11
162.664654
 21
43.99
 31
0.0
  0
LINE
  5
B3
100
AcDbEntity
  8
0
390
0
  6
Continuous
 62
     9
100
AcDbLine
 10
153.324515
 20
38.325
 30
0.0
 11
153.324515
 21
43.99
 31
0.0
  0
LINE
  5
B4
100
AcDbEntity
  8
0
390
0
  6
Continuous
 62
     9
100
AcDbLine
 10
143.986913
 20
38.325
 30
0.0
 11
143.986913
 21
43.99
 31
0.0
  0
LINE
  5
B5
100
AcDbEntity
  8
0
390
0
  6
Continuous
 62
     9
100
AcDbLine
 10
97.742741
 20
38.325
 30
0.0
 11
97.742741
 21
43.99
 31
0.0
  0
LINE
  5
B6
100
AcDbEntity
  8
0
390
0
  6
Continuous
 62
     9
100
AcDbLine
 10
128.983997
 20
38.325
 30
0.0
 11
128.983997
 21
43.99
 31
0.0
  0
ENDBLK
  5
B7
100
AcDbEntity
  8
0
390
0
100
AcDbBlockEnd
  0
BLOCK
  5
BF
100
AcDbEntity
  8
0
390
0
100
AcDbBlockBegin
  2
AID274
 70
     0
 10
0.0
 20
0.0
 30
0.0
  3
D_GROUP
  1

  0
MTEXT
  5
C0
100
AcDbEntity
  8
0
390
0
 62
     2
100
AcDbMText
 10
90.370058
 20
17.216139
 30
0.0
 40
2.0
 41
0.963636
 71
     7
 72
     1
  1
1
210
0.0
220
0.0
230
1.0
 73
     1
 44
1.0
  0
POLYLINE
  5
C1
100
AcDbEntity
  8
0
390
0
  6
Continuous
 62
     2
100
AcDb2dPolyline
 66
     1
 10
0.0
 20
0.0
 30
0.0
 70
     1
 40
0.1
 41
0.1
  0
VERTEX
  5
C2
100
AcDbEntity
  8
0
390
0
 62
     2
100
AcDbVertex
100
AcDb2dVertex
 10
92.87137
 20
16.752503
 30
0.0
  0
VERTEX
  5
C3
100
AcDbEntity
  8
0
390
0
 62
     2
100
AcDbVertex
100
AcDb2dVertex
 10
90.856421
 20
20.242497
 30
0.0
  0
VERTEX
  5
C4
100
AcDbEntity
  8
0
390
0
 62
     2
100
AcDbVertex
100
AcDb2dVertex
 10
88.841472
 20
16.752503
 30
0.0
  0
SEQEND
  5
C5
100
AcDbEntity
  8
0
390
0
  0
ENDBLK
  5
C6
100
AcDbEntity
  8
0
390
0
100
AcDbBlockEnd
  0
BLOCK
  5
C9
100
AcDbEntity
  8
0
390
0
100
AcDbBlockBegin
  2
AID279
 70
     0
 10
0.0
 20
0.0
 30
0.0
  3
D_GROUP
  1

  0
MTEXT
  5
CA
100
AcDbEntity
  8
0
390
0
 62
     2
100
AcDbMText
 10
90.051876
 20
22.697343
 30
0.0
 40
2.0
 41
1.854545
 71
     7
 72
     1
  1
2
210
0.0
220
0.0
230
1.0
 73
     1
 44
1.0
  0
POLYLINE
  5
CB
100
AcDbEntity
  8
0
390
0
  6
Continuous
 62
     2
100
AcDb2dPolyline
 66
     1
 10
0.0
 20
0.0
 30
0.0
 70
     1
 40
0.1
 41
0.1
  0
VERTEX
  5
CC
100
AcDbEntity
  8
0
390
0
 62
     2
100
AcDbVertex
100
AcDb2dVertex
 10
92.87137
 20
22.224615
 30
0.0
  0
VERTEX
  5
CD
100
AcDbEntity
  8
0
390
0
 62
     2
100
AcDbVertex
100
AcDb2dVertex
 10
90.633694
 20
26.100385
 30
0.0
  0
VERTEX
  5
CE
100
AcDbEntity
  8
0
390
0
 62
     2
100
AcDbVertex
100
AcDb2dVertex
 10
88.396018
 20
22.224615
 30
0.0
  0
SEQEND
  5
CF
100
AcDbEntity
  8
0
390
0
  0
ENDBLK
  5
D0
100
AcDbEntity
  8
0
390
0
100
AcDbBlockEnd
  0
BLOCK
  5
D3
100
AcDbEntity
  8
0
390
0
100
AcDbBlockBegin
  2
AID284
 70
     0
 10
0.0
 20
0.0
 30
0.0
  3
D_GROUP
  1

  0
MTEXT
  5
D4
100
AcDbEntity
  8
0
390
0
 62
     2
100
AcDbMText
 10
90.041379
 20
28.371434
 30
0.0
 40
2.0
 41
1.854545
 71
     7
 72
     1
  1
3
210
0.0
220
0.0
230
1.0
 73
     1
 44
1.0
  0
POLYLINE
  5
D5
100
AcDbEntity
  8
0
390
0
  6
Continuous
 62
     2
100
AcDb2dPolyline
 66
     1
 10
0.0
 20
0.0
 30
0.0
 70
     1
 40
0.1
 41
0.1
  0
VERTEX
  5
D6
100
AcDbEntity
  8
0
390
0
 62
     2
100
AcDbVertex
100
AcDb2dVertex
 10
92.87137
 20
27.880525
 30
0.0
  0
VERTEX
  5
D7
100
AcDbEntity
  8
0
390
0
 62
     2
100
AcDbVertex
100
AcDb2dVertex
 10
90.623197
 20
31.774475
 30
0.0
  0
VERTEX
  5
D8
100
AcDbEntity
  8
0
390
0
 62
     2
100
AcDbVertex
100
AcDb2dVertex
 10
88.375023
 20
27.880525
 30
0.0
  0
SEQEND
  5
D9
100
AcDbEntity
  8
0
390
0
  0
ENDBLK
  5
DA
100
AcDbEntity
  8
0
390
0
100
AcDbBlockEnd
  0
BLOCK
  5
DD
100
AcDbEntity
  8
0
390
0
100
AcDbBlockBegin
  2
AID289
 70
     0
 10
0.0
 20
0.0
 30
0.0
  3
D_GROUP
  1

  0
MTEXT
  5
DE
100
AcDbEntity
  8
0
390
0
 62
     2
100
AcDbMText
 10
90.006421
 20
33.991914
 30
0.0
 40
2.0
 41
2.018182
 71
     7
 72
     1
  1
4
210
0.0
220
0.0
230
1.0
 73
     1
 44
1.0
  0
POLYLINE
  5
DF
100
AcDbEntity
  8
0
390
0
  6
Continuous
 62
     2
100
AcDb2dPolyline
 66
     1
 10
0.0
 20
0.0
 30
0.0
 70
     1
 40
0.1
 41
0.1
  0
VERTEX
  5
E0
100
AcDbEntity
  8
0
390
0
 62
     2
100
AcDbVertex
100
AcDb2dVertex
 10
92.87137
 20
33.519187
 30
0.0
  0
VERTEX
  5
E1
100
AcDbEntity
  8
0
390
0
 62
     2
100
AcDbVertex
100
AcDb2dVertex
 10
90.592785
 20
37.465813
 30
0.0
  0
VERTEX
  5
E2
100
AcDbEntity
  8
0
390
0
 62
     2
100
AcDbVertex
100
AcDb2dVertex
 10
88.3142
 20
33.519187
 30
0.0
  0
SEQEND
  5
E3
100
AcDbEntity
  8
0
390
0
  0
ENDBLK
  5
E4
100
AcDbEntity
  8
0
390
0
100
AcDbBlockEnd
  0
BLOCK
  5
E7
100
AcDbEntity
  8
0
390
0
100
AcDbBlockBegin
  2
AID294
 70
     0
 10
0.0
 20
0.0
 30
0.0
  3
D_GROUP
  1

  0
MTEXT
  5
E8
100
AcDbEntity
  8
0
390
0
 62
     2
100
AcDbMText
 10
90.051876
 20
39.710525
 30
0.0
 40
2.0
 41
1.854545
 71
     7
 72
     1
  1
5
210
0.0
220
0.0
230
1.0
 73
     1
 44
1.0
  0
POLYLINE
  5
E9
100
AcDbEntity
  8
0
390
0
  6
Continuous
 62
     2
100
AcDb2dPolyline
 66
     1
 10
0.0
 20
0.0
 30
0.0
 70
     1
 40
0.1
 41
0.1
  0
VERTEX
  5
EA
100
AcDbEntity
  8
0
390
0
 62
     2
100
AcDbVertex
100
AcDb2dVertex
 10
92.87137
 20
39.219615
 30
0.0
  0
VERTEX
  5
EB
100
AcDbEntity
  8
0
390
0
 62
     2
100
AcDbVertex
100
AcDb2dVertex
 10
90.633694
 20
43.095385
 30
0.0
  0
VERTEX
  5
EC
100
AcDbEntity
  8
0
390
0
 62
     2
100
AcDbVertex
100
AcDb2dVertex
 10
88.396018
 20
39.219615
 30
0.0
  0
SEQEND
  5
ED
100
AcDbEntity
  8
0
390
0
  0
ENDBLK
  5
EE
100
AcDbEntity
  8
0
390
0
100
AcDbBlockEnd
  0
BLOCK
  5
FD
100
AcDbEntity
  8
0
390
0
100
AcDbBlockBegin
  2
AID323
 70
     0
 10
0.0
 20
0.0
 30
0.0
  3
D_GROUP
  1

  0
CIRCLE
  5
FE
100
AcDbEntity
  8
0
390
0
  6
Continuous
 62
     7
100
AcDbCircle
 10
234.514478
 20
32.511091
 30
0.0
 40
1.5
210
0.0
220
0.0
230
1.0
  0
CIRCLE
  5
FF
100
AcDbEntity
  8
0
390
0
  6
Continuous
 62
     7
100
AcDbCircle
 10
234.514478
 20
32.511091
 30
0.0
 40
3.0
210
0.0
220
0.0
230
1.0
  0
POLYLINE
  5
100
100
AcDbEntity
  8
0
390
0
  6
Continuous
 62
     7
100
AcDb2dPolyline
 66
     1
 10
0.0
 20
0.0
 30
0.0
 70
     1
 40
0.1
 41
0.1
  0
VERTEX
  5
101
100
AcDbEntity
  8
0
390
0
 62
     7
100
AcDbVertex
100
AcDb2dVertex
 10
239.514478
 20
31.011091
 30
0.0
  0
VERTEX
  5
102
100
AcDbEntity
  8
0
390
0
 62
     7
100
AcDbVertex
100
AcDb2dVertex
 10
239.514478
 20
34.011091
 30
0.0
  0
VERTEX
  5
103
100
AcDbEntity
  8
0
390
0
 62
     7
100
AcDbVertex
100
AcDb2dVertex
 10
246.514478
 20
35.511091
 30
0.0
  0
VERTEX
  5
104
100
AcDbEntity
  8
0
390
0
 62
     7
100
AcDbVertex
100
AcDb2dVertex
 10
246.514478
 20
29.511091
 30
0.0
  0
SEQEND
  5
105
100
AcDbEntity
  8
0
390
0
  0
LINE
  5
107
100
AcDbEntity
  8
0
390
0
  6
CENTER
 62
     1
100
AcDbLine
 10
230.514478
 20
32.511091
 30
0.0
 11
247.514478
 21
32.511091
 31
0.0
  0
LINE
  5
108
100
AcDbEntity
  8
0
390
0
  6
CENTER
 62
     1
100
AcDbLine
 10
234.514478
 20
28.511091
 30
0.0
 11
234.514478
 21
36.511091
 31
0.0
  0
ENDBLK
  5
109
100
AcDbEntity
  8
0
390
0
100
AcDbBlockEnd
  0
BLOCK
  5
10E
100
AcDbEntity
  8
0
390
0
100
AcDbBlockBegin
  2
AID339
 70
     0
 10
0.0
 20
0.0
 30
0.0
  3
#draft border with alignment
  1

  0
LINE
  5
10F
100
AcDbEntity
  8
0
390
0
  6
Continuous
 62
     7
100
AcDbLine
 10
10.0
 20
10.0
 30
0.0
 11
88.0
 21
10.0
 31
0.0
  0
LINE
  5
110
100
AcDbEntity
  8
0
390
0
  6
Continuous
 62
     7
100
AcDbLine
 10
10.0
 20
43.99
 30
0.0
 11
88.0
 21
43.99
 31
0.0
  0
LINE
  5
111
100
AcDbEntity
  8
0
390
0
  6
Continuous
 62
     7
100
AcDbLine
 10
10.0
 20
10.0
 30
0.0
 11
10.0
 21
43.99
 31
0.0
  0
LINE
  5
112
100
AcDbEntity
  8
0
390
0
  6
Continuous
 62
     7
100
AcDbLine
 10
88.0
 20
10.0
 30
0.0
 11
88.0
 21
43.99
 31
0.0
  0
LINE
  5
113
100
AcDbEntity
  8
0
390
0
  6
Continuous
 62
     9
100
AcDbLine
 10
88.0
 20
37.089693
 30
0.0
 11
10.0
 21
37.089693
 31
0.0
  0
LINE
  5
114
100
AcDbEntity
  8
0
390
0
  6
Continuous
 62
     9
100
AcDbLine
 10
10.0
 20
13.869956
 30
0.0
 11
88.0
 21
13.869956
 31
0.0
  0
LINE
  5
115
100
AcDbEntity
  8
0
390
0
  6
Continuous
 62
     9
100
AcDbLine
 10
10.0
 20
17.739912
 30
0.0
 11
88.0
 21
17.739912
 31
0.0
  0
LINE
  5
116
100
AcDbEntity
  8
0
390
0
  6
Continuous
 62
     9
100
AcDbLine
 10
10.0
 20
21.609869
 30
0.0
 11
88.0
 21
21.609869
 31
0.0
  0
LINE
  5
117
100
AcDbEntity
  8
0
390
0
  6
Continuous
 62
     9
100
AcDbLine
 10
10.0
 20
25.479825
 30
0.0
 11
88.0
 21
25.479825
 31
0.0
  0
LINE
  5
118
100
AcDbEntity
  8
0
390
0
  6
Continuous
 62
     9
100
AcDbLine
 10
10.0
 20
29.349781
 30
0.0
 11
88.0
 21
29.349781
 31
0.0
  0
LINE
  5
119
100
AcDbEntity
  8
0
390
0
  6
Continuous
 62
     9
100
AcDbLine
 10
10.0
 20
33.219737
 30
0.0
 11
88.0
 21
33.219737
 31
0.0
  0
LINE
  5
11A
100
AcDbEntity
  8
0
390
0
  6
Continuous
 62
     9
100
AcDbLine
 10
68.5
 20
10.0
 30
0.0
 11
68.5
 21
37.089693
 31
0.0
  0
LINE
  5
11B
100
AcDbEntity
  8
0
390
0
  6
Continuous
 62
     9
100
AcDbLine
 10
49.0
 20
10.0
 30
0.0
 11
49.0
 21
37.089693
 31
0.0
  0
LINE
  5
11C
100
AcDbEntity
  8
0
390
0
  6
Continuous
 62
     9
100
AcDbLine
 10
29.5
 20
10.0
 30
0.0
 11
29.5
 21
37.089693
 31
0.0
  0
LINE
  5
11D
100
AcDbEntity
  8
0
390
0
  6
Continuous
 62
     9
100
AcDbLine
 10
49.0
 20
37.089693
 30
0.0
 11
49.0
 21
43.99
 31
0.0
  0
ENDBLK
  5
11E
100
AcDbEntity
  8
0
390
0
100
AcDbBlockEnd
  0
BLOCK
  5
165
100
AcDbEntity
  8
0
390
0
100
AcDbBlockBegin
  2
AID504
 70
     0
 10
0.0
 20
0.0
 30
0.0
  3
D_GROUP
  1

  0
LINE
  5
166
100
AcDbEntity
  8
0
390
0
  6
Continuous
 62
     1
100
AcDbLine
 10
240.664325
 20
11.201902
 30
0.0
 11
240.664325
 21
13.105743
 31
0.0
  0
LINE
  5
167
100
AcDbEntity
  8
0
390
0
  6
Continuous
 62
     1
100
AcDbLine
 10
240.95526
 20
12.523695
 30
0.0
 11
240.955259
 21
12.053134
 31
0.0
  0
ARC
  5
168
100
AcDbEntity
  8
0
390
0
  6
Continuous
 62
     1
100
AcDbCircle
 10
241.582544
 20
12.269939
 30
0.0
 40
0.663695
210
0.0
220
0.0
230
1.0
100
AcDbArc
 50
199.066441
 51
267.345817
  0
ARC
  5
169
100
AcDbEntity
  8
0
390
0
  6
Continuous
 62
     1
100
AcDbCircle
 10
241.554391
 20
12.140962
 30
0.0
 40
0.534012
210
0.0
220
0.0
230
1.0
100
AcDbArc
 50
269.722984
 51
320.258813
  0
ARC
  5
16A
100
AcDbEntity
  8
0
390
0
  6
Continuous
 62
     1
100
AcDbCircle
 10
241.405781
 20
12.254125
 30
0.0
 40
0.720676
210
0.0
220
0.0
230
1.0
100
AcDbArc
 50
320.894405
 51
2.749691
  0
ARC
  5
16B
100
AcDbEntity
  8
0
390
0
  6
Continuous
 62
     1
100
AcDbCircle
 10
241.399479
 20
12.308293
 30
0.0
 40
0.726413
210
0.0
220
0.0
230
1.0
100
AcDbArc
 50
358.454215
 51
45.095683
  0
ARC
  5
16C
100
AcDbEntity
  8
0
390
0
  6
Continuous
 62
     1
100
AcDbCircle
 10
241.546441
 20
12.44385
 30
0.0
 40
0.526722
210
0.0
220
0.0
230
1.0
100
AcDbArc
 50
46.009269
 51
89.41606
  0
ARC
  5
16D
100
AcDbEntity
  8
0
390
0
  6
Continuous
 62
     1
100
AcDbCircle
 10
241.599959
 20
12.28464
 30
0.0
 40
0.687593
210
0.0
220
0.0
230
1.0
100
AcDbArc
 50
94.015492
 51
159.655151
  0
ARC
  5
16E
100
AcDbEntity
  8
0
390
0
  6
Continuous
 62
     1
100
AcDbCircle
 10
240.81487
 20
13.08542
 30
0.0
 40
0.151911
210
0.0
220
0.0
230
1.0
100
AcDbArc
 50
91.936155
 51
172.312003
  0
ARC
  5
16F
100
AcDbEntity
  8
0
390
0
  6
Continuous
 62
     1
100
AcDbCircle
 10
240.808489
 20
13.088609
 30
0.0
 40
0.148641
210
0.0
220
0.0
230
1.0
100
AcDbArc
 50
350.904155
 51
89.518465
  0
LINE
  5
170
100
AcDbEntity
  8
0
390
0
  6
Continuous
 62
     1
100
AcDbLine
 10
240.95526
 20
13.065111
 30
0.0
 11
240.95526
 21
12.940368
 31
0.0
  0
ARC
  5
171
100
AcDbEntity
  8
0
390
0
  6
Continuous
 62
     1
100
AcDbCircle
 10
241.583359
 20
12.425055
 30
0.0
 40
0.812438
210
0.0
220
0.0
230
1.0
100
AcDbArc
 50
91.416039
 51
140.633374
  0
ARC
  5
172
100
AcDbEntity
  8
0
390
0
  6
Continuous
 62
     1
100
AcDbCircle
 10
241.575478
 20
12.412098
 30
0.0
 40
0.825237
210
0.0
220
0.0
230
1.0
100
AcDbArc
 50
40.770944
 51
90.846792
  0
ARC
  5
173
100
AcDbEntity
  8
0
390
0
  6
Continuous
 62
     1
100
AcDbCircle
 10
241.467082
 20
12.312153
 30
0.0
 40
0.972608
210
0.0
220
0.0
230
0.9999999999999999
100
AcDbArc
 50
358.618135
 51
41.05987
  0
ARC
  5
174
100
AcDbEntity
  8
0
390
0
  6
Continuous
 62
     1
100
AcDbCircle
 10
241.436319
 20
12.263932
 30
0.0
 40
1.003394
210
0.0
220
0.0
230
1.0
100
AcDbArc
 50
319.60085
 51
1.41429
  0
ARC
  5
175
100
AcDbEntity
  8
0
390
0
  6
Continuous
 62
     1
100
AcDbCircle
 10
241.596185
 20
12.144396
 30
0.0
 40
0.804274
210
0.0
220
0.0
230
0.9999999999999999
100
AcDbArc
 50
268.465954
 51
318.704783
  0
ARC
  5
176
100
AcDbEntity
  8
0
390
0
  6
Continuous
 62
     1
100
AcDbCircle
 10
241.565804
 20
12.142439
 30
0.0
 40
0.802078
210
0.0
220
0.0
230
1.0
100
AcDbArc
 50
220.429708
 51
270.632212
  0
LINE
  5
177
100
AcDbEntity
  8
0
390
0
  6
Continuous
 62
     1
100
AcDbLine
 10
240.95526
 20
11.62228
 30
0.0
 11
240.95526
 21
11.161263
 31
0.0
  0
ARC
  5
178
100
AcDbEntity
  8
0
390
0
  6
Continuous
 62
     1
100
AcDbCircle
 10
240.804838
 20
11.181571
 30
0.0
 40
0.151787
210
0.0
220
0.0
230
1.0
100
AcDbArc
 50
271.849995
 51
352.311246
  0
ARC
  5
179
100
AcDbEntity
  8
0
390
0
  6
Continuous
 62
     1
100
AcDbCircle
 10
240.811025
 20
11.178425
 30
0.0
 40
0.148567
210
0.0
220
0.0
230
1.0
100
AcDbArc
 50
170.907764
 51
269.503551
  0
ARC
  5
17A
100
AcDbEntity
  8
0
390
0
  6
Continuous
 62
     1
100
AcDbCircle
 10
245.917136
 20
12.12295
 30
0.0
 40
0.516136
210
0.0
220
0.0
230
1.0
100
AcDbArc
 50
217.640476
 51
268.656661
  0
LINE
  5
17B
100
AcDbEntity
  8
0
390
0
  6
Continuous
 62
     1
100
AcDbLine
 10
245.375763
 20
12.48675
 30
0.0
 11
246.387815
 21
12.48675
 31
0.0
  0
ARC
  5
17C
100
AcDbEntity
  8
0
390
0
  6
Continuous
 62
     1
100
AcDbCircle
 10
245.937833
 20
12.490903
 30
0.0
 40
0.450002
210
0.0
220
0.0
230
1.0
100
AcDbArc
 50
359.471136
 51
44.064126
  0
ARC
  5
17D
100
AcDbEntity
  8
0
390
0
  6
Continuous
 62
     1
100
AcDbCircle
 10
245.900209
 20
12.496455
 30
0.0
 40
0.474135
210
0.0
220
0.0
230
1.0
100
AcDbArc
 50
40.417661
 51
90.79093
  0
ARC
  5
17E
100
AcDbEntity
  8
0
390
0
  6
Continuous
 62
     1
100
AcDbCircle
 10
245.910196
 20
12.469249
 30
0.0
 40
0.501568
210
0.0
220
0.0
230
1.0
100
AcDbArc
 50
91.888859
 51
141.550866
  0
ARC
  5
17F
100
AcDbEntity
  8
0
390
0
  6
Continuous
 62
     1
100
AcDbCircle
 10
245.998521
 20
12.368407
 30
0.0
 40
0.633902
210
0.0
220
0.0
230
1.0
100
AcDbArc
 50
139.376252
 51
169.240424
  0
ARC
  5
180
100
AcDbEntity
  8
0
390
0
  6
Continuous
 62
     1
100
AcDbCircle
 10
245.926394
 20
12.074115
 30
0.0
 40
0.467646
210
0.0
220
0.0
230
1.0
100
AcDbArc
 50
267.382381
 51
321.729349
  0
ARC
  5
181
100
AcDbEntity
  8
0
390
0
  6
Continuous
 62
     1
100
AcDbCircle
 10
245.811268
 20
12.155968
 30
0.0
 40
0.608769
210
0.0
220
0.0
230
1.0
100
AcDbArc
 50
322.392308
 51
345.783734
  0
LINE
  5
182
100
AcDbEntity
  8
0
390
0
  6
Continuous
 62
     1
100
AcDbLine
 10
246.403606
 20
12.010499
 30
0.0
 11
246.401394
 21
12.006465
 31
0.0
  0
ARC
  5
183
100
AcDbEntity
  8
0
390
0
  6
Continuous
 62
     1
100
AcDbCircle
 10
246.527126
 20
11.962634
 30
0.0
 40
0.132469
210
0.0
220
0.0
230
1.0
100
AcDbArc
 50
62.446966
 51
158.818237
  0
ARC
  5
184
100
AcDbEntity
  8
0
390
0
  6
Continuous
 62
     1
100
AcDbCircle
 10
246.500579
 20
11.94322
 30
0.0
 40
0.162614
210
0.0
220
0.0
230
1.0
100
AcDbArc
 50
340.786653
 51
57.311474
  0
ARC
  5
185
100
AcDbEntity
  8
0
390
0
  6
Continuous
 62
     1
100
AcDbCircle
 10
245.773135
 20
12.157353
 30
0.0
 40
0.920759
210
0.0
220
0.0
230
1.0
100
AcDbArc
 50
322.009682
 51
343.101282
  0
ARC
  5
186
100
AcDbEntity
  8
0
390
0
  6
Continuous
 62
     1
100
AcDbCircle
 10
245.969424
 20
12.019935
 30
0.0
 40
0.681591
210
0.0
220
0.0
230
1.0
100
AcDbArc
 50
265.538429
 51
320.957107
  0
ARC
  5
187
100
AcDbEntity
  8
0
390
0
  6
Continuous
 62
     1
100
AcDbCircle
 10
245.897452
 20
12.149859
 30
0.0
 40
0.809671
210
0.0
220
0.0
230
0.9999999999999999
100
AcDbArc
 50
221.474595
 51
271.341162
  0
ARC
  5
188
100
AcDbEntity
  8
0
390
0
  6
Continuous
 62
     1
100
AcDbCircle
 10
246.092175
 20
12.2788
 30
0.0
 40
1.041467
210
0.0
220
0.0
230
1.0
100
AcDbArc
 50
177.311019
 51
219.694362
  0
ARC
  5
189
100
AcDbEntity
  8
0
390
0
  6
Continuous
 62
     1
100
AcDbCircle
 10
245.993658
 20
12.336997
 30
0.0
 40
0.941849
210
0.0
220
0.0
230
1.0
100
AcDbArc
 50
138.266347
 51
180.567996
  0
ARC
  5
18A
100
AcDbEntity
  8
0
390
0
  6
Continuous
 62
     1
100
AcDbCircle
 10
245.889708
 20
12.444793
 30
0.0
 40
0.7926
210
0.0
220
0.0
230
0.9999999999999999
100
AcDbArc
 50
88.89191
 51
139.079317
  0
ARC
  5
18B
100
AcDbEntity
  8
0
390
0
  6
Continuous
 62
     1
100
AcDbCircle
 10
245.921241
 20
12.471927
 30
0.0
 40
0.765489
210
0.0
220
0.0
230
1.0
100
AcDbArc
 50
41.277619
 51
91.212982
  0
ARC
  5
18C
100
AcDbEntity
  8
0
390
0
  6
Continuous
 62
     1
100
AcDbCircle
 10
245.892358
 20
12.438835
 30
0.0
 40
0.809047
210
0.0
220
0.0
230
1.0
100
AcDbArc
 50
359.453444
 51
41.689446
  0
ARC
  5
18D
100
AcDbEntity
  8
0
390
0
  6
Continuous
 62
     1
100
AcDbCircle
 10
246.514184
 20
12.408633
 30
0.0
 40
0.18853
210
0.0
220
0.0
230
0.9999999999999999
100
AcDbArc
 50
271.251899
 51
6.84946
  0
LINE
  5
18E
100
AcDbEntity
  8
0
390
0
  6
Continuous
 62
     1
100
AcDbLine
 10
245.368424
 20
12.220149
 30
0.0
 11
246.518303
 21
12.220149
 31
0.0
  0
ARC
  5
18F
100
AcDbEntity
  8
0
390
0
  6
Continuous
 62
     1
100
AcDbCircle
 10
246.036588
 20
12.217013
 30
0.0
 40
0.668171
210
0.0
220
0.0
230
1.0
100
AcDbArc
 50
179.731089
 51
217.772082
  0
ARC
  5
190
100
AcDbEntity
  8
0
390
0
  6
Continuous
 62
     1
100
AcDbCircle
 10
237.931733
 20
12.322851
 30
0.0
 40
0.688489
210
0.0
220
0.0
230
1.0
100
AcDbArc
 50
358.241243
 51
42.774355
  0
ARC
  5
191
100
AcDbEntity
  8
0
390
0
  6
Continuous
 62
     1
100
AcDbCircle
 10
238.022116
 20
12.402448
 30
0.0
 40
0.568098
210
0.0
220
0.0
230
1.0
100
AcDbArc
 50
43.072127
 51
89.881097
  0
ARC
  5
192
100
AcDbEntity
  8
0
390
0
  6
Continuous
 62
     1
100
AcDbCircle
 10
238.023194
 20
12.405602
 30
0.0
 40
0.564943
210
0.0
220
0.0
230
1.0
100
AcDbArc
 50
89.989817
 51
140.482884
  0
ARC
  5
193
100
AcDbEntity
  8
0
390
0
  6
Continuous
 62
     1
100
AcDbCircle
 10
238.107663
 20
12.325297
 30
0.0
 40
0.681253
210
0.0
220
0.0
230
0.9999999999999999
100
AcDbArc
 50
139.793085
 51
181.983258
  0
CIRCLE
  5
194
100
AcDbEntity
  8
0
390
0
  6
Continuous
 62
     1
100
AcDbCircle
 10
238.02337
 20
12.288828
 30
0.0
 40
0.910411
210
0.0
220
0.0
230
1.0
  0
ARC
  5
195
100
AcDbEntity
  8
0
390
0
  6
Continuous
 62
     1
100
AcDbCircle
 10
238.036526
 20
12.167073
 30
0.0
 40
0.560273
210
0.0
220
0.0
230
1.0
100
AcDbArc
 50
268.646801
 51
319.007629
  0
ARC
  5
196
100
AcDbEntity
  8
0
390
0
  6
Continuous
 62
     1
100
AcDbCircle
 10
237.879496
 20
12.261612
 30
0.0
 40
0.741488
210
0.0
220
0.0
230
1.0
100
AcDbArc
 50
321.453788
 51
3.100733
  0
ARC
  5
197
100
AcDbEntity
  8
0
390
0
  6
Continuous
 62
     1
100
AcDbCircle
 10
238.187273
 20
12.268115
 30
0.0
 40
0.761197
210
0.0
220
0.0
230
1.0
100
AcDbArc
 50
177.469701
 51
217.992212
  0
ARC
  5
198
100
AcDbEntity
  8
0
390
0
  6
Continuous
 62
     1
100
AcDbCircle
 10
238.00939
 20
12.165097
 30
0.0
 40
0.558313
210
0.0
220
0.0
230
1.0
100
AcDbArc
 50
220.898494
 51
271.42703
  0
ARC
  5
199
100
AcDbEntity
  8
0
390
0
  6
Continuous
 62
     1
100
AcDbCircle
 10
244.151845
 20
12.416829
 30
0.0
 40
0.820446
210
0.0
220
0.0
230
1.0
100
AcDbArc
 50
90.497142
 51
135.467515
  0
ARC
  5
19A
100
AcDbEntity
  8
0
390
0
  6
Continuous
 62
     1
100
AcDbCircle
 10
244.173203
 20
12.499248
 30
0.0
 40
0.738546
210
0.0
220
0.0
230
1.0
100
AcDbArc
 50
42.984286
 51
92.209764
  0
ARC
  5
19B
100
AcDbEntity
  8
0
390
0
  6
Continuous
 62
     1
100
AcDbCircle
 10
244.075928
 20
12.504201
 30
0.0
 40
0.809358
210
0.0
220
0.0
230
1.0
100
AcDbArc
 50
356.655397
 51
38.026562
  0
LINE
  5
19C
100
AcDbEntity
  8
0
390
0
  6
Continuous
 62
     1
100
AcDbLine
 10
244.883907
 20
12.456982
 30
0.0
 11
244.883909
 21
11.471864
 31
0.0
  0
ARC
  5
19D
100
AcDbEntity
  8
0
390
0
  6
Continuous
 62
     1
100
AcDbCircle
 10
244.733435
 20
11.492166
 30
0.0
 40
0.151837
210
0.0
220
0.0
230
1.0
100
AcDbArc
 50
271.869229
 51
352.316001
  0
ARC
  5
19E
100
AcDbEntity
  8
0
390
0
  6
Continuous
 62
     1
100
AcDbCircle
 10
243.317844
 20
11.492136
 30
0.0
 40
0.151806
210
0.0
220
0.0
230
1.0
100
AcDbArc
 50
271.856202
 51
7.697154
  0
LINE
  5
19F
100
AcDbEntity
  8
0
390
0
  6
Continuous
 62
     1
100
AcDbLine
 10
243.468283
 20
12.463131
 30
0.0
 11
243.468282
 21
11.512468
 31
0.0
  0
ARC
  5
1A0
100
AcDbEntity
  8
0
390
0
  6
Continuous
 62
     1
100
AcDbCircle
 10
244.219851
 20
12.210897
 30
0.0
 40
0.792766
210
0.0
220
0.0
230
1.0
100
AcDbArc
 50
139.318632
 51
161.44769
  0
ARC
  5
1A1
100
AcDbEntity
  8
0
390
0
  6
Continuous
 62
     1
100
AcDbCircle
 10
244.108841
 20
12.354823
 30
0.0
 40
0.615862
210
0.0
220
0.0
230
1.0
100
AcDbArc
 50
88.776775
 51
142.742776
  0
ARC
  5
1A2
100
AcDbEntity
  8
0
390
0
  6
Continuous
 62
     1
100
AcDbCircle
 10
244.136917
 20
12.515945
 30
0.0
 40
0.454845
210
0.0
220
0.0
230
1.0
100
AcDbArc
 50
41.411226
 51
91.880972
  0
ARC
  5
1A3
100
AcDbEntity
  8
0
390
0
  6
Continuous
 62
     1
100
AcDbCircle
 10
243.982092
 20
12.45794
 30
0.0
 40
0.61217
210
0.0
220
0.0
230
0.9999999999999999
100
AcDbArc
 50
356.27304
 51
35.889176
  0
LINE
  5
1A4
100
AcDbEntity
  8
0
390
0
  6
Continuous
 62
     1
100
AcDbLine
 10
244.592968
 20
11.512468
 30
0.0
 11
244.592967
 21
12.418148
 31
0.0
  0
ARC
  5
1A5
100
AcDbEntity
  8
0
390
0
  6
Continuous
 62
     1
100
AcDbCircle
 10
244.739609
 20
11.488924
 30
0.0
 40
0.148519
210
0.0
220
0.0
230
1.0
100
AcDbArc
 50
170.878787
 51
269.528688
  0
LINE
  5
1A6
100
AcDbEntity
  8
0
390
0
  6
Continuous
 62
     1
100
AcDbLine
 10
243.509661
 20
12.929831
 30
0.0
 11
243.566987
 21
12.992219
 31
0.0
  0
LINE
  5
1A7
100
AcDbEntity
  8
0
390
0
  6
Continuous
 62
     1
100
AcDbLine
 10
243.468282
 20
12.877655
 30
0.0
 11
243.509661
 21
12.929831
 31
0.0
  0
LINE
  5
1A8
100
AcDbEntity
  8
0
390
0
  6
Continuous
 62
     1
100
AcDbLine
 10
243.468283
 20
13.065111
 30
0.0
 11
243.468282
 21
12.877655
 31
0.0
  0
ARC
  5
1A9
100
AcDbEntity
  8
0
390
0
  6
Continuous
 62
     1
100
AcDbCircle
 10
243.321514
 20
13.088612
 30
0.0
 40
0.148638
210
0.0
220
0.0
230
1.0
100
AcDbArc
 50
350.903117
 51
89.519339
  0
ARC
  5
1AA
100
AcDbEntity
  8
0
390
0
  6
Continuous
 62
     1
100
AcDbCircle
 10
243.327794
 20
13.085412
 30
0.0
 40
0.151916
210
0.0
220
0.0
230
1.0
100
AcDbArc
 50
91.898674
 51
187.679004
  0
LINE
  5
1AB
100
AcDbEntity
  8
0
390
0
  6
Continuous
 62
     1
100
AcDbLine
 10
243.177241
 20
11.512468
 30
0.0
 11
243.17724
 21
13.065112
 31
0.0
  0
ARC
  5
1AC
100
AcDbEntity
  8
0
390
0
  6
Continuous
 62
     1
100
AcDbCircle
 10
243.323977
 20
11.489005
 30
0.0
 40
0.1486
210
0.0
220
0.0
230
1.0
100
AcDbArc
 50
170.915515
 51
269.531091
  0
ARC
  5
1AD
100
AcDbEntity
  8
0
390
0
  6
Continuous
 62
     1
100
AcDbCircle
 10
242.795312
 20
13.085469
 30
0.0
 40
0.151915
210
0.0
220
0.0
230
1.0
100
AcDbArc
 50
91.93329
 51
172.299235
  0
LINE
  5
1AE
100
AcDbEntity
  8
0
390
0
  6
Continuous
 62
     1
100
AcDbLine
 10
242.644767
 20
11.512521
 30
0.0
 11
242.644766
 21
13.105825
 31
0.0
  0
ARC
  5
1AF
100
AcDbEntity
  8
0
390
0
  6
Continuous
 62
     1
100
AcDbCircle
 10
242.791471
 20
11.489031
 30
0.0
 40
0.148573
210
0.0
220
0.0
230
1.0
100
AcDbArc
 50
170.902946
 51
269.504554
  0
ARC
  5
1B0
100
AcDbEntity
  8
0
390
0
  6
Continuous
 62
     1
100
AcDbCircle
 10
242.785211
 20
11.492239
 30
0.0
 40
0.151857
210
0.0
220
0.0
230
0.9999999999999999
100
AcDbArc
 50
271.877763
 51
352.324516
  0
LINE
  5
1B1
100
AcDbEntity
  8
0
390
0
  6
Continuous
 62
     1
100
AcDbLine
 10
242.935706
 20
13.065111
 30
0.0
 11
242.935707
 21
11.471956
 31
0.0
  0
ARC
  5
1B2
100
AcDbEntity
  8
0
390
0
  6
Continuous
 62
     1
100
AcDbCircle
 10
242.78888
 20
13.088609
 30
0.0
 40
0.148694
210
0.0
220
0.0
230
1.0
100
AcDbArc
 50
350.90764
 51
89.496464
  0
ARC
  5
1B3
100
AcDbEntity
  8
0
390
0
  6
Continuous
 62
     1
100
AcDbCircle
 10
240.256193
 20
12.754972
 30
0.0
 40
0.163015
210
0.0
220
0.0
230
1.0
100
AcDbArc
 50
298.956364
 51
359.591462
  0
ARC
  5
1B4
100
AcDbEntity
  8
0
390
0
  6
Continuous
 62
     1
100
AcDbCircle
 10
240.02243
 20
12.733546
 30
0.0
 40
0.397291
210
0.0
220
0.0
230
1.0
100
AcDbArc
 50
2.923702
 51
42.663687
  0
ARC
  5
1B5
100
AcDbEntity
  8
0
390
0
  6
Continuous
 62
     1
100
AcDbCircle
 10
239.750565
 20
12.447047
 30
0.0
 40
0.791805
210
0.0
220
0.0
230
1.0
100
AcDbArc
 50
44.57678
 51
93.651322
  0
ARC
  5
1B6
100
AcDbEntity
  8
0
390
0
  6
Continuous
 62
     1
100
AcDbCircle
 10
239.639393
 20
12.495523
 30
0.0
 40
0.744205
210
0.0
220
0.0
230
1.0
100
AcDbArc
 50
85.31798
 51
134.235296
  0
ARC
  5
1B7
100
AcDbEntity
  8
0
390
0
  6
Continuous
 62
     1
100
AcDbCircle
 10
239.491352
 20
12.682576
 30
0.0
 40
0.507499
210
0.0
220
0.0
230
1.0
100
AcDbArc
 50
136.993432
 51
179.168797
  0
ARC
  5
1B8
100
AcDbEntity
  8
0
390
0
  6
Continuous
 62
     1
100
AcDbCircle
 10
239.496953
 20
12.735179
 30
0.0
 40
0.515037
210
0.0
220
0.0
230
1.0
100
AcDbArc
 50
185.039304
 51
266.133785
  0
LINE
  5
1B9
100
AcDbEntity
  8
0
390
0
  6
Continuous
 62
     1
100
AcDbLine
 10
239.965552
 20
12.117572
 30
0.0
 11
239.462226
 21
12.221314
 31
0.0
  0
ARC
  5
1BA
100
AcDbEntity
  8
0
390
0
  6
Continuous
 62
     1
100
AcDbCircle
 10
239.94908
 20
11.861402
 30
0.0
 40
0.256699
210
0.0
220
0.0
230
1.0
100
AcDbArc
 50
2.968107
 51
86.320918
  0
ARC
  5
1BB
100
AcDbEntity
  8
0
390
0
  6
Continuous
 62
     1
100
AcDbCircle
 10
240.026188
 20
11.864445
 30
0.0
 40
0.17954
210
0.0
220
0.0
230
1.0
100
AcDbArc
 50
309.943715
 51
3.272213
  0
ARC
  5
1BC
100
AcDbEntity
  8
0
390
0
  6
Continuous
 62
     1
100
AcDbCircle
 10
239.787363
 20
12.188562
 30
0.0
 40
0.581903
210
0.0
220
0.0
230
1.0
100
AcDbArc
 50
268.168642
 51
307.482092
  0
ARC
  5
1BD
100
AcDbEntity
  8
0
390
0
  6
Continuous
 62
     1
100
AcDbCircle
 10
239.721123
 20
12.143939
 30
0.0
 40
0.539093
210
0.0
220
0.0
230
1.0
100
AcDbArc
 50
227.304262
 51
275.070283
  0
ARC
  5
1BE
100
AcDbEntity
  8
0
390
0
  6
Continuous
 62
     1
100
AcDbCircle
 10
239.644964
 20
12.013756
 30
0.0
 40
0.393098
210
0.0
220
0.0
230
0.9999999999999999
100
AcDbArc
 50
195.548696
 51
222.590534
  0
LINE
  5
1BF
100
AcDbEntity
  8
0
390
0
  6
Continuous
 62
     1
100
AcDbLine
 10
239.260812
 20
11.927935
 30
0.0
 11
239.266252
 21
11.908383
 31
0.0
  0
ARC
  5
1C0
100
AcDbEntity
  8
0
390
0
  6
Continuous
 62
     1
100
AcDbCircle
 10
239.125876
 20
11.89039
 30
0.0
 40
0.140062
210
0.0
220
0.0
230
1.0
100
AcDbArc
 50
15.548696
 51
117.281689
  0
ARC
  5
1C1
100
AcDbEntity
  8
0
390
0
  6
Continuous
 62
     1
100
AcDbCircle
 10
239.164085
 20
11.866358
 30
0.0
 40
0.180399
210
0.0
220
0.0
230
1.0
100
AcDbArc
 50
124.588211
 51
202.264913
  0
ARC
  5
1C2
100
AcDbEntity
  8
0
390
0
  6
Continuous
 62
     1
100
AcDbCircle
 10
239.498902
 20
11.947905
 30
0.0
 40
0.523678
210
0.0
220
0.0
230
1.0
100
AcDbArc
 50
196.633035
 51
225.761587
  0
ARC
  5
1C3
100
AcDbEntity
  8
0
390
0
  6
Continuous
 62
     1
100
AcDbCircle
 10
239.730349
 20
12.219946
 30
0.0
 40
0.880374
210
0.0
220
0.0
230
1.0
100
AcDbArc
 50
227.321724
 51
272.501038
  0
ARC
  5
1C4
100
AcDbEntity
  8
0
390
0
  6
Continuous
 62
     1
100
AcDbCircle
 10
239.794115
 20
12.203728
 30
0.0
 40
0.86369
210
0.0
220
0.0
230
1.0
100
AcDbArc
 50
268.318204
 51
310.213823
  0
ARC
  5
1C5
100
AcDbEntity
  8
0
390
0
  6
Continuous
 62
     1
100
AcDbCircle
 10
240.100367
 20
11.850637
 30
0.0
 40
0.39637
210
0.0
220
0.0
230
1.0
100
AcDbArc
 50
309.361416
 51
1.628804
  0
ARC
  5
1C6
100
AcDbEntity
  8
0
390
0
  6
Continuous
 62
     1
100
AcDbCircle
 10
239.979467
 20
11.88891
 30
0.0
 40
0.517815
210
0.0
220
0.0
230
1.0
100
AcDbArc
 50
357.01041
 51
38.822746
  0
ARC
  5
1C7
100
AcDbEntity
  8
0
390
0
  6
Continuous
 62
     1
100
AcDbCircle
 10
239.88265
 20
11.717443
 30
0.0
 40
0.70452
210
0.0
220
0.0
230
1.0
100
AcDbArc
 50
44.761396
 51
74.074227
  0
LINE
  5
1C8
100
AcDbEntity
  8
0
390
0
  6
Continuous
 62
     1
100
AcDbLine
 10
239.491573
 20
12.524834
 30
0.0
 11
240.075964
 21
12.394922
 31
0.0
  0
LINE
  5
1C9
100
AcDbEntity
  8
0
390
0
  6
Continuous
 62
     1
100
AcDbLine
 10
239.443594
 20
12.536378
 30
0.0
 11
239.491573
 21
12.524834
 31
0.0
  0
LINE
  5
1CA
100
AcDbEntity
  8
0
390
0
  6
Continuous
 62
     1
100
AcDbLine
 10
239.396742
 20
12.551844
 30
0.0
 11
239.443594
 21
12.536378
 31
0.0
  0
LINE
  5
1CB
100
AcDbEntity
  8
0
390
0
  6
Continuous
 62
     1
100
AcDbLine
 10
239.352125
 20
12.572848
 30
0.0
 11
239.396742
 21
12.551844
 31
0.0
  0
LINE
  5
1CC
100
AcDbEntity
  8
0
390
0
  6
Continuous
 62
     1
100
AcDbLine
 10
239.321606
 20
12.593725
 30
0.0
 11
239.352125
 21
12.572848
 31
0.0
  0
LINE
  5
1CD
100
AcDbEntity
  8
0
390
0
  6
Continuous
 62
     1
100
AcDbLine
 10
239.29611
 20
12.620435
 30
0.0
 11
239.321606
 21
12.593725
 31
0.0
  0
LINE
  5
1CE
100
AcDbEntity
  8
0
390
0
  6
Continuous
 62
     1
100
AcDbLine
 10
239.279565
 20
12.653358
 30
0.0
 11
239.29611
 21
12.620435
 31
0.0
  0
LINE
  5
1CF
100
AcDbEntity
  8
0
390
0
  6
Continuous
 62
     1
100
AcDbLine
 10
239.274948
 20
12.689938
 30
0.0
 11
239.279565
 21
12.653358
 31
0.0
  0
ARC
  5
1D0
100
AcDbEntity
  8
0
390
0
  6
Continuous
 62
     1
100
AcDbCircle
 10
239.515449
 20
12.699083
 30
0.0
 40
0.240674
210
0.0
220
0.0
230
1.0
100
AcDbArc
 50
139.395976
 51
182.177643
  0
ARC
  5
1D1
100
AcDbEntity
  8
0
390
0
  6
Continuous
 62
     1
100
AcDbCircle
 10
239.657105
 20
12.467922
 30
0.0
 40
0.505581
210
0.0
220
0.0
230
1.0
100
AcDbArc
 50
83.79895
 51
129.911498
  0
ARC
  5
1D2
100
AcDbEntity
  8
0
390
0
  6
Continuous
 62
     1
100
AcDbCircle
 10
239.755064
 20
12.548556
 30
0.0
 40
0.424209
210
0.0
220
0.0
230
1.0
100
AcDbArc
 50
20.97101
 51
95.864888
  0
ARC
  5
1D3
100
AcDbEntity
  8
0
390
0
  6
Continuous
 62
     1
100
AcDbCircle
 10
240.284034
 20
12.741783
 30
0.0
 40
0.139161
210
0.0
220
0.0
230
1.0
100
AcDbArc
 50
197.309091
 51
291.534944
  0
CIRCLE
  5
1D4
100
AcDbEntity
  8
0
390
0
  6
Continuous
 62
     1
100
AcDbCircle
 10
242.790236
 20
14.424485
 30
0.0
 40
0.963717
210
0.0
220
0.0
230
1.0
  0
ARC
  5
1D5
100
AcDbEntity
  8
0
390
0
  6
Continuous
 62
     1
100
AcDbCircle
 10
236.170867
 20
13.088593
 30
0.0
 40
0.148657
210
0.0
220
0.0
230
1.0
100
AcDbArc
 50
350.915999
 51
89.500183
  0
LINE
  5
1D6
100
AcDbEntity
  8
0
390
0
  6
Continuous
 62
     1
100
AcDbLine
 10
236.31766
 20
12.931066
 30
0.0
 11
236.31766
 21
13.065123
 31
0.0
  0
LINE
  5
1D7
100
AcDbEntity
  8
0
390
0
  6
Continuous
 62
     1
100
AcDbLine
 10
236.351953
 20
12.987506
 30
0.0
 11
236.31766
 21
12.931066
 31
0.0
  0
LINE
  5
1D8
100
AcDbEntity
  8
0
390
0
  6
Continuous
 62
     1
100
AcDbLine
 10
236.402616
 20
13.054518
 30
0.0
 11
236.351953
 21
12.987506
 31
0.0
  0
ARC
  5
1D9
100
AcDbEntity
  8
0
390
0
  6
Continuous
 62
     1
100
AcDbCircle
 10
236.881791
 20
12.529763
 30
0.0
 40
0.710617
210
0.0
220
0.0
230
1.0
100
AcDbArc
 50
84.615683
 51
132.400455
  0
ARC
  5
1DA
100
AcDbEntity
  8
0
390
0
  6
Continuous
 62
     1
100
AcDbCircle
 10
236.958309
 20
13.101507
 30
0.0
 40
0.136094
210
0.0
220
0.0
230
1.0
100
AcDbArc
 50
355.551556
 51
94.145062
  0
ARC
  5
1DB
100
AcDbEntity
  8
0
390
0
  6
Continuous
 62
     1
100
AcDbCircle
 10
236.958222
 20
13.080527
 30
0.0
 40
0.136171
210
0.0
220
0.0
230
1.0
100
AcDbArc
 50
274.095944
 51
4.390634
  0
LINE
  5
1DC
100
AcDbEntity
  8
0
390
0
  6
Continuous
 62
     1
100
AcDbLine
 10
236.822884
 20
12.944704
 30
0.0
 11
236.967948
 21
12.944704
 31
0.0
  0
ARC
  5
1DD
100
AcDbEntity
  8
0
390
0
  6
Continuous
 62
     1
100
AcDbCircle
 10
236.804224
 20
12.548987
 30
0.0
 40
0.396156
210
0.0
220
0.0
230
1.0
100
AcDbArc
 50
87.300271
 51
137.43986
  0
ARC
  5
1DE
100
AcDbEntity
  8
0
390
0
  6
Continuous
 62
     1
100
AcDbCircle
 10
237.250063
 20
12.198715
 30
0.0
 40
0.962444
210
0.0
220
0.0
230
0.9999999999999999
100
AcDbArc
 50
140.033318
 51
165.647036
  0
LINE
  5
1DF
100
AcDbEntity
  8
0
390
0
  6
Continuous
 62
     1
100
AcDbLine
 10
236.31766
 20
11.512456
 30
0.0
 11
236.31766
 21
12.4373
 31
0.0
  0
ARC
  5
1E0
100
AcDbEntity
  8
0
390
0
  6
Continuous
 62
     1
100
AcDbCircle
 10
236.167195
 20
11.492157
 30
0.0
 40
0.151828
210
0.0
220
0.0
230
0.9999999999999999
100
AcDbArc
 50
271.875497
 51
7.683355
  0
ARC
  5
1E1
100
AcDbEntity
  8
0
390
0
  6
Continuous
 62
     1
100
AcDbCircle
 10
236.17336
 20
11.488987
 30
0.0
 40
0.148582
210
0.0
220
0.0
230
1.0
100
AcDbArc
 50
170.907465
 51
269.538812
  0
LINE
  5
1E2
100
AcDbEntity
  8
0
390
0
  6
Continuous
 62
     1
100
AcDbLine
 10
236.026643
 20
13.065112
 30
0.0
 11
236.026644
 21
11.512468
 31
0.0
  0
ARC
  5
1E3
100
AcDbEntity
  8
0
390
0
  6
Continuous
 62
     1
100
AcDbCircle
 10
236.177179
 20
13.085427
 30
0.0
 40
0.151901
210
0.0
220
0.0
230
1.0
100
AcDbArc
 50
91.892157
 51
187.68552
  0
LINE
  5
1E4
100
AcDbEntity
  8
0
390
0
  6
Continuous
 62
     1
100
AcDbLine
 10
235.596282
 20
11.475051
 30
0.0
 11
235.596282
 21
13.828784
 31
0.0
  0
LINE
  5
1E5
100
AcDbEntity
  8
0
390
0
  6
Continuous
 62
     1
100
AcDbLine
 10
235.586195
 20
11.419231
 30
0.0
 11
235.596282
 21
11.475051
 31
0.0
  0
LINE
  5
1E6
100
AcDbEntity
  8
0
390
0
  6
Continuous
 62
     1
100
AcDbLine
 10
235.567599
 20
11.365598
 30
0.0
 11
235.586195
 21
11.419231
 31
0.0
  0
LINE
  5
1E7
100
AcDbEntity
  8
0
390
0
  6
Continuous
 62
     1
100
AcDbLine
 10
235.541985
 20
11.314932
 30
0.0
 11
235.567599
 21
11.365598
 31
0.0
  0
LINE
  5
1E8
100
AcDbEntity
  8
0
390
0
  6
Continuous
 62
     1
100
AcDbLine
 10
235.510029
 20
11.268004
 30
0.0
 11
235.541985
 21
11.314932
 31
0.0
  0
LINE
  5
1E9
100
AcDbEntity
  8
0
390
0
  6
Continuous
 62
     1
100
AcDbLine
 10
235.458789
 20
11.212321
 30
0.0
 11
235.510029
 21
11.268004
 31
0.0
  0
LINE
  5
1EA
100
AcDbEntity
  8
0
390
0
  6
Continuous
 62
     1
100
AcDbLine
 10
235.399498
 20
11.16528
 30
0.0
 11
235.458789
 21
11.212321
 31
0.0
  0
LINE
  5
1EB
100
AcDbEntity
  8
0
390
0
  6
Continuous
 62
     1
100
AcDbLine
 10
235.334205
 20
11.126975
 30
0.0
 11
235.399498
 21
11.16528
 31
0.0
  0
LINE
  5
1EC
100
AcDbEntity
  8
0
390
0
  6
Continuous
 62
     1
100
AcDbLine
 10
235.250463
 20
11.091778
 30
0.0
 11
235.334205
 21
11.126975
 31
0.0
  0
LINE
  5
1ED
100
AcDbEntity
  8
0
390
0
  6
Continuous
 62
     1
100
AcDbLine
 10
235.163072
 20
11.066921
 30
0.0
 11
235.250463
 21
11.091778
 31
0.0
  0
LINE
  5
1EE
100
AcDbEntity
  8
0
390
0
  6
Continuous
 62
     1
100
AcDbLine
 10
235.073641
 20
11.050809
 30
0.0
 11
235.163072
 21
11.066921
 31
0.0
  0
LINE
  5
1EF
100
AcDbEntity
  8
0
390
0
  6
Continuous
 62
     1
100
AcDbLine
 10
234.983191
 20
11.041971
 30
0.0
 11
235.073641
 21
11.050809
 31
0.0
  0
LINE
  5
1F0
100
AcDbEntity
  8
0
390
0
  6
Continuous
 62
     1
100
AcDbLine
 10
234.892348
 20
11.039293
 30
0.0
 11
234.983191
 21
11.041971
 31
0.0
  0
LINE
  5
1F1
100
AcDbEntity
  8
0
390
0
  6
Continuous
 62
     1
100
AcDbLine
 10
234.799037
 20
11.043525
 30
0.0
 11
234.892348
 21
11.039293
 31
0.0
  0
LINE
  5
1F2
100
AcDbEntity
  8
0
390
0
  6
Continuous
 62
     1
100
AcDbLine
 10
234.706442
 20
11.055902
 30
0.0
 11
234.799037
 21
11.043525
 31
0.0
  0
LINE
  5
1F3
100
AcDbEntity
  8
0
390
0
  6
Continuous
 62
     1
100
AcDbLine
 10
234.615354
 20
11.076604
 30
0.0
 11
234.706442
 21
11.055902
 31
0.0
  0
LINE
  5
1F4
100
AcDbEntity
  8
0
390
0
  6
Continuous
 62
     1
100
AcDbLine
 10
234.527099
 20
11.107151
 30
0.0
 11
234.615354
 21
11.076604
 31
0.0
  0
LINE
  5
1F5
100
AcDbEntity
  8
0
390
0
  6
Continuous
 62
     1
100
AcDbLine
 10
234.444048
 20
11.149789
 30
0.0
 11
234.527099
 21
11.107151
 31
0.0
  0
LINE
  5
1F6
100
AcDbEntity
  8
0
390
0
  6
Continuous
 62
     1
100
AcDbLine
 10
234.396526
 20
11.183696
 30
0.0
 11
234.444048
 21
11.149789
 31
0.0
  0
LINE
  5
1F7
100
AcDbEntity
  8
0
390
0
  6
Continuous
 62
     1
100
AcDbLine
 10
234.354041
 20
11.223721
 30
0.0
 11
234.396526
 21
11.183696
 31
0.0
  0
LINE
  5
1F8
100
AcDbEntity
  8
0
390
0
  6
Continuous
 62
     1
100
AcDbLine
 10
234.318229
 20
11.269803
 30
0.0
 11
234.354041
 21
11.223721
 31
0.0
  0
LINE
  5
1F9
100
AcDbEntity
  8
0
390
0
  6
Continuous
 62
     1
100
AcDbLine
 10
234.290538
 20
11.321176
 30
0.0
 11
234.318229
 21
11.269803
 31
0.0
  0
LINE
  5
1FA
100
AcDbEntity
  8
0
390
0
  6
Continuous
 62
     1
100
AcDbLine
 10
234.271731
 20
11.376429
 30
0.0
 11
234.290538
 21
11.321176
 31
0.0
  0
LINE
  5
1FB
100
AcDbEntity
  8
0
390
0
  6
Continuous
 62
     1
100
AcDbLine
 10
234.261658
 20
11.433927
 30
0.0
 11
234.271731
 21
11.376429
 31
0.0
  0
LINE
  5
1FC
100
AcDbEntity
  8
0
390
0
  6
Continuous
 62
     1
100
AcDbLine
 10
234.259371
 20
11.492277
 30
0.0
 11
234.261658
 21
11.433927
 31
0.0
  0
LINE
  5
1FD
100
AcDbEntity
  8
0
390
0
  6
Continuous
 62
     1
100
AcDbLine
 10
234.26383
 20
11.5505
 30
0.0
 11
234.259371
 21
11.492277
 31
0.0
  0
LINE
  5
1FE
100
AcDbEntity
  8
0
390
0
  6
Continuous
 62
     1
100
AcDbLine
 10
234.523661
 20
13.718818
 30
0.0
 11
234.26383
 21
11.5505
 31
0.0
  0
ARC
  5
1FF
100
AcDbEntity
  8
0
390
0
  6
Continuous
 62
     1
100
AcDbCircle
 10
233.904092
 20
25.048366
 30
0.0
 40
11.346476
210
0.0
220
0.0
230
1.0
100
AcDbArc
 50
273.130165
 51
278.57697
  0
LINE
  5
200
100
AcDbEntity
  8
0
390
0
  6
Continuous
 62
     1
100
AcDbLine
 10
242.989023
 20
17.179153
 30
0.0
 11
242.819231
 21
17.014855
 31
0.0
  0
LINE
  5
201
100
AcDbEntity
  8
0
390
0
  6
Continuous
 62
     1
100
AcDbLine
 10
242.819231
 20
17.014855
 30
0.0
 11
242.64372
 21
16.856679
 31
0.0
  0
LINE
  5
202
100
AcDbEntity
  8
0
390
0
  6
Continuous
 62
     1
100
AcDbLine
 10
242.64372
 20
16.856679
 30
0.0
 11
242.463263
 21
16.704169
 31
0.0
  0
LINE
  5
203
100
AcDbEntity
  8
0
390
0
  6
Continuous
 62
     1
100
AcDbLine
 10
242.463263
 20
16.704169
 30
0.0
 11
242.278477
 21
16.556933
 31
0.0
  0
LINE
  5
204
100
AcDbEntity
  8
0
390
0
  6
Continuous
 62
     1
100
AcDbLine
 10
242.278477
 20
16.556933
 30
0.0
 11
241.986557
 21
16.339753
 31
0.0
  0
LINE
  5
205
100
AcDbEntity
  8
0
390
0
  6
Continuous
 62
     1
100
AcDbLine
 10
241.986557
 20
16.339753
 30
0.0
 11
241.686948
 21
16.133304
 31
0.0
  0
LINE
  5
206
100
AcDbEntity
  8
0
390
0
  6
Continuous
 62
     1
100
AcDbLine
 10
241.686948
 20
16.133304
 30
0.0
 11
241.380728
 21
15.936793
 31
0.0
  0
LINE
  5
207
100
AcDbEntity
  8
0
390
0
  6
Continuous
 62
     1
100
AcDbLine
 10
241.068729
 20
15.749587
 30
0.0
 11
240.664313
 21
15.524001
 31
0.0
  0
LINE
  5
208
100
AcDbEntity
  8
0
390
0
  6
Continuous
 62
     1
100
AcDbLine
 10
240.664313
 20
15.524001
 30
0.0
 11
240.252677
 21
15.311869
 31
0.0
  0
LINE
  5
209
100
AcDbEntity
  8
0
390
0
  6
Continuous
 62
     1
100
AcDbLine
 10
240.252677
 20
15.311869
 30
0.0
 11
239.834692
 21
15.11253
 31
0.0
  0
LINE
  5
20A
100
AcDbEntity
  8
0
390
0
  6
Continuous
 62
     1
100
AcDbLine
 10
239.834692
 20
15.11253
 30
0.0
 11
239.410961
 21
14.925721
 31
0.0
  0
LINE
  5
20B
100
AcDbEntity
  8
0
390
0
  6
Continuous
 62
     1
100
AcDbLine
 10
239.410961
 20
14.925721
 30
0.0
 11
239.313508
 21
14.884951
 31
0.0
  0
ARC
  5
20C
100
AcDbEntity
  8
0
390
0
  6
Continuous
 62
     1
100
AcDbCircle
 10
239.26596
 20
15.132604
 30
0.0
 40
0.252176
210
0.0
220
0.0
230
1.0
100
AcDbArc
 50
270.208724
 51
280.868276
  0
LINE
  5
20D
100
AcDbEntity
  8
0
390
0
  6
Continuous
 62
     1
100
AcDbLine
 10
239.207533
 20
19.224067
 30
0.0
 11
238.917327
 21
19.224875
 31
0.0
  0
LINE
  5
20E
100
AcDbEntity
  8
0
390
0
  6
Continuous
 62
     1
100
AcDbLine
 10
238.917327
 20
19.224875
 30
0.0
 11
238.627318
 21
19.214072
 31
0.0
  0
LINE
  5
20F
100
AcDbEntity
  8
0
390
0
  6
Continuous
 62
     1
100
AcDbLine
 10
238.627318
 20
19.214072
 30
0.0
 11
238.33791
 21
19.192491
 31
0.0
  0
LINE
  5
210
100
AcDbEntity
  8
0
390
0
  6
Continuous
 62
     1
100
AcDbLine
 10
238.33791
 20
19.192491
 30
0.0
 11
237.970959
 21
19.150463
 31
0.0
  0
LINE
  5
211
100
AcDbEntity
  8
0
390
0
  6
Continuous
 62
     1
100
AcDbLine
 10
237.970959
 20
19.150463
 30
0.0
 11
237.606088
 21
19.093091
 31
0.0
  0
ARC
  5
212
100
AcDbEntity
  8
0
390
0
  6
Continuous
 62
     1
100
AcDbCircle
 10
239.19924
 20
9.960818
 30
0.0
 40
9.268141
210
0.0
220
0.0
230
0.9999999999999999
100
AcDbArc
 50
101.768938
 51
112.876529
  0
LINE
  5
213
100
AcDbEntity
  8
0
390
0
  6
Continuous
 62
     1
100
AcDbLine
 10
235.596282
 20
18.499971
 30
0.0
 11
235.596282
 21
14.660645
 31
0.0
  0
LINE
  5
214
100
AcDbEntity
  8
0
390
0
  6
Continuous
 62
     1
100
AcDbLine
 10
243.62395
 20
17.971288
 30
0.0
 11
243.541235
 21
17.840951
 31
0.0
  0
LINE
  5
215
100
AcDbEntity
  8
0
390
0
  6
Continuous
 62
     1
100
AcDbLine
 10
243.69968
 20
18.105803
 30
0.0
 11
243.62395
 21
17.971288
 31
0.0
  0
LINE
  5
216
100
AcDbEntity
  8
0
390
0
  6
Continuous
 62
     1
100
AcDbLine
 10
243.767137
 20
18.244649
 30
0.0
 11
243.69968
 21
18.105803
 31
0.0
  0
LINE
  5
217
100
AcDbEntity
  8
0
390
0
  6
Continuous
 62
     1
100
AcDbLine
 10
243.824723
 20
18.387869
 30
0.0
 11
243.767137
 21
18.244649
 31
0.0
  0
ARC
  5
218
100
AcDbEntity
  8
0
390
0
  6
Continuous
 62
     1
100
AcDbCircle
 10
239.267857
 20
15.135342
 30
0.0
 40
0.254915
210
0.0
220
0.0
230
1.0
100
AcDbArc
 50
179.65698
 51
269.779905
  0
LINE
  5
219
100
AcDbEntity
  8
0
390
0
  6
Continuous
 62
     1
100
AcDbLine
 10
243.896655
 20
18.653725
 30
0.0
 11
243.870488
 21
18.535287
 31
0.0
  0
LINE
  5
21A
100
AcDbEntity
  8
0
390
0
  6
Continuous
 62
     1
100
AcDbLine
 10
243.912877
 20
18.773935
 30
0.0
 11
243.896655
 21
18.653725
 31
0.0
  0
LINE
  5
21B
100
AcDbEntity
  8
0
390
0
  6
Continuous
 62
     1
100
AcDbLine
 10
243.917861
 20
18.895118
 30
0.0
 11
243.912877
 21
18.773935
 31
0.0
  0
LINE
  5
21C
100
AcDbEntity
  8
0
390
0
  6
Continuous
 62
     1
100
AcDbLine
 10
243.910571
 20
19.016204
 30
0.0
 11
243.917861
 21
18.895118
 31
0.0
  0
LINE
  5
21D
100
AcDbEntity
  8
0
390
0
  6
Continuous
 62
     1
100
AcDbLine
 10
243.89002
 20
19.135728
 30
0.0
 11
243.910571
 21
19.016204
 31
0.0
  0
LINE
  5
21E
100
AcDbEntity
  8
0
390
0
  6
Continuous
 62
     1
100
AcDbLine
 10
241.380728
 20
15.936793
 30
0.0
 11
241.068729
 21
15.749587
 31
0.0
  0
LINE
  5
21F
100
AcDbEntity
  8
0
390
0
  6
Continuous
 62
     1
100
AcDbLine
 10
243.809612
 20
19.362451
 30
0.0
 11
243.856166
 21
19.252203
 31
0.0
  0
LINE
  5
220
100
AcDbEntity
  8
0
390
0
  6
Continuous
 62
     1
100
AcDbLine
 10
243.751595
 20
19.467029
 30
0.0
 11
243.809612
 21
19.362451
 31
0.0
  0
LINE
  5
221
100
AcDbEntity
  8
0
390
0
  6
Continuous
 62
     1
100
AcDbLine
 10
243.682126
 20
19.564523
 30
0.0
 11
243.751595
 21
19.467029
 31
0.0
  0
LINE
  5
222
100
AcDbEntity
  8
0
390
0
  6
Continuous
 62
     1
100
AcDbLine
 10
243.60346
 20
19.65465
 30
0.0
 11
243.682126
 21
19.564523
 31
0.0
  0
LINE
  5
223
100
AcDbEntity
  8
0
390
0
  6
Continuous
 62
     1
100
AcDbLine
 10
243.51675
 20
19.737124
 30
0.0
 11
243.60346
 21
19.65465
 31
0.0
  0
LINE
  5
224
100
AcDbEntity
  8
0
390
0
  6
Continuous
 62
     1
100
AcDbLine
 10
243.393559
 20
19.833908
 30
0.0
 11
243.51675
 21
19.737124
 31
0.0
  0
LINE
  5
225
100
AcDbEntity
  8
0
390
0
  6
Continuous
 62
     1
100
AcDbLine
 10
243.261859
 20
19.918765
 30
0.0
 11
243.393559
 21
19.833908
 31
0.0
  0
LINE
  5
226
100
AcDbEntity
  8
0
390
0
  6
Continuous
 62
     1
100
AcDbLine
 10
243.123785
 20
19.992806
 30
0.0
 11
243.261859
 21
19.918765
 31
0.0
  0
LINE
  5
227
100
AcDbEntity
  8
0
390
0
  6
Continuous
 62
     1
100
AcDbLine
 10
242.970589
 20
20.061425
 30
0.0
 11
243.123785
 21
19.992806
 31
0.0
  0
LINE
  5
228
100
AcDbEntity
  8
0
390
0
  6
Continuous
 62
     1
100
AcDbLine
 10
242.813367
 20
20.120238
 30
0.0
 11
242.970589
 21
20.061425
 31
0.0
  0
LINE
  5
229
100
AcDbEntity
  8
0
390
0
  6
Continuous
 62
     1
100
AcDbLine
 10
243.856166
 20
19.252203
 30
0.0
 11
243.89002
 21
19.135728
 31
0.0
  0
LINE
  5
22A
100
AcDbEntity
  8
0
390
0
  6
Continuous
 62
     1
100
AcDbLine
 10
242.49077
 20
20.212865
 30
0.0
 11
242.653171
 21
20.170391
 31
0.0
  0
LINE
  5
22B
100
AcDbEntity
  8
0
390
0
  6
Continuous
 62
     1
100
AcDbLine
 10
242.32673
 20
20.248493
 30
0.0
 11
242.49077
 21
20.212865
 31
0.0
  0
LINE
  5
22C
100
AcDbEntity
  8
0
390
0
  6
Continuous
 62
     1
100
AcDbLine
 10
242.057991
 20
20.293511
 30
0.0
 11
242.32673
 21
20.248493
 31
0.0
  0
LINE
  5
22D
100
AcDbEntity
  8
0
390
0
  6
Continuous
 62
     1
100
AcDbLine
 10
241.787294
 20
20.324718
 30
0.0
 11
242.057991
 21
20.293511
 31
0.0
  0
LINE
  5
22E
100
AcDbEntity
  8
0
390
0
  6
Continuous
 62
     1
100
AcDbLine
 10
241.515484
 20
20.343978
 30
0.0
 11
241.787294
 21
20.324718
 31
0.0
  0
LINE
  5
22F
100
AcDbEntity
  8
0
390
0
  6
Continuous
 62
     1
100
AcDbLine
 10
237.606088
 20
19.093091
 30
0.0
 11
237.30886
 21
19.034126
 31
0.0
  0
LINE
  5
230
100
AcDbEntity
  8
0
390
0
  6
Continuous
 62
     1
100
AcDbLine
 10
240.970636
 20
20.352153
 30
0.0
 11
241.243131
 21
20.352741
 31
0.0
  0
LINE
  5
231
100
AcDbEntity
  8
0
390
0
  6
Continuous
 62
     1
100
AcDbLine
 10
240.698289
 20
20.343132
 30
0.0
 11
240.970636
 21
20.352153
 31
0.0
  0
LINE
  5
232
100
AcDbEntity
  8
0
390
0
  6
Continuous
 62
     1
100
AcDbLine
 10
240.426306
 20
20.326424
 30
0.0
 11
240.698289
 21
20.343132
 31
0.0
  0
LINE
  5
233
100
AcDbEntity
  8
0
390
0
  6
Continuous
 62
     1
100
AcDbLine
 10
240.000946
 20
20.286177
 30
0.0
 11
240.426306
 21
20.326424
 31
0.0
  0
LINE
  5
234
100
AcDbEntity
  8
0
390
0
  6
Continuous
 62
     1
100
AcDbLine
 10
239.577343
 20
20.230369
 30
0.0
 11
240.000946
 21
20.286177
 31
0.0
  0
LINE
  5
235
100
AcDbEntity
  8
0
390
0
  6
Continuous
 62
     1
100
AcDbLine
 10
239.155843
 20
20.16042
 30
0.0
 11
239.577343
 21
20.230369
 31
0.0
  0
LINE
  5
236
100
AcDbEntity
  8
0
390
0
  6
Continuous
 62
     1
100
AcDbLine
 10
238.736714
 20
20.077424
 30
0.0
 11
239.155843
 21
20.16042
 31
0.0
  0
LINE
  5
237
100
AcDbEntity
  8
0
390
0
  6
Continuous
 62
     1
100
AcDbLine
 10
238.320184
 20
19.982236
 30
0.0
 11
238.736714
 21
20.077424
 31
0.0
  0
LINE
  5
238
100
AcDbEntity
  8
0
390
0
  6
Continuous
 62
     1
100
AcDbLine
 10
237.913815
 20
19.877537
 30
0.0
 11
238.320184
 21
19.982236
 31
0.0
  0
LINE
  5
239
100
AcDbEntity
  8
0
390
0
  6
Continuous
 62
     1
100
AcDbLine
 10
237.510337
 20
19.762201
 30
0.0
 11
237.913815
 21
19.877537
 31
0.0
  0
LINE
  5
23A
100
AcDbEntity
  8
0
390
0
  6
Continuous
 62
     1
100
AcDbLine
 10
237.109874
 20
19.636778
 30
0.0
 11
237.510337
 21
19.762201
 31
0.0
  0
LINE
  5
23B
100
AcDbEntity
  8
0
390
0
  6
Continuous
 62
     1
100
AcDbLine
 10
236.712702
 20
19.501308
 30
0.0
 11
237.109874
 21
19.636778
 31
0.0
  0
ARC
  5
23C
100
AcDbEntity
  8
0
390
0
  6
Continuous
 62
     1
100
AcDbCircle
 10
242.220176
 20
3.934758
 30
0.0
 40
16.512109
210
0.0
220
0.0
230
1.0
100
AcDbArc
 50
109.483874
 51
115.178378
  0
LINE
  5
23D
100
AcDbEntity
  8
0
390
0
  6
Continuous
 62
     1
100
AcDbLine
 10
235.131856
 20
18.847867
 30
0.0
 11
235.195301
 21
18.878013
 31
0.0
  0
LINE
  5
23E
100
AcDbEntity
  8
0
390
0
  6
Continuous
 62
     1
100
AcDbLine
 10
234.647401
 20
14.760641
 30
0.0
 11
235.131856
 21
18.847867
 31
0.0
  0
ARC
  5
23F
100
AcDbEntity
  8
0
390
0
  6
Continuous
 62
     1
100
AcDbCircle
 10
235.699055
 20
20.187909
 30
0.0
 40
5.528219
210
0.0
220
0.0
230
1.0
100
AcDbArc
 50
259.033573
 51
268.934772
  0
LINE
  5
240
100
AcDbEntity
  8
0
390
0
  6
Continuous
 62
     1
100
AcDbLine
 10
242.653171
 20
20.170391
 30
0.0
 11
242.813367
 21
20.120238
 31
0.0
  0
LINE
  5
241
100
AcDbEntity
  8
0
390
0
  6
Continuous
 62
     1
100
AcDbLine
 10
241.243131
 20
20.352741
 30
0.0
 11
241.515484
 21
20.343978
 31
0.0
  0
LINE
  5
242
100
AcDbEntity
  8
0
390
0
  6
Continuous
 62
     1
100
AcDbLine
 10
243.152106
 20
17.35011
 30
0.0
 11
242.989023
 21
17.179153
 31
0.0
  0
LINE
  5
243
100
AcDbEntity
  8
0
390
0
  6
Continuous
 62
     1
100
AcDbLine
 10
243.307193
 20
17.528349
 30
0.0
 11
243.152106
 21
17.35011
 31
0.0
  0
LINE
  5
244
100
AcDbEntity
  8
0
390
0
  6
Continuous
 62
     1
100
AcDbLine
 10
243.452571
 20
17.714585
 30
0.0
 11
243.307193
 21
17.528349
 31
0.0
  0
LINE
  5
245
100
AcDbEntity
  8
0
390
0
  6
Continuous
 62
     1
100
AcDbLine
 10
243.541235
 20
17.840951
 30
0.0
 11
243.452571
 21
17.714585
 31
0.0
  0
LINE
  5
246
100
AcDbEntity
  8
0
390
0
  6
Continuous
 62
     1
100
AcDbLine
 10
239.497424
 20
19.210585
 30
0.0
 11
239.207533
 21
19.224067
 31
0.0
  0
LINE
  5
247
100
AcDbEntity
  8
0
390
0
  6
Continuous
 62
     1
100
AcDbLine
 10
239.685182
 20
19.19441
 30
0.0
 11
239.497424
 21
19.210585
 31
0.0
  0
LINE
  5
248
100
AcDbEntity
  8
0
390
0
  6
Continuous
 62
     1
100
AcDbLine
 10
239.87228
 20
19.171855
 30
0.0
 11
239.685182
 21
19.19441
 31
0.0
  0
LINE
  5
249
100
AcDbEntity
  8
0
390
0
  6
Continuous
 62
     1
100
AcDbLine
 10
240.05841
 20
19.142364
 30
0.0
 11
239.87228
 21
19.171855
 31
0.0
  0
LINE
  5
24A
100
AcDbEntity
  8
0
390
0
  6
Continuous
 62
     1
100
AcDbLine
 10
240.243174
 20
19.105265
 30
0.0
 11
240.05841
 21
19.142364
 31
0.0
  0
LINE
  5
24B
100
AcDbEntity
  8
0
390
0
  6
Continuous
 62
     1
100
AcDbLine
 10
240.426043
 20
19.059748
 30
0.0
 11
240.243174
 21
19.105265
 31
0.0
  0
LINE
  5
24C
100
AcDbEntity
  8
0
390
0
  6
Continuous
 62
     1
100
AcDbLine
 10
240.606307
 20
19.004824
 30
0.0
 11
240.426043
 21
19.059748
 31
0.0
  0
LINE
  5
24D
100
AcDbEntity
  8
0
390
0
  6
Continuous
 62
     1
100
AcDbLine
 10
240.782987
 20
18.939292
 30
0.0
 11
240.606307
 21
19.004824
 31
0.0
  0
LINE
  5
24E
100
AcDbEntity
  8
0
390
0
  6
Continuous
 62
     1
100
AcDbLine
 10
240.918122
 20
18.879564
 30
0.0
 11
240.782987
 21
18.939292
 31
0.0
  0
LINE
  5
24F
100
AcDbEntity
  8
0
390
0
  6
Continuous
 62
     1
100
AcDbLine
 10
241.049313
 20
18.811613
 30
0.0
 11
240.918122
 21
18.879564
 31
0.0
  0
LINE
  5
250
100
AcDbEntity
  8
0
390
0
  6
Continuous
 62
     1
100
AcDbLine
 10
241.175354
 20
18.734536
 30
0.0
 11
241.049313
 21
18.811613
 31
0.0
  0
LINE
  5
251
100
AcDbEntity
  8
0
390
0
  6
Continuous
 62
     1
100
AcDbLine
 10
241.294644
 20
18.647385
 30
0.0
 11
241.175354
 21
18.734536
 31
0.0
  0
LINE
  5
252
100
AcDbEntity
  8
0
390
0
  6
Continuous
 62
     1
100
AcDbLine
 10
241.40509
 20
18.549279
 30
0.0
 11
241.294644
 21
18.647385
 31
0.0
  0
LINE
  5
253
100
AcDbEntity
  8
0
390
0
  6
Continuous
 62
     1
100
AcDbLine
 10
241.483955
 20
18.464096
 30
0.0
 11
241.40509
 21
18.549279
 31
0.0
  0
LINE
  5
254
100
AcDbEntity
  8
0
390
0
  6
Continuous
 62
     1
100
AcDbLine
 10
241.554259
 20
18.371716
 30
0.0
 11
241.483955
 21
18.464096
 31
0.0
  0
LINE
  5
255
100
AcDbEntity
  8
0
390
0
  6
Continuous
 62
     1
100
AcDbLine
 10
241.614369
 20
18.272421
 30
0.0
 11
241.554259
 21
18.371716
 31
0.0
  0
LINE
  5
256
100
AcDbEntity
  8
0
390
0
  6
Continuous
 62
     1
100
AcDbLine
 10
241.662963
 20
18.166987
 30
0.0
 11
241.614369
 21
18.272421
 31
0.0
  0
LINE
  5
257
100
AcDbEntity
  8
0
390
0
  6
Continuous
 62
     1
100
AcDbLine
 10
241.698674
 20
18.05654
 30
0.0
 11
241.662963
 21
18.166987
 31
0.0
  0
LINE
  5
258
100
AcDbEntity
  8
0
390
0
  6
Continuous
 62
     1
100
AcDbLine
 10
241.721963
 20
17.936664
 30
0.0
 11
241.698674
 21
18.05654
 31
0.0
  0
LINE
  5
259
100
AcDbEntity
  8
0
390
0
  6
Continuous
 62
     1
100
AcDbLine
 10
241.730029
 20
17.814782
 30
0.0
 11
241.721963
 21
17.936664
 31
0.0
  0
LINE
  5
25A
100
AcDbEntity
  8
0
390
0
  6
Continuous
 62
     1
100
AcDbLine
 10
241.723747
 20
17.692816
 30
0.0
 11
241.730029
 21
17.814782
 31
0.0
  0
LINE
  5
25B
100
AcDbEntity
  8
0
390
0
  6
Continuous
 62
     1
100
AcDbLine
 10
241.704121
 20
17.572267
 30
0.0
 11
241.723747
 21
17.692816
 31
0.0
  0
LINE
  5
25C
100
AcDbEntity
  8
0
390
0
  6
Continuous
 62
     1
100
AcDbLine
 10
241.672627
 20
17.454252
 30
0.0
 11
241.704121
 21
17.572267
 31
0.0
  0
LINE
  5
25D
100
AcDbEntity
  8
0
390
0
  6
Continuous
 62
     1
100
AcDbLine
 10
241.630812
 20
17.339483
 30
0.0
 11
241.672627
 21
17.454252
 31
0.0
  0
LINE
  5
25E
100
AcDbEntity
  8
0
390
0
  6
Continuous
 62
     1
100
AcDbLine
 10
241.580133
 20
17.228338
 30
0.0
 11
241.630812
 21
17.339483
 31
0.0
  0
LINE
  5
25F
100
AcDbEntity
  8
0
390
0
  6
Continuous
 62
     1
100
AcDbLine
 10
241.521881
 20
17.120966
 30
0.0
 11
241.580133
 21
17.228338
 31
0.0
  0
LINE
  5
260
100
AcDbEntity
  8
0
390
0
  6
Continuous
 62
     1
100
AcDbLine
 10
241.434306
 20
16.983653
 30
0.0
 11
241.521881
 21
17.120966
 31
0.0
  0
LINE
  5
261
100
AcDbEntity
  8
0
390
0
  6
Continuous
 62
     1
100
AcDbLine
 10
241.337328
 20
16.852804
 30
0.0
 11
241.434306
 21
16.983653
 31
0.0
  0
LINE
  5
262
100
AcDbEntity
  8
0
390
0
  6
Continuous
 62
     1
100
AcDbLine
 10
241.232599
 20
16.728066
 30
0.0
 11
241.337328
 21
16.852804
 31
0.0
  0
LINE
  5
263
100
AcDbEntity
  8
0
390
0
  6
Continuous
 62
     1
100
AcDbLine
 10
241.121406
 20
16.609051
 30
0.0
 11
241.232599
 21
16.728066
 31
0.0
  0
LINE
  5
264
100
AcDbEntity
  8
0
390
0
  6
Continuous
 62
     1
100
AcDbLine
 10
241.004752
 20
16.495379
 30
0.0
 11
241.121406
 21
16.609051
 31
0.0
  0
LINE
  5
265
100
AcDbEntity
  8
0
390
0
  6
Continuous
 62
     1
100
AcDbLine
 10
240.883432
 20
16.3867
 30
0.0
 11
241.004752
 21
16.495379
 31
0.0
  0
LINE
  5
266
100
AcDbEntity
  8
0
390
0
  6
Continuous
 62
     1
100
AcDbLine
 10
240.694053
 20
16.232361
 30
0.0
 11
240.883432
 21
16.3867
 31
0.0
  0
LINE
  5
267
100
AcDbEntity
  8
0
390
0
  6
Continuous
 62
     1
100
AcDbLine
 10
240.497225
 20
16.087633
 30
0.0
 11
240.694053
 21
16.232361
 31
0.0
  0
LINE
  5
268
100
AcDbEntity
  8
0
390
0
  6
Continuous
 62
     1
100
AcDbLine
 10
240.294179
 20
15.95176
 30
0.0
 11
240.497225
 21
16.087633
 31
0.0
  0
LINE
  5
269
100
AcDbEntity
  8
0
390
0
  6
Continuous
 62
     1
100
AcDbLine
 10
240.085854
 20
15.824123
 30
0.0
 11
240.294179
 21
15.95176
 31
0.0
  0
LINE
  5
26A
100
AcDbEntity
  8
0
390
0
  6
Continuous
 62
     1
100
AcDbLine
 10
239.872984
 20
15.704218
 30
0.0
 11
240.085854
 21
15.824123
 31
0.0
  0
LINE
  5
26B
100
AcDbEntity
  8
0
390
0
  6
Continuous
 62
     1
100
AcDbLine
 10
239.656151
 20
15.591634
 30
0.0
 11
239.872984
 21
15.704218
 31
0.0
  0
LINE
  5
26C
100
AcDbEntity
  8
0
390
0
  6
Continuous
 62
     1
100
AcDbLine
 10
239.435852
 20
15.485987
 30
0.0
 11
239.656151
 21
15.591634
 31
0.0
  0
LINE
  5
26D
100
AcDbEntity
  8
0
390
0
  6
Continuous
 62
     1
100
AcDbLine
 10
239.212422
 20
15.387138
 30
0.0
 11
239.435852
 21
15.485987
 31
0.0
  0
LINE
  5
26E
100
AcDbEntity
  8
0
390
0
  6
Continuous
 62
     1
100
AcDbLine
 10
239.130461
 20
15.352826
 30
0.0
 11
239.212422
 21
15.387138
 31
0.0
  0
ARC
  5
26F
100
AcDbEntity
  8
0
390
0
  6
Continuous
 62
     1
100
AcDbCircle
 10
239.269445
 20
15.137246
 30
0.0
 40
0.256498
210
0.0
220
0.0
230
1.0
100
AcDbArc
 50
122.809863
 51
180.08436
  0
LINE
  5
270
100
AcDbEntity
  8
0
390
0
  6
Continuous
 62
     1
100
AcDbLine
 10
243.870488
 20
18.535287
 30
0.0
 11
243.824723
 21
18.387869
 31
0.0
  0
LINE
  5
271
100
AcDbEntity
  8
0
390
0
  6
Continuous
 62
     1
100
AcDbLine
 10
234.523661
 20
13.718818
 30
0.0
 11
234.260842
 21
13.708709
 31
0.0
  0
LINE
  5
272
100
AcDbEntity
  8
0
390
0
  6
Continuous
 62
     1
100
AcDbLine
 10
233.997839
 20
13.706355
 30
0.0
 11
233.7349
 21
13.712478
 31
0.0
  0
LINE
  5
273
100
AcDbEntity
  8
0
390
0
  6
Continuous
 62
     1
100
AcDbLine
 10
233.7349
 20
13.712478
 30
0.0
 11
233.472354
 21
13.72807
 31
0.0
  0
LINE
  5
274
100
AcDbEntity
  8
0
390
0
  6
Continuous
 62
     1
100
AcDbLine
 10
233.472354
 20
13.72807
 30
0.0
 11
233.210666
 21
13.75435
 31
0.0
  0
LINE
  5
275
100
AcDbEntity
  8
0
390
0
  6
Continuous
 62
     1
100
AcDbLine
 10
232.950503
 20
13.792861
 30
0.0
 11
232.777006
 21
13.826581
 31
0.0
  0
LINE
  5
276
100
AcDbEntity
  8
0
390
0
  6
Continuous
 62
     1
100
AcDbLine
 10
232.777006
 20
13.826581
 30
0.0
 11
232.605054
 21
13.867451
 31
0.0
  0
LINE
  5
277
100
AcDbEntity
  8
0
390
0
  6
Continuous
 62
     1
100
AcDbLine
 10
232.605054
 20
13.867451
 30
0.0
 11
232.435218
 21
13.916359
 31
0.0
  0
LINE
  5
278
100
AcDbEntity
  8
0
390
0
  6
Continuous
 62
     1
100
AcDbLine
 10
232.268274
 20
13.974365
 30
0.0
 11
232.105304
 21
14.042727
 31
0.0
  0
LINE
  5
279
100
AcDbEntity
  8
0
390
0
  6
Continuous
 62
     1
100
AcDbLine
 10
232.105304
 20
14.042727
 30
0.0
 11
231.994377
 21
14.097514
 31
0.0
  0
LINE
  5
27A
100
AcDbEntity
  8
0
390
0
  6
Continuous
 62
     1
100
AcDbLine
 10
231.994377
 20
14.097514
 30
0.0
 11
231.886813
 21
14.158636
 31
0.0
  0
LINE
  5
27B
100
AcDbEntity
  8
0
390
0
  6
Continuous
 62
     1
100
AcDbLine
 10
231.886813
 20
14.158636
 30
0.0
 11
231.783477
 21
14.226658
 31
0.0
  0
LINE
  5
27C
100
AcDbEntity
  8
0
390
0
  6
Continuous
 62
     1
100
AcDbLine
 10
231.783477
 20
14.226658
 30
0.0
 11
231.685449
 21
14.302121
 31
0.0
  0
LINE
  5
27D
100
AcDbEntity
  8
0
390
0
  6
Continuous
 62
     1
100
AcDbLine
 10
231.685449
 20
14.302121
 30
0.0
 11
231.592447
 21
14.387059
 31
0.0
  0
LINE
  5
27E
100
AcDbEntity
  8
0
390
0
  6
Continuous
 62
     1
100
AcDbLine
 10
231.592447
 20
14.387059
 30
0.0
 11
231.507917
 21
14.480424
 31
0.0
  0
LINE
  5
27F
100
AcDbEntity
  8
0
390
0
  6
Continuous
 62
     1
100
AcDbLine
 10
231.507917
 20
14.480424
 30
0.0
 11
231.433603
 21
14.5821
 31
0.0
  0
LINE
  5
280
100
AcDbEntity
  8
0
390
0
  6
Continuous
 62
     1
100
AcDbLine
 10
231.433603
 20
14.5821
 30
0.0
 11
231.371141
 21
14.691467
 31
0.0
  0
LINE
  5
281
100
AcDbEntity
  8
0
390
0
  6
Continuous
 62
     1
100
AcDbLine
 10
231.371141
 20
14.691467
 30
0.0
 11
231.322124
 21
14.807462
 31
0.0
  0
LINE
  5
282
100
AcDbEntity
  8
0
390
0
  6
Continuous
 62
     1
100
AcDbLine
 10
231.322124
 20
14.807462
 30
0.0
 11
231.290633
 21
14.913436
 31
0.0
  0
LINE
  5
283
100
AcDbEntity
  8
0
390
0
  6
Continuous
 62
     1
100
AcDbLine
 10
231.270398
 20
15.022134
 30
0.0
 11
231.261081
 21
15.132292
 31
0.0
  0
LINE
  5
284
100
AcDbEntity
  8
0
390
0
  6
Continuous
 62
     1
100
AcDbLine
 10
231.261081
 20
15.132292
 30
0.0
 11
231.262264
 21
15.242847
 31
0.0
  0
LINE
  5
285
100
AcDbEntity
  8
0
390
0
  6
Continuous
 62
     1
100
AcDbLine
 10
231.262264
 20
15.242847
 30
0.0
 11
231.273104
 21
15.352875
 31
0.0
  0
LINE
  5
286
100
AcDbEntity
  8
0
390
0
  6
Continuous
 62
     1
100
AcDbLine
 10
231.273104
 20
15.352875
 30
0.0
 11
231.299417
 21
15.491088
 31
0.0
  0
LINE
  5
287
100
AcDbEntity
  8
0
390
0
  6
Continuous
 62
     1
100
AcDbLine
 10
231.337928
 20
15.626417
 30
0.0
 11
231.386827
 21
15.758355
 31
0.0
  0
LINE
  5
288
100
AcDbEntity
  8
0
390
0
  6
Continuous
 62
     1
100
AcDbLine
 10
231.386827
 20
15.758355
 30
0.0
 11
231.444534
 21
15.886688
 31
0.0
  0
LINE
  5
289
100
AcDbEntity
  8
0
390
0
  6
Continuous
 62
     1
100
AcDbLine
 10
231.509725
 20
16.011388
 30
0.0
 11
231.618286
 21
16.190417
 31
0.0
  0
LINE
  5
28A
100
AcDbEntity
  8
0
390
0
  6
Continuous
 62
     1
100
AcDbLine
 10
231.738206
 20
16.362054
 30
0.0
 11
231.867372
 21
16.526853
 31
0.0
  0
LINE
  5
28B
100
AcDbEntity
  8
0
390
0
  6
Continuous
 62
     1
100
AcDbLine
 10
231.867372
 20
16.526853
 30
0.0
 11
232.004192
 21
16.685359
 31
0.0
  0
LINE
  5
28C
100
AcDbEntity
  8
0
390
0
  6
Continuous
 62
     1
100
AcDbLine
 10
232.004192
 20
16.685359
 30
0.0
 11
232.147451
 21
16.838074
 31
0.0
  0
LINE
  5
28D
100
AcDbEntity
  8
0
390
0
  6
Continuous
 62
     1
100
AcDbLine
 10
232.147451
 20
16.838074
 30
0.0
 11
232.296205
 21
16.985443
 31
0.0
  0
LINE
  5
28E
100
AcDbEntity
  8
0
390
0
  6
Continuous
 62
     1
100
AcDbLine
 10
232.296205
 20
16.985443
 30
0.0
 11
232.528052
 21
17.197318
 31
0.0
  0
LINE
  5
28F
100
AcDbEntity
  8
0
390
0
  6
Continuous
 62
     1
100
AcDbLine
 10
232.528052
 20
17.197318
 30
0.0
 11
232.768701
 21
17.399147
 31
0.0
  0
LINE
  5
290
100
AcDbEntity
  8
0
390
0
  6
Continuous
 62
     1
100
AcDbLine
 10
232.768701
 20
17.399147
 30
0.0
 11
233.016738
 21
17.591831
 31
0.0
  0
LINE
  5
291
100
AcDbEntity
  8
0
390
0
  6
Continuous
 62
     1
100
AcDbLine
 10
233.271091
 20
17.7761
 30
0.0
 11
233.530934
 21
17.952546
 31
0.0
  0
LINE
  5
292
100
AcDbEntity
  8
0
390
0
  6
Continuous
 62
     1
100
AcDbLine
 10
233.530934
 20
17.952546
 30
0.0
 11
233.795612
 21
18.121653
 31
0.0
  0
LINE
  5
293
100
AcDbEntity
  8
0
390
0
  6
Continuous
 62
     1
100
AcDbLine
 10
233.795612
 20
18.121653
 30
0.0
 11
234.064567
 21
18.28388
 31
0.0
  0
LINE
  5
294
100
AcDbEntity
  8
0
390
0
  6
Continuous
 62
     1
100
AcDbLine
 10
234.064567
 20
18.28388
 30
0.0
 11
234.337446
 21
18.43941
 31
0.0
  0
LINE
  5
295
100
AcDbEntity
  8
0
390
0
  6
Continuous
 62
     1
100
AcDbLine
 10
234.337446
 20
18.43941
 30
0.0
 11
234.377119
 21
18.461121
 31
0.0
  0
ARC
  5
296
100
AcDbEntity
  8
0
390
0
  6
Continuous
 62
     1
100
AcDbCircle
 10
234.480432
 20
18.227246
 30
0.0
 40
0.255678
210
0.0
220
0.0
230
1.0
100
AcDbArc
 50
68.62417
 51
113.833094
  0
LINE
  5
297
100
AcDbEntity
  8
0
390
0
  6
Continuous
 62
     1
100
AcDbLine
 10
238.590028
 20
14.603155
 30
0.0
 11
238.465514
 21
14.558251
 31
0.0
  0
LINE
  5
298
100
AcDbEntity
  8
0
390
0
  6
Continuous
 62
     1
100
AcDbLine
 10
238.673945
 20
14.633849
 30
0.0
 11
238.590028
 21
14.603155
 31
0.0
  0
ARC
  5
299
100
AcDbEntity
  8
0
390
0
  6
Continuous
 62
     1
100
AcDbCircle
 10
238.541473
 20
14.862021
 30
0.0
 40
0.26384
210
0.0
220
0.0
230
1.0
100
AcDbArc
 50
300.138399
 51
0.079984
  0
ARC
  5
29A
100
AcDbEntity
  8
0
390
0
  6
Continuous
 62
     1
100
AcDbCircle
 10
238.543268
 20
14.863892
 30
0.0
 40
0.26205
210
0.0
220
0.0
230
1.0
100
AcDbArc
 50
359.671456
 51
89.80429
  0
LINE
  5
29B
100
AcDbEntity
  8
0
390
0
  6
Continuous
 62
     1
100
AcDbLine
 10
238.510471
 20
15.12354
 30
0.0
 11
238.544163
 21
15.12594
 31
0.0
  0
LINE
  5
29C
100
AcDbEntity
  8
0
390
0
  6
Continuous
 62
     1
100
AcDbLine
 10
238.419549
 20
15.094005
 30
0.0
 11
238.510471
 21
15.12354
 31
0.0
  0
LINE
  5
29D
100
AcDbEntity
  8
0
390
0
  6
Continuous
 62
     1
100
AcDbLine
 10
237.917947
 20
14.949259
 30
0.0
 11
238.419549
 21
15.094005
 31
0.0
  0
ARC
  5
29E
100
AcDbEntity
  8
0
390
0
  6
Continuous
 62
     1
100
AcDbCircle
 10
235.718073
 20
23.163194
 30
0.0
 40
8.503421
210
0.0
220
0.0
230
1.0
100
AcDbArc
 50
269.179352
 51
284.993215
  0
ARC
  5
29F
100
AcDbEntity
  8
0
390
0
  6
Continuous
 62
     1
100
AcDbCircle
 10
235.692533
 20
20.12602
 30
0.0
 40
5.466222
210
0.0
220
0.0
230
1.0
100
AcDbArc
 50
258.977281
 51
268.991063
  0
LINE
  5
2A0
100
AcDbEntity
  8
0
390
0
  6
Continuous
 62
     1
100
AcDbLine
 10
234.49314
 20
14.794761
 30
0.0
 11
234.647401
 21
14.760641
 31
0.0
  0
LINE
  5
2A1
100
AcDbEntity
  8
0
390
0
  6
Continuous
 62
     1
100
AcDbLine
 10
234.340371
 20
14.835029
 30
0.0
 11
234.49314
 21
14.794761
 31
0.0
  0
LINE
  5
2A2
100
AcDbEntity
  8
0
390
0
  6
Continuous
 62
     1
100
AcDbLine
 10
234.189547
 20
14.882055
 30
0.0
 11
234.340371
 21
14.835029
 31
0.0
  0
LINE
  5
2A3
100
AcDbEntity
  8
0
390
0
  6
Continuous
 62
     1
100
AcDbLine
 10
234.041267
 20
14.936564
 30
0.0
 11
234.189547
 21
14.882055
 31
0.0
  0
LINE
  5
2A4
100
AcDbEntity
  8
0
390
0
  6
Continuous
 62
     1
100
AcDbLine
 10
233.896326
 20
14.999404
 30
0.0
 11
234.041267
 21
14.936564
 31
0.0
  0
LINE
  5
2A5
100
AcDbEntity
  8
0
390
0
  6
Continuous
 62
     1
100
AcDbLine
 10
233.755796
 20
15.071554
 30
0.0
 11
233.896326
 21
14.999404
 31
0.0
  0
LINE
  5
2A6
100
AcDbEntity
  8
0
390
0
  6
Continuous
 62
     1
100
AcDbLine
 10
233.210666
 20
13.75435
 30
0.0
 11
232.950503
 21
13.792861
 31
0.0
  0
LINE
  5
2A7
100
AcDbEntity
  8
0
390
0
  6
Continuous
 62
     1
100
AcDbLine
 10
233.520689
 20
15.227033
 30
0.0
 11
233.621128
 21
15.154111
 31
0.0
  0
LINE
  5
2A8
100
AcDbEntity
  8
0
390
0
  6
Continuous
 62
     1
100
AcDbLine
 10
233.426302
 20
15.307623
 30
0.0
 11
233.520689
 21
15.227033
 31
0.0
  0
LINE
  5
2A9
100
AcDbEntity
  8
0
390
0
  6
Continuous
 62
     1
100
AcDbLine
 10
231.299417
 20
15.491088
 30
0.0
 11
231.337928
 21
15.626417
 31
0.0
  0
LINE
  5
2AA
100
AcDbEntity
  8
0
390
0
  6
Continuous
 62
     1
100
AcDbLine
 10
233.261958
 20
15.493198
 30
0.0
 11
233.339471
 21
15.396291
 31
0.0
  0
LINE
  5
2AB
100
AcDbEntity
  8
0
390
0
  6
Continuous
 62
     1
100
AcDbLine
 10
233.195673
 20
15.598092
 30
0.0
 11
233.261958
 21
15.493198
 31
0.0
  0
LINE
  5
2AC
100
AcDbEntity
  8
0
390
0
  6
Continuous
 62
     1
100
AcDbLine
 10
233.142459
 20
15.710175
 30
0.0
 11
233.195673
 21
15.598092
 31
0.0
  0
LINE
  5
2AD
100
AcDbEntity
  8
0
390
0
  6
Continuous
 62
     1
100
AcDbLine
 10
233.103722
 20
15.828045
 30
0.0
 11
233.142459
 21
15.710175
 31
0.0
  0
LINE
  5
2AE
100
AcDbEntity
  8
0
390
0
  6
Continuous
 62
     1
100
AcDbLine
 10
231.290633
 20
14.913436
 30
0.0
 11
231.270398
 21
15.022134
 31
0.0
  0
LINE
  5
2AF
100
AcDbEntity
  8
0
390
0
  6
Continuous
 62
     1
100
AcDbLine
 10
233.072356
 20
16.075261
 30
0.0
 11
233.080178
 21
15.950651
 31
0.0
  0
LINE
  5
2B0
100
AcDbEntity
  8
0
390
0
  6
Continuous
 62
     1
100
AcDbLine
 10
233.079601
 20
16.19991
 30
0.0
 11
233.072356
 21
16.075261
 31
0.0
  0
LINE
  5
2B1
100
AcDbEntity
  8
0
390
0
  6
Continuous
 62
     1
100
AcDbLine
 10
233.100683
 20
16.322986
 30
0.0
 11
233.079601
 21
16.19991
 31
0.0
  0
LINE
  5
2B2
100
AcDbEntity
  8
0
390
0
  6
Continuous
 62
     1
100
AcDbLine
 10
233.134023
 20
16.44333
 30
0.0
 11
233.100683
 21
16.322986
 31
0.0
  0
LINE
  5
2B3
100
AcDbEntity
  8
0
390
0
  6
Continuous
 62
     1
100
AcDbLine
 10
233.177974
 20
16.560225
 30
0.0
 11
233.134023
 21
16.44333
 31
0.0
  0
LINE
  5
2B4
100
AcDbEntity
  8
0
390
0
  6
Continuous
 62
     1
100
AcDbLine
 10
233.230998
 20
16.673301
 30
0.0
 11
233.177974
 21
16.560225
 31
0.0
  0
LINE
  5
2B5
100
AcDbEntity
  8
0
390
0
  6
Continuous
 62
     1
100
AcDbLine
 10
233.316276
 20
16.822332
 30
0.0
 11
233.230998
 21
16.673301
 31
0.0
  0
LINE
  5
2B6
100
AcDbEntity
  8
0
390
0
  6
Continuous
 62
     1
100
AcDbLine
 10
233.413307
 20
16.964009
 30
0.0
 11
233.316276
 21
16.822332
 31
0.0
  0
LINE
  5
2B7
100
AcDbEntity
  8
0
390
0
  6
Continuous
 62
     1
100
AcDbLine
 10
233.51986
 20
17.098681
 30
0.0
 11
233.413307
 21
16.964009
 31
0.0
  0
LINE
  5
2B8
100
AcDbEntity
  8
0
390
0
  6
Continuous
 62
     1
100
AcDbLine
 10
233.63423
 20
17.226789
 30
0.0
 11
233.51986
 21
17.098681
 31
0.0
  0
LINE
  5
2B9
100
AcDbEntity
  8
0
390
0
  6
Continuous
 62
     1
100
AcDbLine
 10
233.778775
 20
17.371366
 30
0.0
 11
233.63423
 21
17.226789
 31
0.0
  0
LINE
  5
2BA
100
AcDbEntity
  8
0
390
0
  6
Continuous
 62
     1
100
AcDbLine
 10
233.930865
 20
17.507992
 30
0.0
 11
233.778775
 21
17.371366
 31
0.0
  0
LINE
  5
2BB
100
AcDbEntity
  8
0
390
0
  6
Continuous
 62
     1
100
AcDbLine
 10
234.089234
 20
17.637294
 30
0.0
 11
233.930865
 21
17.507992
 31
0.0
  0
LINE
  5
2BC
100
AcDbEntity
  8
0
390
0
  6
Continuous
 62
     1
100
AcDbLine
 10
234.25291
 20
17.759813
 30
0.0
 11
234.089234
 21
17.637294
 31
0.0
  0
LINE
  5
2BD
100
AcDbEntity
  8
0
390
0
  6
Continuous
 62
     1
100
AcDbLine
 10
234.421132
 20
17.876017
 30
0.0
 11
234.25291
 21
17.759813
 31
0.0
  0
LINE
  5
2BE
100
AcDbEntity
  8
0
390
0
  6
Continuous
 62
     1
100
AcDbLine
 10
234.593321
 20
17.986256
 30
0.0
 11
234.421132
 21
17.876017
 31
0.0
  0
ARC
  5
2BF
100
AcDbEntity
  8
0
390
0
  6
Continuous
 62
     1
100
AcDbCircle
 10
234.478013
 20
18.221097
 30
0.0
 40
0.261656
210
0.0
220
0.0
230
0.9999999999999999
100
AcDbArc
 50
296.151344
 51
0.057322
  0
ARC
  5
2C0
100
AcDbEntity
  8
0
390
0
  6
Continuous
 62
     1
100
AcDbCircle
 10
234.47961
 20
18.222861
 30
0.0
 40
0.260062
210
0.0
220
0.0
230
1.0
100
AcDbArc
 50
359.669032
 51
68.807725
  0
LINE
  5
2C1
100
AcDbEntity
  8
0
390
0
  6
Continuous
 62
     1
100
AcDbLine
 10
234.260842
 20
13.708709
 30
0.0
 11
233.997839
 21
13.706355
 31
0.0
  0
ARC
  5
2C2
100
AcDbEntity
  8
0
390
0
  6
Continuous
 62
     1
100
AcDbCircle
 10
233.202395
 20
29.25227
 30
0.0
 40
15.608158
210
0.0
220
0.0
230
1.0
100
AcDbArc
 50
278.822509
 51
289.706559
  0
LINE
  5
2C3
100
AcDbEntity
  8
0
390
0
  6
Continuous
 62
     1
100
AcDbLine
 10
233.016738
 20
17.591831
 30
0.0
 11
233.271091
 21
17.7761
 31
0.0
  0
LINE
  5
2C4
100
AcDbEntity
  8
0
390
0
  6
Continuous
 62
     1
100
AcDbLine
 10
231.618286
 20
16.190417
 30
0.0
 11
231.738206
 21
16.362054
 31
0.0
  0
ARC
  5
2C5
100
AcDbEntity
  8
0
390
0
  6
Continuous
 62
     1
100
AcDbCircle
 10
233.912072
 20
24.970534
 30
0.0
 40
11.268325
210
0.0
220
0.0
230
1.0
100
AcDbArc
 50
273.111263
 51
278.595873
  0
LINE
  5
2C6
100
AcDbEntity
  8
0
390
0
  6
Continuous
 62
     1
100
AcDbLine
 10
233.080178
 20
15.950651
 30
0.0
 11
233.103722
 21
15.828045
 31
0.0
  0
LINE
  5
2C7
100
AcDbEntity
  8
0
390
0
  6
Continuous
 62
     1
100
AcDbLine
 10
232.435218
 20
13.916359
 30
0.0
 11
232.268274
 21
13.974365
 31
0.0
  0
LINE
  5
2C8
100
AcDbEntity
  8
0
390
0
  6
Continuous
 62
     1
100
AcDbLine
 10
233.339471
 20
15.396291
 30
0.0
 11
233.426302
 21
15.307623
 31
0.0
  0
LINE
  5
2C9
100
AcDbEntity
  8
0
390
0
  6
Continuous
 62
     1
100
AcDbLine
 10
233.621128
 20
15.154111
 30
0.0
 11
233.755796
 21
15.071554
 31
0.0
  0
LINE
  5
2CA
100
AcDbEntity
  8
0
390
0
  6
Continuous
 62
     1
100
AcDbLine
 10
231.444534
 20
15.886688
 30
0.0
 11
231.509725
 21
16.011388
 31
0.0
  0
ENDBLK
  5
2CB
100
AcDbEntity
  8
0
390
0
100
AcDbBlockEnd
  0
BLOCK
  5
48A
100
AcDbEntity
  8
0
390
0
100
AcDbBlockBegin
  2
*D12
 70
     1
 10
0.0
 20
0.0
 30
0.0
  3
DI12
  1

  0
MTEXT
  5
48B
100
AcDbEntity
  8
0
390
0
 62
     7
100
AcDbMText
 10
243.04603
 20
80.610987
 30
0.0
 40
3.5
 41
90.840909
 71
     7
 72
     1
  1
\A1;%%c25.0H8\S+0.033^   0;
210
0.0
220
0.0
230
1.0
 11
0.0
 21
1.0
 31
0.0
 73
     1
 44
1.0
  0
MTEXT
  5
48C
100
AcDbEntity
  8
0
390
0
 62
     7
100
AcDbMText
 10
243.04603
 20
88.279169
 30
0.0
 40
3.5
 41
8.336364
 71
     7
 72
     1
  1
H8
210
0.0
220
0.0
230
1.0
 11
0.0
 21
1.0
 31
0.0
 73
     1
 44
1.0
  0
LINE
  5
48D
100
AcDbEntity
  8
0
390
0
  6
Continuous
 62
     7
100
AcDbLine
 10
245.114212
 20
101.467237
 30
0.0
 11
245.114212
 21
76.467237
 31
0.0
  0
LINE
  5
48E
100
AcDbEntity
  8
0
390
0
  6
Continuous
 62
     7
100
AcDbLine
 10
217.23288
 20
101.467237
 30
0.0
 11
246.164212
 21
101.467237
 31
0.0
  0
LINE
  5
48F
100
AcDbEntity
  8
0
390
0
  6
Continuous
 62
     7
100
AcDbLine
 10
217.23288
 20
76.467237
 30
0.0
 11
246.164212
 21
76.467237
 31
0.0
  0
POLYLINE
  5
490
100
AcDbEntity
  8
0
390
0
  6
Continuous
 62
     7
100
AcDb2dPolyline
 66
     1
 10
0.0
 20
0.0
 30
0.0
 40
0.1
 41
0.1
  0
VERTEX
  5
491
100
AcDbEntity
  8
0
390
0
 62
     7
100
AcDbVertex
100
AcDb2dVertex
 10
244.589212
 20
98.842237
 30
0.0
  0
VERTEX
  5
492
100
AcDbEntity
  8
0
390
0
 62
     7
100
AcDbVertex
100
AcDb2dVertex
 10
245.114212
 20
101.467237
 30
0.0
  0
VERTEX
  5
493
100
AcDbEntity
  8
0
390
0
 62
     7
100
AcDbVertex
100
AcDb2dVertex
 10
245.639212
 20
98.842237
 30
0.0
  0
SEQEND
  5
494
100
AcDbEntity
  8
0
390
0
  0
POLYLINE
  5
495
100
AcDbEntity
  8
0
390
0
  6
Continuous
 62
     7
100
AcDb2dPolyline
 66
     1
 10
0.0
 20
0.0
 30
0.0
 40
0.1
 41
0.1
  0
VERTEX
  5
496
100
AcDbEntity
  8
0
390
0
 62
     7
100
AcDbVertex
100
AcDb2dVertex
 10
245.639212
 20
79.092237
 30
0.0
  0
VERTEX
  5
497
100
AcDbEntity
  8
0
390
0
 62
     7
100
AcDbVertex
100
AcDb2dVertex
 10
245.114212
 20
76.467237
 30
0.0
  0
VERTEX
  5
498
100
AcDbEntity
  8
0
390
0
 62
     7
100
AcDbVertex
100
AcDb2dVertex
 10
244.589212
 20
79.092237
 30
0.0
  0
SEQEND
  5
499
100
AcDbEntity
  8
0
390
0
  0
ENDBLK
  5
49A
100
AcDbEntity
  8
0
390
0
100
AcDbBlockEnd
  0
BLOCK
  5
49D
100
AcDbEntity
  8
0
390
0
100
AcDbBlockBegin
  2
*D13
 70
     1
 10
0.0
 20
0.0
 30
0.0
  3
DI13
  1

  0
MTEXT
  5
49E
100
AcDbEntity
  8
0
390
0
 62
     7
100
AcDbMText
 10
157.936754
 20
87.543374
 30
0.0
 40
3.5
 41
36.495455
 71
     7
 72
     1
  1
\A1;%%c46.2
210
0.0
220
0.0
230
1.0
 11
0.0
 21
1.0
 31
0.0
 73
     1
 44
1.0
  0
LINE
  5
49F
100
AcDbEntity
  8
0
390
0
  6
Continuous
 62
     7
100
AcDbLine
 10
159.670844
 20
112.067237
 30
0.0
 11
159.670844
 21
65.867237
 31
0.0
  0
LINE
  5
4A0
100
AcDbEntity
  8
0
390
0
  6
Continuous
 62
     7
100
AcDbLine
 10
178.13288
 20
112.067237
 30
0.0
 11
158.620844
 21
112.067237
 31
0.0
  0
LINE
  5
4A1
100
AcDbEntity
  8
0
390
0
  6
Continuous
 62
     7
100
AcDbLine
 10
178.13288
 20
65.867237
 30
0.0
 11
158.620844
 21
65.867237
 31
0.0
  0
POLYLINE
  5
4A2
100
AcDbEntity
  8
0
390
0
  6
Continuous
 62
     7
100
AcDb2dPolyline
 66
     1
 10
0.0
 20
0.0
 30
0.0
 40
0.1
 41
0.1
  0
VERTEX
  5
4A3
100
AcDbEntity
  8
0
390
0
 62
     7
100
AcDbVertex
100
AcDb2dVertex
 10
159.145844
 20
109.442237
 30
0.0
  0
VERTEX
  5
4A4
100
AcDbEntity
  8
0
390
0
 62
     7
100
AcDbVertex
100
AcDb2dVertex
 10
159.670844
 20
112.067237
 30
0.0
  0
VERTEX
  5
4A5
100
AcDbEntity
  8
0
390
0
 62
     7
100
AcDbVertex
100
AcDb2dVertex
 10
160.195844
 20
109.442237
 30
0.0
  0
SEQEND
  5
4A6
100
AcDbEntity
  8
0
390
0
  0
POLYLINE
  5
4A7
100
AcDbEntity
  8
0
390
0
  6
Continuous
 62
     7
100
AcDb2dPolyline
 66
     1
 10
0.0
 20
0.0
 30
0.0
 40
0.1
 41
0.1
  0
VERTEX
  5
4A8
100
AcDbEntity
  8
0
390
0
 62
     7
100
AcDbVertex
100
AcDb2dVertex
 10
160.195844
 20
68.492237
 30
0.0
  0
VERTEX
  5
4A9
100
AcDbEntity
  8
0
390
0
 62
     7
100
AcDbVertex
100
AcDb2dVertex
 10
159.670844
 20
65.867237
 30
0.0
  0
VERTEX
  5
4AA
100
AcDbEntity
  8
0
390
0
 62
     7
100
AcDbVertex
100
AcDb2dVertex
 10
159.145844
 20
68.492237
 30
0.0
  0
SEQEND
  5
4AB
100
AcDbEntity
  8
0
390
0
  0
ENDBLK
  5
4AC
100
AcDbEntity
  8
0
390
0
100
AcDbBlockEnd
  0
BLOCK
  5
4AF
100
AcDbEntity
  8
0
390
0
100
AcDbBlockBegin
  2
*D14
 70
     1
 10
0.0
 20
0.0
 30
0.0
  3
DI14
  1

  0
MTEXT
  5
4B0
100
AcDbEntity
  8
0
390
0
 62
     7
100
AcDbMText
 10
252.662743
 20
82.253601
 30
0.0
 40
3.5
 41
54.440909
 71
     7
 72
     1
  1
\A1;%%c55.0%%p0.3
210
0.0
220
0.0
230
1.0
 11
0.0
 21
1.0
 31
0.0
 73
     1
 44
1.0
  0
LINE
  5
4B1
100
AcDbEntity
  8
0
390
0
  6
Continuous
 62
     7
100
AcDbLine
 10
254.396833
 20
116.467237
 30
0.0
 11
254.396833
 21
61.467237
 31
0.0
  0
LINE
  5
4B2
100
AcDbEntity
  8
0
390
0
  6
Continuous
 62
     7
100
AcDbLine
 10
217.73288
 20
116.467237
 30
0.0
 11
255.446833
 21
116.467237
 31
0.0
  0
LINE
  5
4B3
100
AcDbEntity
  8
0
390
0
  6
Continuous
 62
     7
100
AcDbLine
 10
217.73288
 20
61.467237
 30
0.0
 11
255.446833
 21
61.467237
 31
0.0
  0
POLYLINE
  5
4B4
100
AcDbEntity
  8
0
390
0
  6
Continuous
 62
     7
100
AcDb2dPolyline
 66
     1
 10
0.0
 20
0.0
 30
0.0
 40
0.1
 41
0.1
  0
VERTEX
  5
4B5
100
AcDbEntity
  8
0
390
0
 62
     7
100
AcDbVertex
100
AcDb2dVertex
 10
253.871833
 20
113.842237
 30
0.0
  0
VERTEX
  5
4B6
100
AcDbEntity
  8
0
390
0
 62
     7
100
AcDbVertex
100
AcDb2dVertex
 10
254.396833
 20
116.467237
 30
0.0
  0
VERTEX
  5
4B7
100
AcDbEntity
  8
0
390
0
 62
     7
100
AcDbVertex
100
AcDb2dVertex
 10
254.921833
 20
113.842237
 30
0.0
  0
SEQEND
  5
4B8
100
AcDbEntity
  8
0
390
0
  0
POLYLINE
  5
4B9
100
AcDbEntity
  8
0
390
0
  6
Continuous
 62
     7
100
AcDb2dPolyline
 66
     1
 10
0.0
 20
0.0
 30
0.0
 40
0.1
 41
0.1
  0
VERTEX
  5
4BA
100
AcDbEntity
  8
0
390
0
 62
     7
100
AcDbVertex
100
AcDb2dVertex
 10
254.921833
 20
64.092237
 30
0.0
  0
VERTEX
  5
4BB
100
AcDbEntity
  8
0
390
0
 62
     7
100
AcDbVertex
100
AcDb2dVertex
 10
254.396833
 20
61.467237
 30
0.0
  0
VERTEX
  5
4BC
100
AcDbEntity
  8
0
390
0
 62
     7
100
AcDbVertex
100
AcDb2dVertex
 10
253.871833
 20
64.092237
 30
0.0
  0
SEQEND
  5
4BD
100
AcDbEntity
  8
0
390
0
  0
ENDBLK
  5
4BE
100
AcDbEntity
  8
0
390
0
100
AcDbBlockEnd
  0
BLOCK
  5
4C0
100
AcDbEntity
  8
0
390
0
100
AcDbBlockBegin
  2
AID2093
 70
     0
 10
0.0
 20
0.0
 30
0.0
  3
DIMENS
  1

  0
MTEXT
  5
4C1
100
AcDbEntity
  8
0
390
0
 62
     2
100
AcDbMText
 10
165.075867
 20
92.92245
 30
0.0
 40
3.5
 41
7.509091
 71
     7
 72
     1
  1
C
210
0.0
220
0.0
230
1.0
 11
0.707107
 21
-0.707107
 31
0.0
 73
     1
 44
1.0
  0
MTEXT
  5
4C2
100
AcDbEntity
  8
0
390
0
 62
     2
100
AcDbMText
 10
167.921972
 20
90.076345
 30
0.0
 40
3.5
 41
12.981818
 71
     7
 72
     1
  1
0.5
210
0.0
220
0.0
230
1.0
 11
0.707107
 21
-0.707107
 31
0.0
 73
     1
 44
1.0
  0
LINE
  5
4C3
100
AcDbEntity
  8
0
390
0
  6
Continuous
 62
    11
100
AcDbLine
 10
179.130793
 20
76.41515
 30
0.0
 11
163.388453
 21
92.157489
 31
0.0
  0
POLYLINE
  5
4C4
100
AcDbEntity
  8
0
390
0
  6
Continuous
 62
    11
100
AcDb2dPolyline
 66
     1
 10
0.0
 20
0.0
 30
0.0
 40
0.1
 41
0.1
  0
VERTEX
  5
4C5
100
AcDbEntity
  8
0
390
0
 62
    11
100
AcDbVertex
100
AcDb2dVertex
 10
177.645868
 20
78.642536
 30
0.0
  0
VERTEX
  5
4C6
100
AcDbEntity
  8
0
390
0
 62
    11
100
AcDbVertex
100
AcDb2dVertex
 10
179.130793
 20
76.41515
 30
0.0
  0
VERTEX
  5
4C7
100
AcDbEntity
  8
0
390
0
 62
    11
100
AcDbVertex
100
AcDb2dVertex
 10
176.903406
 20
77.900074
 30
0.0
  0
SEQEND
  5
4C8
100
AcDbEntity
  8
0
390
0
  0
ENDBLK
  5
4C9
100
AcDbEntity
  8
0
390
0
100
AcDbBlockEnd
  0
BLOCK
  5
4CC
100
AcDbEntity
  8
0
390
0
100
AcDbBlockBegin
  2
AID2099
 70
     0
 10
0.0
 20
0.0
 30
0.0
  3
DIMENS
  1

  0
MTEXT
  5
4CD
100
AcDbEntity
  8
0
390
0
 62
     2
100
AcDbMText
 10
222.469553
 20
84.876719
 30
0.0
 40
3.5
 41
7.509091
 71
     7
 72
     1
  1
C
210
0.0
220
0.0
230
1.0
 11
0.707107
 21
0.707107
 31
0.0
 73
     1
 44
1.0
  0
MTEXT
  5
4CE
100
AcDbEntity
  8
0
390
0
 62
     2
100
AcDbMText
 10
225.315658
 20
87.722824
 30
0.0
 40
3.5
 41
12.981818
 71
     7
 72
     1
  1
0.5
210
0.0
220
0.0
230
1.0
 11
0.707107
 21
0.707107
 31
0.0
 73
     1
 44
1.0
  0
LINE
  5
4CF
100
AcDbEntity
  8
0
390
0
  6
Continuous
 62
    11
100
AcDbLine
 10
216.347663
 20
76.302454
 30
0.0
 11
230.479144
 21
90.433936
 31
0.0
  0
POLYLINE
  5
4D0
100
AcDbEntity
  8
0
390
0
  6
Continuous
 62
    11
100
AcDb2dPolyline
 66
     1
 10
0.0
 20
0.0
 30
0.0
 40
0.1
 41
0.1
  0
VERTEX
  5
4D1
100
AcDbEntity
  8
0
390
0
 62
    11
100
AcDbVertex
100
AcDb2dVertex
 10
218.575049
 20
77.787379
 30
0.0
  0
VERTEX
  5
4D2
100
AcDbEntity
  8
0
390
0
 62
    11
100
AcDbVertex
100
AcDb2dVertex
 10
216.347663
 20
76.302454
 30
0.0
  0
VERTEX
  5
4D3
100
AcDbEntity
  8
0
390
0
 62
    11
100
AcDbVertex
100
AcDb2dVertex
 10
217.832587
 20
78.529841
 30
0.0
  0
SEQEND
  5
4D4
100
AcDbEntity
  8
0
390
0
  0
ENDBLK
  5
4D5
100
AcDbEntity
  8
0
390
0
100
AcDbBlockEnd
  0
BLOCK
  5
4D9
100
AcDbEntity
  8
0
390
0
100
AcDbBlockBegin
  2
*D17
 70
     1
 10
0.0
 20
0.0
 30
0.0
  3
DI17
  1

  0
MTEXT
  5
4DA
100
AcDbEntity
  8
0
390
0
 62
     7
100
AcDbMText
 10
97.441616
 20
195.127611
 30
0.0
 40
3.5
 41
46.295455
 71
     7
 72
     1
  1
\A1;38.0%%p0.3
210
0.0
220
0.0
230
1.0
 73
     1
 44
1.0
  0
LINE
  5
4DB
100
AcDbEntity
  8
0
390
0
  6
Continuous
 62
     7
100
AcDbLine
 10
87.19957
 20
193.39352
 30
0.0
 11
125.19957
 21
193.39352
 31
0.0
  0
LINE
  5
4DC
100
AcDbEntity
  8
0
390
0
  6
Continuous
 62
     7
100
AcDbLine
 10
87.19957
 20
175.517237
 30
0.0
 11
87.19957
 21
194.44352
 31
0.0
  0
LINE
  5
4DD
100
AcDbEntity
  8
0
390
0
  6
Continuous
 62
     7
100
AcDbLine
 10
125.19957
 20
170.617237
 30
0.0
 11
125.19957
 21
194.44352
 31
0.0
  0
POLYLINE
  5
4DE
100
AcDbEntity
  8
0
390
0
  6
Continuous
 62
     7
100
AcDb2dPolyline
 66
     1
 10
0.0
 20
0.0
 30
0.0
 40
0.1
 41
0.1
  0
VERTEX
  5
4DF
100
AcDbEntity
  8
0
390
0
 62
     7
100
AcDbVertex
100
AcDb2dVertex
 10
89.82457
 20
192.86852
 30
0.0
  0
VERTEX
  5
4E0
100
AcDbEntity
  8
0
390
0
 62
     7
100
AcDbVertex
100
AcDb2dVertex
 10
87.19957
 20
193.39352
 30
0.0
  0
VERTEX
  5
4E1
100
AcDbEntity
  8
0
390
0
 62
     7
100
AcDbVertex
100
AcDb2dVertex
 10
89.82457
 20
193.91852
 30
0.0
  0
SEQEND
  5
4E2
100
AcDbEntity
  8
0
390
0
  0
POLYLINE
  5
4E3
100
AcDbEntity
  8
0
390
0
  6
Continuous
 62
     7
100
AcDb2dPolyline
 66
     1
 10
0.0
 20
0.0
 30
0.0
 40
0.1
 41
0.1
  0
VERTEX
  5
4E4
100
AcDbEntity
  8
0
390
0
 62
     7
100
AcDbVertex
100
AcDb2dVertex
 10
122.57457
 20
193.91852
 30
0.0
  0
VERTEX
  5
4E5
100
AcDbEntity
  8
0
390
0
 62
     7
100
AcDbVertex
100
AcDb2dVertex
 10
125.19957
 20
193.39352
 30
0.0
  0
VERTEX
  5
4E6
100
AcDbEntity
  8
0
390
0
 62
     7
100
AcDbVertex
100
AcDb2dVertex
 10
122.57457
 20
192.86852
 30
0.0
  0
SEQEND
  5
4E7
100
AcDbEntity
  8
0
390
0
  0
ENDBLK
  5
4E8
100
AcDbEntity
  8
0
390
0
100
AcDbBlockEnd
  0
BLOCK
  5
4EB
100
AcDbEntity
  8
0
390
0
100
AcDbBlockBegin
  2
*D18
 70
     1
 10
0.0
 20
0.0
 30
0.0
  3
DI18
  1

  0
MTEXT
  5
4EC
100
AcDbEntity
  8
0
390
0
 62
     7
100
AcDbMText
 10
96.19957
 20
181.733424
 30
0.0
 40
3.5
 41
28.477273
 71
     7
 72
     1
  1
\A1;25.0
210
0.0
220
0.0
230
1.0
 73
     1
 44
1.0
  0
LINE
  5
4ED
100
AcDbEntity
  8
0
390
0
  6
Continuous
 62
     7
100
AcDbLine
 10
87.19957
 20
179.999333
 30
0.0
 11
112.19957
 21
179.999333
 31
0.0
  0
LINE
  5
4EE
100
AcDbEntity
  8
0
390
0
  6
Continuous
 62
     7
100
AcDbLine
 10
87.19957
 20
175.517237
 30
0.0
 11
87.19957
 21
181.049333
 31
0.0
  0
LINE
  5
4EF
100
AcDbEntity
  8
0
390
0
  6
Continuous
 62
     7
100
AcDbLine
 10
112.19957
 20
175.517237
 30
0.0
 11
112.19957
 21
181.049333
 31
0.0
  0
POLYLINE
  5
4F0
100
AcDbEntity
  8
0
390
0
  6
Continuous
 62
     7
100
AcDb2dPolyline
 66
     1
 10
0.0
 20
0.0
 30
0.0
 40
0.1
 41
0.1
  0
VERTEX
  5
4F1
100
AcDbEntity
  8
0
390
0
 62
     7
100
AcDbVertex
100
AcDb2dVertex
 10
89.82457
 20
179.474333
 30
0.0
  0
VERTEX
  5
4F2
100
AcDbEntity
  8
0
390
0
 62
     7
100
AcDbVertex
100
AcDb2dVertex
 10
87.19957
 20
179.999333
 30
0.0
  0
VERTEX
  5
4F3
100
AcDbEntity
  8
0
390
0
 62
     7
100
AcDbVertex
100
AcDb2dVertex
 10
89.82457
 20
180.524333
 30
0.0
  0
SEQEND
  5
4F4
100
AcDbEntity
  8
0
390
0
  0
POLYLINE
  5
4F5
100
AcDbEntity
  8
0
390
0
  6
Continuous
 62
     7
100
AcDb2dPolyline
 66
     1
 10
0.0
 20
0.0
 30
0.0
 40
0.1
 41
0.1
  0
VERTEX
  5
4F6
100
AcDbEntity
  8
0
390
0
 62
     7
100
AcDbVertex
100
AcDb2dVertex
 10
109.57457
 20
180.524333
 30
0.0
  0
VERTEX
  5
4F7
100
AcDbEntity
  8
0
390
0
 62
     7
100
AcDbVertex
100
AcDb2dVertex
 10
112.19957
 20
179.999333
 30
0.0
  0
VERTEX
  5
4F8
100
AcDbEntity
  8
0
390
0
 62
     7
100
AcDbVertex
100
AcDb2dVertex
 10
109.57457
 20
179.474333
 30
0.0
  0
SEQEND
  5
4F9
100
AcDbEntity
  8
0
390
0
  0
ENDBLK
  5
4FA
100
AcDbEntity
  8
0
390
0
100
AcDbBlockEnd
  0
BLOCK
  5
4FD
100
AcDbEntity
  8
0
390
0
100
AcDbBlockBegin
  2
*D19
 70
     1
 10
0.0
 20
0.0
 30
0.0
  3
DI19
  1

  0
MTEXT
  5
4FE
100
AcDbEntity
  8
0
390
0
 62
     7
100
AcDbMText
 10
99.481389
 20
188.71119
 30
0.0
 40
3.5
 41
28.35
 71
     7
 72
     1
  1
\A1;31.5
210
0.0
220
0.0
230
1.0
 73
     1
 44
1.0
  0
LINE
  5
4FF
100
AcDbEntity
  8
0
390
0
  6
Continuous
 62
     7
100
AcDbLine
 10
118.69957
 20
186.977099
 30
0.0
 11
87.19957
 21
186.977099
 31
0.0
  0
LINE
  5
500
100
AcDbEntity
  8
0
390
0
  6
Continuous
 62
     7
100
AcDbLine
 10
118.69957
 20
175.117237
 30
0.0
 11
118.69957
 21
188.027099
 31
0.0
  0
LINE
  5
501
100
AcDbEntity
  8
0
390
0
  6
Continuous
 62
     7
100
AcDbLine
 10
87.19957
 20
175.517237
 30
0.0
 11
87.19957
 21
188.027099
 31
0.0
  0
POLYLINE
  5
502
100
AcDbEntity
  8
0
390
0
  6
Continuous
 62
     7
100
AcDb2dPolyline
 66
     1
 10
0.0
 20
0.0
 30
0.0
 40
0.1
 41
0.1
  0
VERTEX
  5
503
100
AcDbEntity
  8
0
390
0
 62
     7
100
AcDbVertex
100
AcDb2dVertex
 10
116.07457
 20
187.502099
 30
0.0
  0
VERTEX
  5
504
100
AcDbEntity
  8
0
390
0
 62
     7
100
AcDbVertex
100
AcDb2dVertex
 10
118.69957
 20
186.977099
 30
0.0
  0
VERTEX
  5
505
100
AcDbEntity
  8
0
390
0
 62
     7
100
AcDbVertex
100
AcDb2dVertex
 10
116.07457
 20
186.452099
 30
0.0
  0
SEQEND
  5
506
100
AcDbEntity
  8
0
390
0
  0
POLYLINE
  5
507
100
AcDbEntity
  8
0
390
0
  6
Continuous
 62
     7
100
AcDb2dPolyline
 66
     1
 10
0.0
 20
0.0
 30
0.0
 40
0.1
 41
0.1
  0
VERTEX
  5
508
100
AcDbEntity
  8
0
390
0
 62
     7
100
AcDbVertex
100
AcDb2dVertex
 10
89.82457
 20
186.452099
 30
0.0
  0
VERTEX
  5
509
100
AcDbEntity
  8
0
390
0
 62
     7
100
AcDbVertex
100
AcDb2dVertex
 10
87.19957
 20
186.977099
 30
0.0
  0
VERTEX
  5
50A
100
AcDbEntity
  8
0
390
0
 62
     7
100
AcDbVertex
100
AcDb2dVertex
 10
89.82457
 20
187.502099
 30
0.0
  0
SEQEND
  5
50B
100
AcDbEntity
  8
0
390
0
  0
ENDBLK
  5
50C
100
AcDbEntity
  8
0
390
0
100
AcDbBlockEnd
  0
BLOCK
  5
50F
100
AcDbEntity
  8
0
390
0
100
AcDbBlockBegin
  2
*D20
 70
     1
 10
0.0
 20
0.0
 30
0.0
  3
DI20
  1

  0
MTEXT
  5
510
100
AcDbEntity
  8
0
390
0
 62
     7
100
AcDbMText
 10
138.89502
 20
181.733424
 30
0.0
 40
3.5
 41
35.254545
 71
     7
 72
     1
  1
\A1;2 -M8
210
0.0
220
0.0
230
1.0
 73
     1
 44
1.0
  0
LINE
  5
511
100
AcDbEntity
  8
0
390
0
  6
Continuous
 62
     7
100
AcDbLine
 10
114.699575
 20
179.999333
 30
0.0
 11
141.615474
 21
179.999333
 31
0.0
  0
LINE
  5
512
100
AcDbEntity
  8
0
390
0
  6
Continuous
 62
     7
100
AcDbLine
 10
114.699575
 20
171.117237
 30
0.0
 11
114.699575
 21
181.049333
 31
0.0
  0
LINE
  5
513
100
AcDbEntity
  8
0
390
0
  6
Continuous
 62
     7
100
AcDbLine
 10
122.699565
 20
171.117237
 30
0.0
 11
122.699565
 21
181.049333
 31
0.0
  0
POLYLINE
  5
514
100
AcDbEntity
  8
0
390
0
  6
Continuous
 62
     7
100
AcDb2dPolyline
 66
     1
 10
0.0
 20
0.0
 30
0.0
 40
0.1
 41
0.1
  0
VERTEX
  5
515
100
AcDbEntity
  8
0
390
0
 62
     7
100
AcDbVertex
100
AcDb2dVertex
 10
117.324575
 20
179.474333
 30
0.0
  0
VERTEX
  5
516
100
AcDbEntity
  8
0
390
0
 62
     7
100
AcDbVertex
100
AcDb2dVertex
 10
114.699575
 20
179.999333
 30
0.0
  0
VERTEX
  5
517
100
AcDbEntity
  8
0
390
0
 62
     7
100
AcDbVertex
100
AcDb2dVertex
 10
117.324575
 20
180.524333
 30
0.0
  0
SEQEND
  5
518
100
AcDbEntity
  8
0
390
0
  0
POLYLINE
  5
519
100
AcDbEntity
  8
0
390
0
  6
Continuous
 62
     7
100
AcDb2dPolyline
 66
     1
 10
0.0
 20
0.0
 30
0.0
 40
0.1
 41
0.1
  0
VERTEX
  5
51A
100
AcDbEntity
  8
0
390
0
 62
     7
100
AcDbVertex
100
AcDb2dVertex
 10
120.074565
 20
180.524333
 30
0.0
  0
VERTEX
  5
51B
100
AcDbEntity
  8
0
390
0
 62
     7
100
AcDbVertex
100
AcDb2dVertex
 10
122.699565
 20
179.999333
 30
0.0
  0
VERTEX
  5
51C
100
AcDbEntity
  8
0
390
0
 62
     7
100
AcDbVertex
100
AcDb2dVertex
 10
120.074565
 20
179.474333
 30
0.0
  0
SEQEND
  5
51D
100
AcDbEntity
  8
0
390
0
  0
ENDBLK
  5
51E
100
AcDbEntity
  8
0
390
0
100
AcDbBlockEnd
  0
BLOCK
  5
521
100
AcDbEntity
  8
0
390
0
100
AcDbBlockBegin
  2
*D21
 70
     1
 10
0.0
 20
0.0
 30
0.0
  3
DI21
  1

  0
MTEXT
  5
522
100
AcDbEntity
  8
0
390
0
 62
     7
100
AcDbMText
 10
91.1514
 20
92.111857
 30
0.0
 40
3.5
 41
28.445455
 71
     7
 72
     1
  1
\A1;90%%d
210
0.0
220
0.0
230
1.0
 11
0.707107
 21
0.707107
 31
0.0
 73
     1
 44
1.0
  0
ARC
  5
523
100
AcDbEntity
  8
0
390
0
  6
Continuous
 62
     7
100
AcDbCircle
 10
98.19957
 20
88.967237
 30
0.0
 40
5.4733
210
0.0
220
0.0
230
1.0
100
AcDbArc
 50
90.0
 51
180.0
  0
POLYLINE
  5
524
100
AcDbEntity
  8
0
390
0
  6
Continuous
 62
     7
100
AcDb2dPolyline
 66
     1
 10
0.0
 20
0.0
 30
0.0
 40
0.1
 41
0.1
  0
VERTEX
  5
525
100
AcDbEntity
  8
0
390
0
 62
     7
100
AcDbVertex
100
AcDb2dVertex
 10
95.57457
 20
94.965537
 30
0.0
  0
VERTEX
  5
526
100
AcDbEntity
  8
0
390
0
 62
     7
100
AcDbVertex
100
AcDb2dVertex
 10
98.19957
 20
94.440537
 30
0.0
  0
VERTEX
  5
527
100
AcDbEntity
  8
0
390
0
 62
     7
100
AcDbVertex
100
AcDb2dVertex
 10
95.57457
 20
93.915537
 30
0.0
  0
SEQEND
  5
528
100
AcDbEntity
  8
0
390
0
  0
POLYLINE
  5
529
100
AcDbEntity
  8
0
390
0
  6
Continuous
 62
     7
100
AcDb2dPolyline
 66
     1
 10
0.0
 20
0.0
 30
0.0
 40
0.1
 41
0.1
  0
VERTEX
  5
52A
100
AcDbEntity
  8
0
390
0
 62
     7
100
AcDbVertex
100
AcDb2dVertex
 10
93.251271
 20
91.592237
 30
0.0
  0
VERTEX
  5
52B
100
AcDbEntity
  8
0
390
0
 62
     7
100
AcDbVertex
100
AcDb2dVertex
 10
92.726271
 20
88.967237
 30
0.0
  0
VERTEX
  5
52C
100
AcDbEntity
  8
0
390
0
 62
     7
100
AcDbVertex
100
AcDb2dVertex
 10
92.201271
 20
91.592237
 30
0.0
  0
SEQEND
  5
52D
100
AcDbEntity
  8
0
390
0
  0
ENDBLK
  5
52E
100
AcDbEntity
  8
0
390
0
100
AcDbBlockEnd
  0
BLOCK
  5
530
100
AcDbEntity
  8
0
390
0
100
AcDbBlockBegin
  2
AID2143
 70
     0
 10
0.0
 20
0.0
 30
0.0
  3
DNote#note referencing elements
  1

  0
MTEXT
  5
531
100
AcDbEntity
  8
0
390
0
 62
     7
100
AcDbMText
 10
124.918193
 20
56.704115
 30
0.0
 40
3.5
 41
69.013636
 71
     7
 72
     1
  1
MC55-12  2ヶ1セット
210
0.0
220
0.0
230
1.0
 73
     1
 44
1.0
  0
LINE
  5
532
100
AcDbEntity
  8
0
390
0
  6
Continuous
 62
     2
100
AcDbLine
 10
125.204557
 20
55.385933
 30
0.0
 11
159.711375
 21
55.385933
 31
0.0
  0
HATCH
  5
533
100
AcDbEntity
  8
0
390
0
 62
     2
100
AcDbHatch
 10
104.38202836436189
 20
72.286521141407448
 30
0.0
210
0.0
220
0.0
230
1.0
  2
SOLID
 70
     1
 71
     0
 91
        1
 92
        1
 93
       72
 72
     1
 10
103.70264580847081
 20
72.837941437325981
 11
103.65717161875025
 21
72.776631025353183
 72
     1
 10
103.65717161875025
 20
72.776631025353183
 11
103.61721402654427
 21
72.711590581227128
 72
     1
 10
103.61721402654427
 20
72.711590581227128
 11
103.58307713325662
 21
72.643315102000088
 72
     1
 10
103.58307713325662
 20
72.643315102000088
 11
103.55502074125762
 21
72.572324205294862
 72
     1
 10
103.55502074125762
 20
72.572324205294862
 11
103.5332583766313
 21
72.499158174700838
 72
     1
 10
103.5332583766313
 20
72.499158174700838
 11
103.51795566411295
 21
72.424373847889683
 72
     1
 10
103.51795566411295
 20
72.424373847889683
 11
103.50922906658482
 21
72.348540378744488
 72
     1
 10
103.50922906658482
 20
72.348540378744488
 11
103.50714499872343
 21
72.2722349057549
 72
     1
 10
103.50714499872343
 20
72.2722349057549
 11
103.51171932154355
 21
72.1960381596449
 72
     1
 10
103.51171932154355
 20
72.1960381596449
 11
103.52291722168651
 21
72.120530043661248
 72
     1
 10
103.52291722168651
 20
72.120530043661248
 11
103.54065347637071
 21
72.046285220159589
 72
     1
 10
103.54065347637071
 20
72.046285220159589
 11
103.56479310198856
 21
71.973868737077041
 72
     1
 10
103.56479310198856
 20
71.973868737077041
 11
103.5951523814132
 21
71.903831727576119
 72
     1
 10
103.5951523814132
 20
71.903831727576119
 11
103.63150026219682
 21
71.83670721558866
 72
     1
 10
103.63150026219682
 20
71.83670721558866
 11
103.67356011501917
 21
71.773006059181753
 72
     1
 10
103.67356011501917
 20
71.773006059181753
 11
103.72101183900384
 21
71.713213062619474
 72
     1
 10
103.72101183900384
 20
71.713213062619474
 11
103.77349429787915
 21
71.65778328670963
 72
     1
 10
103.77349429787915
 20
71.65778328670963
 11
103.83060806844335
 21
71.607138585516353
 72
     1
 10
103.83060806844335
 20
71.607138585516353
 11
103.89191848041615
 21
71.561664395795816
 72
     1
 10
103.89191848041615
 20
71.561664395795816
 11
103.95695892454221
 21
71.521706803589836
 72
     1
 10
103.95695892454221
 20
71.521706803589836
 11
104.02523440376925
 21
71.487569910302184
 72
     1
 10
104.02523440376925
 20
71.487569910302184
 11
104.09622530047447
 21
71.459513518303183
 72
     1
 10
104.09622530047447
 20
71.459513518303183
 11
104.16939133106851
 21
71.437751153676857
 72
     1
 10
104.16939133106851
 20
71.437751153676857
 11
104.24417565787965
 21
71.422448441158494
 72
     1
 10
104.24417565787965
 20
71.422448441158494
 11
104.32000912702486
 21
71.413721843630384
 72
     1
 10
104.32000912702486
 20
71.413721843630384
 11
104.39631460001443
 21
71.411637775768995
 72
     1
 10
104.39631460001443
 20
71.411637775768995
 11
104.47251134612443
 21
71.416212098589114
 72
     1
 10
104.47251134612443
 20
71.416212098589114
 11
104.54801946210809
 21
71.42740999873206
 72
     1
 10
104.54801946210809
 20
71.42740999873206
 11
104.62226428560975
 21
71.445146253416254
 72
     1
 10
104.62226428560975
 20
71.445146253416254
 11
104.69468076869231
 21
71.469285879034118
 72
     1
 10
104.69468076869231
 20
71.469285879034118
 11
104.76471777819322
 21
71.499645158458762
 72
     1
 10
104.76471777819322
 20
71.499645158458762
 11
104.83184229018067
 21
71.535993039242385
 72
     1
 10
104.83184229018067
 20
71.535993039242385
 11
104.89554344658758
 21
71.578052892064733
 72
     1
 10
104.89554344658758
 20
71.578052892064733
 11
104.95533644314986
 21
71.625504616049398
 72
     1
 10
104.95533644314986
 20
71.625504616049398
 11
105.0107662190597
 21
71.677987074924715
 72
     1
 10
105.0107662190597
 20
71.677987074924715
 11
105.06141092025298
 21
71.735100845488915
 72
     1
 10
105.06141092025298
 20
71.735100845488915
 11
105.10688510997353
 21
71.796411257461713
 72
     1
 10
105.10688510997353
 20
71.796411257461713
 11
105.1468427021795
 21
71.861451701587768
 72
     1
 10
105.1468427021795
 20
71.861451701587768
 11
105.18097959546715
 21
71.929727180814808
 72
     1
 10
105.18097959546715
 20
71.929727180814808
 11
105.20903598746615
 21
72.000718077520034
 72
     1
 10
105.20903598746615
 20
72.000718077520034
 11
105.23079835209248
 21
72.073884108114058
 72
     1
 10
105.23079835209248
 20
72.073884108114058
 11
105.24610106461084
 21
72.148668434925213
 72
     1
 10
105.24610106461084
 20
72.148668434925213
 11
105.25482766213895
 21
72.224501904070408
 72
     1
 10
105.25482766213895
 20
72.224501904070408
 11
105.25691173000034
 21
72.300807377059982
 72
     1
 10
105.25691173000034
 20
72.300807377059982
 11
105.25233740718022
 21
72.377004123169996
 72
     1
 10
105.25233740718022
 20
72.377004123169996
 11
105.24113950703727
 21
72.452512239153648
 72
     1
 10
105.24113950703727
 20
72.452512239153648
 11
105.22340325235308
 21
72.526757062655307
 72
     1
 10
105.22340325235308
 20
72.526757062655307
 11
105.19926362673522
 21
72.599173545737855
 72
     1
 10
105.19926362673522
 20
72.599173545737855
 11
105.16890434731057
 21
72.669210555238763
 72
     1
 10
105.16890434731057
 20
72.669210555238763
 11
105.13255646652696
 21
72.736335067226236
 72
     1
 10
105.13255646652696
 20
72.736335067226236
 11
105.0904966137046
 21
72.800036223633143
 72
     1
 10
105.0904966137046
 20
72.800036223633143
 11
105.04304488971994
 21
72.859829220195422
 72
     1
 10
105.04304488971994
 20
72.859829220195422
 11
104.99056243084462
 21
72.915258996105266
 72
     1
 10
104.99056243084462
 20
72.915258996105266
 11
104.93344866028042
 21
72.965903697298543
 72
     1
 10
104.93344866028042
 20
72.965903697298543
 11
104.87213824830762
 21
73.01137788701908
 72
     1
 10
104.87213824830762
 20
73.01137788701908
 11
104.80709780418157
 21
73.05133547922506
 72
     1
 10
104.80709780418157
 20
73.05133547922506
 11
104.73882232495453
 21
73.085472372512712
 72
     1
 10
104.73882232495453
 20
73.085472372512712
 11
104.6678314282493
 21
73.113528764511713
 72
     1
 10
104.6678314282493
 20
73.113528764511713
 11
104.59466539765528
 21
73.135291129138039
 72
     1
 10
104.59466539765528
 20
73.135291129138039
 11
104.51988107084414
 21
73.150593841656402
 72
     1
 10
104.51988107084414
 20
73.150593841656402
 11
104.44404760169893
 21
73.159320439184512
 72
     1
 10
104.44404760169893
 20
73.159320439184512
 11
104.36774212870935
 21
73.161404507045901
 72
     1
 10
104.36774212870935
 20
73.161404507045901
 11
104.29154538259934
 21
73.156830184225782
 72
     1
 10
104.29154538259934
 20
73.156830184225782
 11
104.21603726661569
 21
73.145632284082822
 72
     1
 10
104.21603726661569
 20
73.145632284082822
 11
104.14179244311403
 21
73.127896029398627
 72
     1
 10
104.14179244311403
 20
73.127896029398627
 11
104.06937596003148
 21
73.103756403780778
 72
     1
 10
104.06937596003148
 20
73.103756403780778
 11
103.99933895053057
 21
73.073397124356134
 72
     1
 10
103.99933895053057
 20
73.073397124356134
 11
103.9322144385431
 21
73.037049243572511
 72
     1
 10
103.9322144385431
 20
73.037049243572511
 11
103.86851328213621
 21
72.994989390750163
 72
     1
 10
103.86851328213621
 20
72.994989390750163
 11
103.80872028557391
 21
72.947537666765498
 72
     1
 10
103.80872028557391
 20
72.947537666765498
 11
103.75329050966407
 21
72.895055207890181
 72
     1
 10
103.75329050966407
 20
72.895055207890181
 11
103.70264580847081
 21
72.837941437325981
 97
        0
 75
     0
 76
     1
 98
        1
 10
0.0
 20
0.0
  0
LINE
  5
534
100
AcDbEntity
  8
0
390
0
  6
Continuous
 62
    11
100
AcDbLine
 10
104.382028
 20
72.286521
 30
0.0
 11
125.204557
 21
55.385933
 31
0.0
  0
ENDBLK
  5
535
100
AcDbEntity
  8
0
390
0
100
AcDbBlockEnd
  0
BLOCK
  5
53B
100
AcDbEntity
  8
0
390
0
100
AcDbBlockBegin
  2
*D23
 70
     1
 10
0.0
 20
0.0
 30
0.0
  3
DI23
  1

  0
MTEXT
  5
53C
100
AcDbEntity
  8
0
390
0
 62
     7
100
AcDbMText
 10
60.887564
 20
124.66951
 30
0.0
 40
3.5
 41
25.104545
 71
     7
 72
     1
  1
\A1;AG
210
0.0
220
0.0
230
0.9999999999999999
 11
0.0
 21
1.0
 31
0.0
 73
     1
 44
1.0
  0
LINE
  5
53D
100
AcDbEntity
  8
0
390
0
  6
Continuous
 62
     7
100
AcDbLine
 10
62.621655
 20
130.651328
 30
0.0
 11
62.621655
 21
111.217237
 31
0.0
  0
LINE
  5
53E
100
AcDbEntity
  8
0
390
0
  6
Continuous
 62
     7
100
AcDbLine
 10
86.14957
 20
119.467237
 30
0.0
 11
61.571655
 21
119.467237
 31
0.0
  0
LINE
  5
53F
100
AcDbEntity
  8
0
390
0
  6
Continuous
 62
     7
100
AcDbLine
 10
97.14957
 20
116.467237
 30
0.0
 11
61.571655
 21
116.467237
 31
0.0
  0
POLYLINE
  5
540
100
AcDbEntity
  8
0
390
0
  6
Continuous
 62
     7
100
AcDb2dPolyline
 66
     1
 10
0.0
 20
0.0
 30
0.0
 40
0.1
 41
0.1
  0
VERTEX
  5
541
100
AcDbEntity
  8
0
390
0
 62
     7
100
AcDbVertex
100
AcDb2dVertex
 10
62.096655
 20
122.092237
 30
0.0
  0
VERTEX
  5
542
100
AcDbEntity
  8
0
390
0
 62
     7
100
AcDbVertex
100
AcDb2dVertex
 10
62.621655
 20
119.467237
 30
0.0
  0
VERTEX
  5
543
100
AcDbEntity
  8
0
390
0
 62
     7
100
AcDbVertex
100
AcDb2dVertex
 10
63.146655
 20
122.092237
 30
0.0
  0
SEQEND
  5
544
100
AcDbEntity
  8
0
390
0
  0
POLYLINE
  5
545
100
AcDbEntity
  8
0
390
0
  6
Continuous
 62
     7
100
AcDb2dPolyline
 66
     1
 10
0.0
 20
0.0
 30
0.0
 40
0.1
 41
0.1
  0
VERTEX
  5
546
100
AcDbEntity
  8
0
390
0
 62
     7
100
AcDbVertex
100
AcDb2dVertex
 10
63.146655
 20
113.842237
 30
0.0
  0
VERTEX
  5
547
100
AcDbEntity
  8
0
390
0
 62
     7
100
AcDbVertex
100
AcDb2dVertex
 10
62.621655
 20
116.467237
 30
0.0
  0
VERTEX
  5
548
100
AcDbEntity
  8
0
390
0
 62
     7
100
AcDbVertex
100
AcDb2dVertex
 10
62.096655
 20
113.842237
 30
0.0
  0
SEQEND
  5
549
100
AcDbEntity
  8
0
390
0
  0
ENDBLK
  5
54A
100
AcDbEntity
  8
0
390
0
100
AcDbBlockEnd
  0
BLOCK
  5
54C
100
AcDbEntity
  8
0
390
0
100
AcDbBlockBegin
  2
AID2165
 70
     0
 10
0.0
 20
0.0
 30
0.0
  3
DIMENS
  1

  0
MTEXT
  5
54D
100
AcDbEntity
  8
0
390
0
 62
     2
100
AcDbMText
 10
169.530683
 20
123.445502
 30
0.0
 40
3.5
 41
7.509091
 71
     7
 72
     1
  1
C
210
0.0
220
0.0
230
1.0
 11
0.707107
 21
-0.707107
 31
0.0
 73
     1
 44
1.0
  0
MTEXT
  5
54E
100
AcDbEntity
  8
0
390
0
 62
     2
100
AcDbMText
 10
172.376787
 20
120.599397
 30
0.0
 40
3.5
 41
12.981818
 71
     7
 72
     1
  1
0.5
210
0.0
220
0.0
230
1.0
 11
0.707107
 21
-0.707107
 31
0.0
 73
     1
 44
1.0
  0
LINE
  5
54F
100
AcDbEntity
  8
0
390
0
  6
Continuous
 62
    11
100
AcDbLine
 10
178.819726
 20
111.704083
 30
0.0
 11
167.843269
 21
122.680541
 31
0.0
  0
POLYLINE
  5
550
100
AcDbEntity
  8
0
390
0
  6
Continuous
 62
    11
100
AcDb2dPolyline
 66
     1
 10
0.0
 20
0.0
 30
0.0
 40
0.1
 41
0.1
  0
VERTEX
  5
551
100
AcDbEntity
  8
0
390
0
 62
    11
100
AcDbVertex
100
AcDb2dVertex
 10
177.334802
 20
113.931469
 30
0.0
  0
VERTEX
  5
552
100
AcDbEntity
  8
0
390
0
 62
    11
100
AcDbVertex
100
AcDb2dVertex
 10
178.819726
 20
111.704083
 30
0.0
  0
VERTEX
  5
553
100
AcDbEntity
  8
0
390
0
 62
    11
100
AcDbVertex
100
AcDb2dVertex
 10
176.59234
 20
113.189007
 30
0.0
  0
SEQEND
  5
554
100
AcDbEntity
  8
0
390
0
  0
ENDBLK
  5
555
100
AcDbEntity
  8
0
390
0
100
AcDbBlockEnd
  0
ENDSEC
  0
SECTION
  2
ENTITIES
  0
INSERT
  5
58
100
AcDbEntity
  8
0
390
0
100
AcDbBlockReference
  2
$DFT_DRAWING
 10
0.0
 20
0.0
 30
0.0
  0
INSERT
  5
80
100
AcDbEntity
  8
0
390
0
100
AcDbBlockReference
  2
AID85
 10
0.0
 20
0.0
 30
0.0
  0
MTEXT
  5
81
100
AcDbEntity
  8
0
390
0
 62
     7
100
AcDbMText
 10
175.482553
 20
53.69734
 30
0.0
 40
3.0
 41
19.363636
 71
     7
 72
     1
  1
製品名
210
0.0
220
0.0
230
1.0
 73
     1
 44
1.0
  0
MTEXT
  5
82
100
AcDbEntity
  8
0
390
0
 62
     7
100
AcDbMText
 10
231.476726
 20
53.69734
 30
0.0
 40
3.0
 41
27.136364
 71
     7
 72
     1
  1
製品番号
210
0.0
220
0.0
230
1.0
 73
     1
 44
1.0
  0
MTEXT
  5
83
100
AcDbEntity
  8
0
390
0
 62
     7
100
AcDbMText
 10
200.640747
 20
53.714705
 30
0.0
 40
3.0
 41
33.081818
 71
     7
 72
     1
  1
MP5555-12
210
0.0
220
0.0
230
1.0
 73
     1
 44
1.0
  0
MTEXT
  5
84
100
AcDbEntity
  8
0
390
0
 62
     7
100
AcDbMText
 10
175.77796
 20
37.364968
 30
0.0
 40
3.0
 41
22.527273
 71
     7
 72
     1
  1
材　　質
210
0.0
220
0.0
230
1.0
 73
     1
 44
1.0
  0
MTEXT
  5
85
100
AcDbEntity
  8
0
390
0
 62
     7
100
AcDbMText
 10
195.403274
 20
37.330878
 30
0.0
 40
3.0
 41
20.079652
 71
     7
 72
     1
  1
接着剤
210
0.0
220
0.0
230
1.0
 73
     1
 44
1.0
  0
MTEXT
  5
86
100
AcDbEntity
  8
0
390
0
 62
     7
100
AcDbMText
 10
212.709859
 20
37.367632
 30
0.0
 40
3.0
 41
27.190909
 71
     7
 72
     1
  1
表面処理
210
0.0
220
0.0
230
1.0
 73
     1
 44
1.0
  0
MTEXT
  5
87
100
AcDbEntity
  8
0
390
0
 62
     7
100
AcDbMText
 10
232.053114
 20
37.324059
 30
0.0
 40
3.0
 41
27.136364
 71
     7
 72
     1
  1
第三角法
210
0.0
220
0.0
230
1.0
 73
     1
 44
1.0
  0
MTEXT
  5
88
100
AcDbEntity
  8
0
390
0
 62
     7
100
AcDbMText
 10
231.562205
 20
23.669945
 30
0.0
 40
3.0
 41
29.1
 71
     7
 72
     1
  1
ファイル名
210
0.0
220
0.0
230
1.0
 73
     1
 44
1.0
  0
MTEXT
  5
89
100
AcDbEntity
  8
0
390
0
 62
     7
100
AcDbMText
 10
259.880415
 20
23.710854
 30
0.0
 40
3.0
 41
31.179545
 71
     7
 72
     1
  1
{\W0.85;MP17021-00}
210
0.0
220
0.0
230
1.0
 73
     1
 44
1.0
  0
MTEXT
  5
8A
100
AcDbEntity
  8
0
390
0
 62
     7
100
AcDbMText
 10
260.804896
 20
53.707887
 30
0.0
 40
3.0
 41
25.145455
 71
     7
 72
     1
  1
MP17021
210
0.0
220
0.0
230
1.0
 73
     1
 44
1.0
  0
MTEXT
  5
8B
100
AcDbEntity
  8
0
390
0
 62
     7
100
AcDbMText
 10
176.862051
 20
25.353979
 30
0.0
 40
3.0
 41
18.027273
 71
     7
 72
     1
  1
承　認
210
0.0
220
0.0
230
1.0
 73
     1
 44
1.0
  0
MTEXT
  5
8C
100
AcDbEntity
  8
0
390
0
 62
     7
100
AcDbMText
 10
195.964096
 20
25.31307
 30
0.0
 40
3.0
 41
17.836364
 71
     7
 72
     1
  1
照　査
210
0.0
220
0.0
230
1.0
 73
     1
 44
1.0
  0
MTEXT
  5
8D
100
AcDbEntity
  8
0
390
0
 62
     7
100
AcDbMText
 10
215.062131
 20
25.334646
 30
0.0
 40
3.0
 41
17.781818
 71
     7
 72
     1
  1
設　計
210
0.0
220
0.0
230
1.0
 73
     1
 44
1.0
  0
INSERT
  5
B8
100
AcDbEntity
  8
0
390
0
100
AcDbBlockReference
  2
AID185
 10
0.0
 20
0.0
 30
0.0
  0
MTEXT
  5
B9
100
AcDbEntity
  8
0
390
0
 62
     7
100
AcDbMText
 10
163.841418
 20
11.591591
 30
0.0
 40
3.0
 41
13.145455
 71
     7
 72
     1
  1
設計
210
0.0
220
0.0
230
1.0
 73
     1
 44
1.0
  0
MTEXT
  5
BA
100
AcDbEntity
  8
0
390
0
 62
     7
100
AcDbMText
 10
154.503675
 20
11.571136
 30
0.0
 40
3.0
 41
13.2
 71
     7
 72
     1
  1
照査
210
0.0
220
0.0
230
1.0
 73
     1
 44
1.0
  0
MTEXT
  5
BB
100
AcDbEntity
  8
0
390
0
 62
     7
100
AcDbMText
 10
145.14435
 20
11.612045
 30
0.0
 40
3.0
 41
13.390909
 71
     7
 72
     1
  1
承認
210
0.0
220
0.0
230
1.0
 73
     1
 44
1.0
  0
MTEXT
  5
BC
100
AcDbEntity
  8
0
390
0
 62
     7
100
AcDbMText
 10
88.203189
 20
11.775682
 30
0.0
 40
2.5
 41
18.054545
 71
     7
 72
     1
  1
{\W0.8;訂正箇所}
210
0.0
220
0.0
230
1.0
 73
     1
 44
1.0
  0
POINT
  5
BD
100
AcDbEntity
  8
0
390
0
 62
     7
100
AcDbPoint
 10
172.0
 20
10.0
 30
0.0
  0
INSERT
  5
C7
100
AcDbEntity
  8
0
390
0
100
AcDbBlockReference
  2
AID274
 10
0.0
 20
0.0
 30
0.0
  0
INSERT
  5
D1
100
AcDbEntity
  8
0
390
0
100
AcDbBlockReference
  2
AID279
 10
0.0
 20
0.0
 30
0.0
  0
INSERT
  5
DB
100
AcDbEntity
  8
0
390
0
100
AcDbBlockReference
  2
AID284
 10
0.0
 20
0.0
 30
0.0
  0
INSERT
  5
E5
100
AcDbEntity
  8
0
390
0
100
AcDbBlockReference
  2
AID289
 10
0.0
 20
0.0
 30
0.0
  0
INSERT
  5
EF
100
AcDbEntity
  8
0
390
0
100
AcDbBlockReference
  2
AID294
 10
0.0
 20
0.0
 30
0.0
  0
MTEXT
  5
F0
100
AcDbEntity
  8
0
390
0
 62
     7
100
AcDbMText
 10
211.864404
 20
20.121098
 30
0.0
 40
3.0
 41
30.681818
 71
     7
 72
     1
  1
2017/5/26
210
0.0
220
0.0
230
1.0
 73
     1
 44
1.0
  0
MTEXT
  5
F1
100
AcDbEntity
  8
0
390
0
 62
     7
100
AcDbMText
 10
192.766369
 20
20.118855
 30
0.0
 40
3.0
 41
30.681818
 71
     7
 72
     1
  1
2017/5/26
210
0.0
220
0.0
230
1.0
 73
     1
 44
1.0
  0
MTEXT
  5
F2
100
AcDbEntity
  8
0
390
0
 62
     7
100
AcDbMText
 10
214.984859
 20
12.418182
 30
0.0
 40
4.0
 41
17.454545
 71
     7
 72
     1
  1
千葉
210
0.0
220
0.0
230
1.0
 73
     1
 44
1.0
  0
MTEXT
  5
F3
100
AcDbEntity
  8
0
390
0
 62
     7
100
AcDbMText
 10
195.977732
 20
12.381818
 30
0.0
 40
4.0
 41
17.890909
 71
     7
 72
     1
  1
佐藤
210
0.0
220
0.0
230
1.0
 73
     1
 44
1.0
  0
MTEXT
  5
F4
100
AcDbEntity
  8
0
390
0
 62
     7
100
AcDbMText
 10
176.896141
 20
12.381818
 30
0.0
 40
4.0
 41
17.890909
 71
     7
 72
     1
  1
佐藤
210
0.0
220
0.0
230
1.0
 73
     1
 44
1.0
  0
MTEXT
  5
F5
100
AcDbEntity
  8
0
390
0
 62
     7
100
AcDbMText
 10
173.684778
 20
20.118855
 30
0.0
 40
3.0
 41
30.681818
 71
     7
 72
     1
  1
2017/5/26
210
0.0
220
0.0
230
1.0
 73
     1
 44
1.0
  0
MTEXT
  5
F6
100
AcDbEntity
  8
0
390
0
 62
     7
100
AcDbMText
 10
131.453637
 20
11.584773
 30
0.0
 40
3.0
 41
19.090909
 71
     7
 72
     1
  1
年月日
210
0.0
220
0.0
230
1.0
 73
     1
 44
1.0
  0
MTEXT
  5
F7
100
AcDbEntity
  8
0
390
0
 62
     7
100
AcDbMText
 10
106.313369
 20
11.584773
 30
0.0
 40
3.0
 41
27.054545
 71
     7
 72
     1
  1
変更内容
210
0.0
220
0.0
230
1.0
 73
     1
 44
1.0
  0
MTEXT
  5
F8
100
AcDbEntity
  8
0
390
0
 62
     7
100
AcDbMText
 10
271.655257
 20
37.344514
 30
0.0
 40
3.0
 41
22.663636
 71
     7
 72
     1
  1
個　　数
210
0.0
220
0.0
230
1.0
 73
     1
 44
1.0
  0
MTEXT
  5
F9
100
AcDbEntity
  8
0
390
0
 62
     7
100
AcDbMText
 10
276.471166
 20
30.865636
 30
0.0
 40
4.0
 41
1.927273
 71
     7
 72
     1
  1
1
210
0.0
220
0.0
230
1.0
 73
     1
 44
1.0
  0
MTEXT
  5
FA
100
AcDbEntity
  8
0
390
0
 62
     7
100
AcDbMText
 10
252.559648
 20
37.344514
 30
0.0
 40
3.0
 41
22.472727
 71
     7
 72
     1
  1
尺　　度
210
0.0
220
0.0
230
1.0
 73
     1
 44
1.0
  0
MTEXT
  5
FB
100
AcDbEntity
  8
0
390
0
 62
     7
100
AcDbMText
 10
255.718739
 20
30.874727
 30
0.0
 40
4.0
 41
8.472727
 71
     7
 72
     1
  1
1:1
210
0.0
220
0.0
230
1.0
 73
     1
 44
1.0
  0
INSERT
  5
10A
100
AcDbEntity
  8
0
390
0
100
AcDbBlockReference
  2
AID323
 10
0.0
 20
0.0
 30
0.0
  0
POINT
  5
10B
100
AcDbEntity
  8
0
390
0
 62
     7
100
AcDbPoint
 10
287.0
 20
28.480012
 30
0.0
  0
LINE
  5
10C
100
AcDbEntity
  8
0
390
0
  6
Continuous
 62
     7
100
AcDbLine
 10
287.0
 20
10.0
 30
0.0
 11
287.0
 21
200.0
 31
0.0
  0
INSERT
  5
11F
100
AcDbEntity
  8
0
390
0
100
AcDbBlockReference
  2
AID339
 10
0.0
 20
0.0
 30
0.0
  0
MTEXT
  5
120
100
AcDbEntity
  8
0
390
0
 62
     7
100
AcDbMText
 10
17.263636
 20
41.168764
 30
0.0
 40
2.0
 41
48.4
 71
     7
 72
     1
  1
指示なき長さ寸法公差は
210
0.0
220
0.0
230
1.0
 73
     1
 44
1.0
  0
MTEXT
  5
121
100
AcDbEntity
  8
0
390
0
 62
     7
100
AcDbMText
 10
14.336364
 20
34.386534
 30
0.0
 40
2.0
 41
21.327273
 71
     7
 72
     1
  1
0.5～3以下
210
0.0
220
0.0
230
1.0
 73
     1
 44
1.0
  0
MTEXT
  5
122
100
AcDbEntity
  8
0
390
0
 62
     7
100
AcDbMText
 10
36.75
 20
34.341079
 30
0.0
 40
2.0
 41
8.763636
 71
     7
 72
     1
  1
%%p0.1
210
0.0
220
0.0
230
1.0
 73
     1
 44
1.0
  0
MTEXT
  5
123
100
AcDbEntity
  8
0
390
0
 62
     7
100
AcDbMText
 10
15.136364
 20
30.516577
 30
0.0
 40
2.0
 41
17.981818
 71
     7
 72
     1
  1
3～6以下
210
0.0
220
0.0
230
1.0
 73
     1
 44
1.0
  0
MTEXT
  5
124
100
AcDbEntity
  8
0
390
0
 62
     7
100
AcDbMText
 10
36.75
 20
30.471123
 30
0.0
 40
2.0
 41
8.763636
 71
     7
 72
     1
  1
%%p0.1
210
0.0
220
0.0
230
1.0
 73
     1
 44
1.0
  0
MTEXT
  5
125
100
AcDbEntity
  8
0
390
0
 62
     7
100
AcDbMText
 10
14.55
 20
26.646621
 30
0.0
 40
2.0
 41
20.290909
 71
     7
 72
     1
  1
6～30以下
210
0.0
220
0.0
230
1.0
 73
     1
 44
1.0
  0
MTEXT
  5
126
100
AcDbEntity
  8
0
390
0
 62
     7
100
AcDbMText
 10
36.590909
 20
26.601167
 30
0.0
 40
2.0
 41
9.4
 71
     7
 72
     1
  1
%%p0.2
210
0.0
220
0.0
230
1.0
 73
     1
 44
1.0
  0
MTEXT
  5
127
100
AcDbEntity
  8
0
390
0
 62
     7
100
AcDbMText
 10
13.390909
 20
22.776665
 30
0.0
 40
2.0
 41
24.963636
 71
     7
 72
     1
  1
30～120以下
210
0.0
220
0.0
230
1.0
 73
     1
 44
1.0
  0
MTEXT
  5
128
100
AcDbEntity
  8
0
390
0
 62
     7
100
AcDbMText
 10
36.590909
 20
22.735756
 30
0.0
 40
2.0
 41
9.4
 71
     7
 72
     1
  1
%%p0.3
210
0.0
220
0.0
230
1.0
 73
     1
 44
1.0
  0
MTEXT
  5
129
100
AcDbEntity
  8
0
390
0
 62
     7
100
AcDbMText
 10
12.745455
 20
18.906709
 30
0.0
 40
2.0
 41
27.036364
 71
     7
 72
     1
  1
120～400以下
210
0.0
220
0.0
230
1.0
 73
     1
 44
1.0
  0
MTEXT
  5
12A
100
AcDbEntity
  8
0
390
0
 62
     7
100
AcDbMText
 10
36.590909
 20
18.8658
 30
0.0
 40
2.0
 41
9.4
 71
     7
 72
     1
  1
%%p0.5
210
0.0
220
0.0
230
1.0
 73
     1
 44
1.0
  0
MTEXT
  5
12B
100
AcDbEntity
  8
0
390
0
 62
     7
100
AcDbMText
 10
12.245455
 20
15.036752
 30
0.0
 40
2.0
 41
29.690909
 71
     7
 72
     1
  1
400～1000以下
210
0.0
220
0.0
230
1.0
 73
     1
 44
1.0
  0
MTEXT
  5
12C
100
AcDbEntity
  8
0
390
0
 62
     7
100
AcDbMText
 10
36.586364
 20
14.995843
 30
0.0
 40
2.0
 41
9.418182
 71
     7
 72
     1
  1
%%p0.8
210
0.0
220
0.0
230
1.0
 73
     1
 44
1.0
  0
MTEXT
  5
12D
100
AcDbEntity
  8
0
390
0
 62
     7
100
AcDbMText
 10
11.581818
 20
11.166796
 30
0.0
 40
2.0
 41
31.690909
 71
     7
 72
     1
  1
1000～2000以下
210
0.0
220
0.0
230
1.0
 73
     1
 44
1.0
  0
MTEXT
  5
12E
100
AcDbEntity
  8
0
390
0
 62
     7
100
AcDbMText
 10
36.590909
 20
11.116796
 30
0.0
 40
2.0
 41
9.4
 71
     7
 72
     1
  1
%%p1.2
210
0.0
220
0.0
230
1.0
 73
     1
 44
1.0
  0
MTEXT
  5
12F
100
AcDbEntity
  8
0
390
0
 62
     7
100
AcDbMText
 10
53.663636
 20
41.144545
 30
0.0
 40
2.0
 41
58.8
 71
     7
 72
     1
  1
指示なき角度寸法は下記一般
210
0.0
220
0.0
230
1.0
 73
     1
 44
1.0
  0
MTEXT
  5
130
100
AcDbEntity
  8
0
390
0
 62
     7
100
AcDbMText
 10
55.236364
 20
34.386534
 30
0.0
 40
2.0
 41
13.072727
 71
     7
 72
     1
  1
10以下
210
0.0
220
0.0
230
1.0
 73
     1
 44
1.0
  0
MTEXT
  5
131
100
AcDbEntity
  8
0
390
0
 62
     7
100
AcDbMText
 10
76.0
 20
34.209261
 30
0.0
 40
2.0
 41
7.763636
 71
     7
 72
     1
  1
%%p1%%d
210
0.0
220
0.0
230
1.0
 73
     1
 44
1.0
  0
MTEXT
  5
132
100
AcDbEntity
  8
0
390
0
 62
     7
100
AcDbMText
 10
51.745455
 20
30.44385
 30
0.0
 40
2.0
 41
27.036364
 71
     7
 72
     1
  1
10超～50以下
210
0.0
220
0.0
230
1.0
 73
     1
 44
1.0
  0
MTEXT
  5
133
100
AcDbEntity
  8
0
390
0
 62
     7
100
AcDbMText
 10
75.422727
 20
30.352941
 30
0.0
 40
2.0
 41
10.072727
 71
     7
 72
     1
  1
%%p30′
210
0.0
220
0.0
230
1.0
 73
     1
 44
1.0
  0
MTEXT
  5
134
100
AcDbEntity
  8
0
390
0
 62
     7
100
AcDbMText
 10
51.227273
 20
26.573894
 30
0.0
 40
2.0
 41
29.618182
 71
     7
 72
     1
  1
50超～120以下
210
0.0
220
0.0
230
1.0
 73
     1
 44
1.0
  0
MTEXT
  5
135
100
AcDbEntity
  8
0
390
0
 62
     7
100
AcDbMText
 10
75.422727
 20
26.478439
 30
0.0
 40
2.0
 41
10.072727
 71
     7
 72
     1
  1
%%p20′
210
0.0
220
0.0
230
1.0
 73
     1
 44
1.0
  0
MTEXT
  5
136
100
AcDbEntity
  8
0
390
0
 62
     7
100
AcDbMText
 10
50.581818
 20
22.703938
 30
0.0
 40
2.0
 41
31.690909
 71
     7
 72
     1
  1
120超～400以下
210
0.0
220
0.0
230
1.0
 73
     1
 44
1.0
  0
MTEXT
  5
137
100
AcDbEntity
  8
0
390
0
 62
     7
100
AcDbMText
 10
75.422727
 20
22.608483
 30
0.0
 40
2.0
 41
10.072727
 71
     7
 72
     1
  1
%%p10′
210
0.0
220
0.0
230
1.0
 73
     1
 44
1.0
  0
MTEXT
  5
138
100
AcDbEntity
  8
0
390
0
 62
     7
100
AcDbMText
 10
55.854545
 20
18.833981
 30
0.0
 40
2.0
 41
11.254545
 71
     7
 72
     1
  1
400超
210
0.0
220
0.0
230
1.0
 73
     1
 44
1.0
  0
MTEXT
  5
139
100
AcDbEntity
  8
0
390
0
 62
     7
100
AcDbMText
 10
76.004545
 20
18.743072
 30
0.0
 40
2.0
 41
7.745455
 71
     7
 72
     1
  1
%%p5′
210
0.0
220
0.0
230
1.0
 73
     1
 44
1.0
  0
MTEXT
  5
13A
100
AcDbEntity
  8
0
390
0
 62
     7
100
AcDbMText
 10
19.418182
 20
38.630756
 30
0.0
 40
2.0
 41
39.636364
 71
     7
 72
     1
  1
下記一般公差による
210
0.0
220
0.0
230
1.0
 73
     1
 44
1.0
  0
MTEXT
  5
13B
100
AcDbEntity
  8
0
390
0
 62
     7
100
AcDbMText
 10
51.854545
 20
38.630756
 30
0.0
 40
2.0
 41
66.072727
 71
     7
 72
     1
  1
公差による（対象角度の短片長さ）
210
0.0
220
0.0
230
1.0
 73
     1
 44
1.0
  0
POINT
  5
13C
100
AcDbEntity
  8
0
390
0
 62
     7
100
AcDbPoint
 10
88.0
 20
10.0
 30
0.0
  0
POINT
  5
13D
100
AcDbEntity
  8
0
390
0
 62
     7
100
AcDbPoint
 10
49.0
 20
13.869956
 30
0.0
  0
POINT
  5
13E
100
AcDbEntity
  8
0
390
0
 62
     7
100
AcDbPoint
 10
68.5
 20
17.739912
 30
0.0
  0
LINE
  5
13F
100
AcDbEntity
  8
0
390
0
  6
Continuous
 62
     7
100
AcDbLine
 10
49.0
 20
13.869956
 30
0.0
 11
68.5
 21
17.739912
 31
0.0
  0
POINT
  5
140
100
AcDbEntity
  8
0
390
0
 62
     7
100
AcDbPoint
 10
68.5
 20
13.869956
 30
0.0
  0
POINT
  5
141
100
AcDbEntity
  8
0
390
0
 62
     7
100
AcDbPoint
 10
88.0
 20
17.739912
 30
0.0
  0
LINE
  5
142
100
AcDbEntity
  8
0
390
0
  6
Continuous
 62
     7
100
AcDbLine
 10
68.5
 20
13.869956
 30
0.0
 11
88.0
 21
17.739912
 31
0.0
  0
POINT
  5
143
100
AcDbEntity
  8
0
390
0
 62
     7
100
AcDbPoint
 10
49.0
 20
10.0
 30
0.0
  0
LINE
  5
144
100
AcDbEntity
  8
0
390
0
  6
Continuous
 62
     7
100
AcDbLine
 10
49.0
 20
10.0
 30
0.0
 11
68.5
 21
13.869956
 31
0.0
  0
POINT
  5
145
100
AcDbEntity
  8
0
390
0
 62
     7
100
AcDbPoint
 10
68.5
 20
10.0
 30
0.0
  0
POINT
  5
146
100
AcDbEntity
  8
0
390
0
 62
     7
100
AcDbPoint
 10
88.0
 20
13.869956
 30
0.0
  0
LINE
  5
147
100
AcDbEntity
  8
0
390
0
  6
Continuous
 62
     7
100
AcDbLine
 10
68.5
 20
10.0
 30
0.0
 11
88.0
 21
13.869956
 31
0.0
  0
POINT
  5
148
100
AcDbEntity
  8
0
390
0
 62
     7
100
AcDbPoint
 10
191.06501
 20
36.542169
 30
0.0
  0
POINT
  5
149
100
AcDbEntity
  8
0
390
0
 62
     7
100
AcDbPoint
 10
210.163182
 20
28.480012
 30
0.0
  0
POINT
  5
14A
100
AcDbEntity
  8
0
390
0
 62
     7
100
AcDbPoint
 10
172.0
 20
36.542169
 30
0.0
  0
POINT
  5
14B
100
AcDbEntity
  8
0
390
0
 62
     7
100
AcDbPoint
 10
191.06501
 20
28.480012
 30
0.0
  0
LINE
  5
14C
100
AcDbEntity
  8
0
390
0
  6
Continuous
 62
     7
100
AcDbLine
 10
172.0
 20
36.542169
 30
0.0
 11
191.06501
 21
28.480012
 31
0.0
  0
POINT
  5
14D
100
AcDbEntity
  8
0
390
0
 62
     7
100
AcDbPoint
 10
210.163182
 20
36.542169
 30
0.0
  0
POINT
  5
14E
100
AcDbEntity
  8
0
390
0
 62
     7
100
AcDbPoint
 10
229.261081
 20
28.480012
 30
0.0
  0
LINE
  5
14F
100
AcDbEntity
  8
0
390
0
  6
Continuous
 62
     7
100
AcDbLine
 10
210.163182
 20
36.542169
 30
0.0
 11
229.261081
 21
28.480012
 31
0.0
  0
MTEXT
  5
150
100
AcDbEntity
  8
0
390
0
 62
     7
100
AcDbMText
 10
173.730402
 20
47.822089
 30
0.0
 40
3.0
 41
26.318182
 71
     7
 72
     1
  1
半製品名
210
0.0
220
0.0
230
1.0
 73
     1
 44
1.0
  0
MTEXT
  5
151
100
AcDbEntity
  8
0
390
0
 62
     7
100
AcDbMText
 10
175.489493
 20
42.19136
 30
0.0
 40
3.0
 41
19.390909
 71
     7
 72
     1
  1
部品名
210
0.0
220
0.0
230
1.0
 73
     1
 44
1.0
  0
MTEXT
  5
152
100
AcDbEntity
  8
0
390
0
 62
     7
100
AcDbMText
 10
229.725328
 20
47.822089
 30
0.0
 40
3.0
 41
34.090909
 71
     7
 72
     1
  1
半製品番号
210
0.0
220
0.0
230
1.0
 73
     1
 44
1.0
  0
MTEXT
  5
153
100
AcDbEntity
  8
0
390
0
 62
     7
100
AcDbMText
 10
231.484419
 20
42.198178
 30
0.0
 40
3.0
 41
27.163636
 71
     7
 72
     1
  1
部品番号
210
0.0
220
0.0
230
1.0
 73
     1
 44
1.0
  0
POINT
  5
154
100
AcDbEntity
  8
0
390
0
 62
     7
100
AcDbPoint
 10
189.056259
 20
51.856682
 30
0.0
  0
POINT
  5
155
100
AcDbEntity
  8
0
390
0
 62
     7
100
AcDbPoint
 10
229.258465
 20
46.249498
 30
0.0
  0
LINE
  5
156
100
AcDbEntity
  8
0
390
0
  6
Continuous
 62
     7
100
AcDbLine
 10
189.056259
 20
51.856682
 30
0.0
 11
229.258465
 21
46.249498
 31
0.0
  0
POINT
  5
157
100
AcDbEntity
  8
0
390
0
 62
     7
100
AcDbPoint
 10
229.261081
 20
40.642313
 30
0.0
  0
POINT
  5
158
100
AcDbEntity
  8
0
390
0
 62
     7
100
AcDbPoint
 10
189.056259
 20
46.249498
 30
0.0
  0
LINE
  5
159
100
AcDbEntity
  8
0
390
0
  6
Continuous
 62
     7
100
AcDbLine
 10
229.261081
 20
40.642313
 30
0.0
 11
189.056259
 21
46.249498
 31
0.0
  0
POINT
  5
15A
100
AcDbEntity
  8
0
390
0
 62
     7
100
AcDbPoint
 10
247.674009
 20
51.856682
 30
0.0
  0
POINT
  5
15B
100
AcDbEntity
  8
0
390
0
 62
     7
100
AcDbPoint
 10
287.0
 20
46.249498
 30
0.0
  0
LINE
  5
15C
100
AcDbEntity
  8
0
390
0
  6
Continuous
 62
     7
100
AcDbLine
 10
247.674009
 20
51.856682
 30
0.0
 11
287.0
 21
46.249498
 31
0.0
  0
POINT
  5
15D
100
AcDbEntity
  8
0
390
0
 62
     7
100
AcDbPoint
 10
287.0
 20
40.642313
 30
0.0
  0
POINT
  5
15E
100
AcDbEntity
  8
0
390
0
 62
     7
100
AcDbPoint
 10
247.674009
 20
46.249498
 30
0.0
  0
LINE
  5
15F
100
AcDbEntity
  8
0
390
0
  6
Continuous
 62
     7
100
AcDbLine
 10
287.0
 20
40.642313
 30
0.0
 11
247.674009
 21
46.249498
 31
0.0
  0
LINE
  5
160
100
AcDbEntity
  8
0
390
0
  6
Continuous
 62
     7
100
AcDbLine
 10
191.06501
 20
36.542169
 30
0.0
 11
210.163182
 21
28.480012
 31
0.0
  0
MTEXT
  5
162
100
AcDbEntity
  8
0
390
0
 62
     7
100
AcDbMText
 10
247.437577
 20
14.514029
 30
0.0
 40
2.8
 41
24.133455
 71
     7
 72
     1
  1
{\W0.95;株式会社}
  7
TopStyle2
210
0.0
220
0.0
230
1.0
 73
     1
 44
1.0
  0
MTEXT
  5
163
100
AcDbEntity
  8
0
390
0
 62
     7
100
AcDbMText
 10
260.102025
 20
13.946757
 30
0.0
 40
3.8
 41
49.106768
 71
     7
 72
     1
  1
{\W0.95;プロスパイン}
  7
TopStyle2
210
0.0
220
0.0
230
1.0
 73
     1
 44
1.0
  0
INSERT
  5
2CC
100
AcDbEntity
  8
0
390
0
100
AcDbBlockReference
  2
AID504
 10
0.0
 20
0.0
 30
0.0
  0
LINE
  5
2CE
100
AcDbEntity
  8
0
390
0
  6
DOT
 62
     2
100
AcDbLine
 10
122.699575
 20
167.787508
 30
0.0
 11
114.699565
 21
167.787508
 31
0.0
  0
LINE
  5
2CF
100
AcDbEntity
  8
0
390
0
  6
DOT
 62
     2
100
AcDbLine
 10
115.32457
 20
167.787508
 30
0.0
 11
114.699565
 21
167.787508
 31
0.0
  0
LINE
  5
2D0
100
AcDbEntity
  8
0
390
0
  6
DOT
 62
     2
100
AcDbLine
 10
122.699575
 20
167.787508
 30
0.0
 11
122.07457
 21
167.787508
 31
0.0
  0
ARC
  5
2D1
100
AcDbEntity
  8
0
390
0
  6
DOT
 62
     2
100
AcDbCircle
 10
118.69957
 20
146.967237
 30
0.0
 40
3.375
210
0.0
220
0.0
230
1.0
100
AcDbArc
 50
180.0
 51
185.021078
  0
LINE
  5
2D2
100
AcDbEntity
  8
0
390
0
  6
DOT
 62
     2
100
AcDbLine
 10
77.3793
 20
92.967242
 30
0.0
 11
77.3793
 21
84.967232
 31
0.0
  0
LINE
  5
2D3
100
AcDbEntity
  8
0
390
0
  6
DOT
 62
     2
100
AcDbLine
 10
122.699565
 20
159.467237
 30
0.0
 11
122.636528
 21
159.447208
 31
0.0
  0
ARC
  5
2D4
100
AcDbEntity
  8
0
390
0
  6
Continuous
 62
     2
100
AcDbCircle
 10
118.69957
 20
192.820856
 30
0.0
 40
23.102535
210
0.0
220
0.0
230
1.0
100
AcDbArc
 50
260.029509
 51
279.970491
  0
ARC
  5
2D5
100
AcDbEntity
  8
0
390
0
  6
DOT
 62
     2
100
AcDbCircle
 10
118.69957
 20
171.312712
 30
0.0
 40
12.502609
210
0.0
220
0.0
230
1.0
100
AcDbArc
 50
251.341137
 51
288.658863
  0
CIRCLE
  5
2D6
100
AcDbEntity
  8
0
390
0
  6
Continuous
 62
     2
100
AcDbCircle
 10
118.699719
 20
146.968193
 30
0.0
 40
3.999851
210
0.0
220
0.0
230
1.0
  0
LINE
  5
2D7
100
AcDbEntity
  8
0
390
0
  6
DOT
 62
     2
100
AcDbLine
 10
94.199575
 20
100.809958
 30
0.0
 11
94.958933
 21
101.039862
 31
0.0
  0
LINE
  5
2D8
100
AcDbEntity
  8
0
390
0
  6
DOT
 62
     2
100
AcDbLine
 10
101.441291
 20
101.039571
 30
0.0
 11
102.199565
 21
100.809958
 31
0.0
  0
LINE
  5
2D9
100
AcDbEntity
  8
0
390
0
  6
DOT
 62
     2
100
AcDbLine
 10
86.356849
 20
84.967242
 30
0.0
 11
86.311599
 21
85.103802
 31
0.0
  0
LINE
  5
2DA
100
AcDbEntity
  8
0
390
0
  6
DOT
 62
     2
100
AcDbLine
 10
86.31178
 20
92.83123
 30
0.0
 11
86.356849
 21
92.967232
 31
0.0
  0
LINE
  5
2DB
100
AcDbEntity
  8
0
390
0
  6
DOT
 62
     2
100
AcDbLine
 10
75.448526
 20
92.967232
 30
0.0
 11
75.384229
 21
92.582508
 31
0.0
  0
LINE
  5
2DC
100
AcDbEntity
  8
0
390
0
  6
DOT
 62
     2
100
AcDbLine
 10
75.384243
 20
85.351873
 30
0.0
 11
75.448526
 21
84.967242
 31
0.0
  0
LINE
  5
2DD
100
AcDbEntity
  8
0
390
0
  6
DOT
 62
     2
100
AcDbLine
 10
122.69957
 20
162.537508
 30
0.0
 11
118.69957
 21
162.537508
 31
0.0
  0
LINE
  5
2DE
100
AcDbEntity
  8
0
390
0
  6
DOT
 62
     2
100
AcDbLine
 10
122.69957
 20
167.787508
 30
0.0
 11
118.69957
 21
167.787508
 31
0.0
  0
LINE
  5
2DF
100
AcDbEntity
  8
0
390
0
  6
DOT
 62
     2
100
AcDbLine
 10
118.69957
 20
162.537508
 30
0.0
 11
114.69957
 21
162.537508
 31
0.0
  0
LINE
  5
2E0
100
AcDbEntity
  8
0
390
0
  6
DOT
 62
     2
100
AcDbLine
 10
118.69957
 20
167.787508
 30
0.0
 11
114.69957
 21
167.787508
 31
0.0
  0
LINE
  5
2E1
100
AcDbEntity
  8
0
390
0
  6
DOT
 62
     2
100
AcDbLine
 10
121.19957
 20
161.037508
 30
0.0
 11
118.69957
 21
161.037508
 31
0.0
  0
LINE
  5
2E2
100
AcDbEntity
  8
0
390
0
  6
DOT
 62
     2
100
AcDbLine
 10
118.69957
 20
161.037508
 30
0.0
 11
116.19957
 21
161.037508
 31
0.0
  0
POLYLINE
  5
2E3
100
AcDbEntity
  8
0
390
0
  6
DOT
 62
     2
100
AcDb2dPolyline
 66
     1
 10
0.0
 20
0.0
 30
0.0
 40
0.1
 41
0.1
  0
VERTEX
  5
2E4
100
AcDbEntity
  8
0
390
0
 62
     2
100
AcDbVertex
100
AcDb2dVertex
 10
117.54487
 20
168.632807
 30
0.0
 42
0.177045
  0
VERTEX
  5
2E5
100
AcDbEntity
  8
0
390
0
 62
     2
100
AcDbVertex
100
AcDb2dVertex
 10
116.754935
 20
168.765161
 30
0.0
  0
VERTEX
  5
2E6
100
AcDbEntity
  8
0
390
0
 62
     2
100
AcDbVertex
100
AcDb2dVertex
 10
116.571871
 20
168.712083
 30
0.0
  0
VERTEX
  5
2E7
100
AcDbEntity
  8
0
390
0
 62
     2
100
AcDbVertex
100
AcDb2dVertex
 10
116.390169
 20
168.632807
 30
0.0
  0
SEQEND
  5
2E8
100
AcDbEntity
  8
0
390
0
  0
ARC
  5
2E9
100
AcDbEntity
  8
0
390
0
  6
DOT
 62
     2
100
AcDbCircle
 10
118.69957
 20
164.397148
 30
0.0
 40
4.390233
210
0.0
220
0.0
230
1.0
100
AcDbArc
 50
74.750916
 51
105.249084
  0
POLYLINE
  5
2EA
100
AcDbEntity
  8
0
390
0
  6
DOT
 62
     2
100
AcDb2dPolyline
 66
     1
 10
0.0
 20
0.0
 30
0.0
 40
0.1
 41
0.1
  0
VERTEX
  5
2EB
100
AcDbEntity
  8
0
390
0
 62
     2
100
AcDbVertex
100
AcDb2dVertex
 10
121.008971
 20
168.632807
 30
0.0
 42
0.177045
  0
VERTEX
  5
2EC
100
AcDbEntity
  8
0
390
0
 62
     2
100
AcDbVertex
100
AcDb2dVertex
 10
120.219037
 20
168.765161
 30
0.0
  0
VERTEX
  5
2ED
100
AcDbEntity
  8
0
390
0
 62
     2
100
AcDbVertex
100
AcDb2dVertex
 10
120.035973
 20
168.712083
 30
0.0
  0
VERTEX
  5
2EE
100
AcDbEntity
  8
0
390
0
 62
     2
100
AcDbVertex
100
AcDb2dVertex
 10
119.854271
 20
168.632807
 30
0.0
  0
SEQEND
  5
2EF
100
AcDbEntity
  8
0
390
0
  0
LINE
  5
2F0
100
AcDbEntity
  8
0
390
0
  6
DOT
 62
     2
100
AcDbLine
 10
119.854271
 20
166.037508
 30
0.0
 11
121.008971
 21
166.037508
 31
0.0
  0
LINE
  5
2F1
100
AcDbEntity
  8
0
390
0
  6
DOT
 62
     2
100
AcDbLine
 10
119.854271
 20
168.632807
 30
0.0
 11
119.854271
 21
167.787508
 31
0.0
  0
LINE
  5
2F2
100
AcDbEntity
  8
0
390
0
  6
DOT
 62
     2
100
AcDbLine
 10
119.854271
 20
167.787508
 30
0.0
 11
119.854271
 21
166.037508
 31
0.0
  0
LINE
  5
2F3
100
AcDbEntity
  8
0
390
0
  6
DOT
 62
     2
100
AcDbLine
 10
117.54487
 20
166.037508
 30
0.0
 11
119.854271
 21
166.037508
 31
0.0
  0
LINE
  5
2F4
100
AcDbEntity
  8
0
390
0
  6
DOT
 62
     2
100
AcDbLine
 10
117.54487
 20
168.632807
 30
0.0
 11
117.54487
 21
167.787508
 31
0.0
  0
LINE
  5
2F5
100
AcDbEntity
  8
0
390
0
  6
DOT
 62
     2
100
AcDbLine
 10
117.54487
 20
167.787508
 30
0.0
 11
117.54487
 21
166.037508
 31
0.0
  0
LINE
  5
2F6
100
AcDbEntity
  8
0
390
0
  6
DOT
 62
     2
100
AcDbLine
 10
116.390169
 20
166.037508
 30
0.0
 11
117.54487
 21
166.037508
 31
0.0
  0
LINE
  5
2F7
100
AcDbEntity
  8
0
390
0
  6
DOT
 62
     2
100
AcDbLine
 10
121.008971
 20
168.632807
 30
0.0
 11
121.008971
 21
167.787508
 31
0.0
  0
LINE
  5
2F8
100
AcDbEntity
  8
0
390
0
  6
DOT
 62
     2
100
AcDbLine
 10
121.008971
 20
167.787508
 30
0.0
 11
121.008971
 21
166.037508
 31
0.0
  0
LINE
  5
2F9
100
AcDbEntity
  8
0
390
0
  6
DOT
 62
     2
100
AcDbLine
 10
116.390169
 20
168.632807
 30
0.0
 11
116.390169
 21
167.787508
 31
0.0
  0
LINE
  5
2FA
100
AcDbEntity
  8
0
390
0
  6
DOT
 62
     2
100
AcDbLine
 10
116.390169
 20
167.787508
 30
0.0
 11
116.390169
 21
166.037508
 31
0.0
  0
LINE
  5
2FB
100
AcDbEntity
  8
0
390
0
  6
Continuous
 62
     7
100
AcDbLine
 10
119.854271
 20
148.967237
 30
0.0
 11
121.008971
 21
146.967237
 31
0.0
  0
ARC
  5
2FC
100
AcDbEntity
  8
0
390
0
  6
DOT
 62
     2
100
AcDbCircle
 10
118.69957
 20
146.967237
 30
0.0
 40
4.0
210
0.0
220
0.0
230
1.0
100
AcDbArc
 50
355.872809
 51
360.0
  0
ARC
  5
2FD
100
AcDbEntity
  8
0
390
0
  6
DOT
 62
     2
100
AcDbCircle
 10
118.69957
 20
146.967237
 30
0.0
 40
4.0
210
0.0
220
0.0
230
1.0
100
AcDbArc
 50
270.0
 51
270.892044
  0
LINE
  5
2FE
100
AcDbEntity
  8
0
390
0
  6
Continuous
 62
     7
100
AcDbLine
 10
121.008971
 20
146.967237
 30
0.0
 11
119.854271
 21
144.967237
 31
0.0
  0
LINE
  5
2FF
100
AcDbEntity
  8
0
390
0
  6
Continuous
 62
     7
100
AcDbLine
 10
117.54487
 20
144.967237
 30
0.0
 11
116.390169
 21
146.967237
 31
0.0
  0
LINE
  5
300
100
AcDbEntity
  8
0
390
0
  6
Continuous
 62
     7
100
AcDbLine
 10
116.390169
 20
146.967237
 30
0.0
 11
117.54487
 21
148.967237
 31
0.0
  0
LINE
  5
301
100
AcDbEntity
  8
0
390
0
  6
Continuous
 62
     7
100
AcDbLine
 10
119.854271
 20
144.967237
 30
0.0
 11
117.54487
 21
144.967237
 31
0.0
  0
LINE
  5
302
100
AcDbEntity
  8
0
390
0
  6
Continuous
 62
     7
100
AcDbLine
 10
117.54487
 20
148.967237
 30
0.0
 11
119.854271
 21
148.967237
 31
0.0
  0
CIRCLE
  5
303
100
AcDbEntity
  8
0
390
0
  6
DOT
 62
     2
100
AcDbCircle
 10
118.69957
 20
146.967237
 30
0.0
 40
2.5
210
0.0
220
0.0
230
1.0
  0
LINE
  5
304
100
AcDbEntity
  8
0
390
0
  6
Continuous
 62
     7
100
AcDbLine
 10
87.19957
 20
119.467237
 30
0.0
 11
87.19957
 21
146.967237
 31
0.0
  0
LINE
  5
305
100
AcDbEntity
  8
0
390
0
  6
Continuous
 62
     7
100
AcDbLine
 10
112.19957
 20
119.467237
 30
0.0
 11
112.19957
 21
146.967237
 31
0.0
  0
LINE
  5
306
100
AcDbEntity
  8
0
390
0
  6
Continuous
 62
     7
100
AcDbLine
 10
87.19957
 20
146.967237
 30
0.0
 11
87.19957
 21
174.467237
 31
0.0
  0
LINE
  5
307
100
AcDbEntity
  8
0
390
0
  6
Continuous
 62
     7
100
AcDbLine
 10
112.19957
 20
146.967237
 30
0.0
 11
112.19957
 21
174.467237
 31
0.0
  0
LINE
  5
308
100
AcDbEntity
  8
0
390
0
  6
Continuous
 62
     7
100
AcDbLine
 10
124.69957
 20
123.867237
 30
0.0
 11
124.69957
 21
146.967237
 31
0.0
  0
LINE
  5
309
100
AcDbEntity
  8
0
390
0
  6
Continuous
 62
     7
100
AcDbLine
 10
125.19957
 20
169.567237
 30
0.0
 11
125.19957
 21
146.967237
 31
0.0
  0
LINE
  5
30A
100
AcDbEntity
  8
0
390
0
  6
Continuous
 62
     7
100
AcDbLine
 10
124.69957
 20
146.967237
 30
0.0
 11
124.69957
 21
170.067237
 31
0.0
  0
LINE
  5
30B
100
AcDbEntity
  8
0
390
0
  6
Continuous
 62
     7
100
AcDbLine
 10
125.19957
 20
146.967237
 30
0.0
 11
125.19957
 21
124.367237
 31
0.0
  0
ARC
  5
30C
100
AcDbEntity
  8
0
390
0
  6
Continuous
 62
     7
100
AcDbCircle
 10
118.69957
 20
192.919366
 30
0.0
 40
23.100009
210
0.0
220
0.0
230
1.0
100
AcDbArc
 50
261.598795
 51
278.401205
  0
CIRCLE
  5
30D
100
AcDbEntity
  8
0
390
0
  6
Continuous
 62
     7
100
AcDbCircle
 10
118.699693
 20
146.967945
 30
0.0
 40
3.374878
210
0.0
220
0.0
230
1.0
  0
ARC
  5
30E
100
AcDbEntity
  8
0
390
0
  6
DOT
 62
     2
100
AcDbCircle
 10
118.69957
 20
171.503246
 30
0.0
 40
12.500245
210
0.0
220
0.0
230
1.0
100
AcDbArc
 50
254.336048
 51
285.663952
  0
LINE
  5
30F
100
AcDbEntity
  8
0
390
0
  6
DOT
 62
     2
100
AcDbLine
 10
100.69957
 20
103.037508
 30
0.0
 11
95.69957
 21
103.037508
 31
0.0
  0
LINE
  5
310
100
AcDbEntity
  8
0
390
0
  6
DOT
 62
     2
100
AcDbLine
 10
102.19957
 20
104.537508
 30
0.0
 11
94.19957
 21
104.537508
 31
0.0
  0
LINE
  5
311
100
AcDbEntity
  8
0
390
0
  6
DOT
 62
     2
100
AcDbLine
 10
102.19957
 20
109.787508
 30
0.0
 11
94.19957
 21
109.787508
 31
0.0
  0
LINE
  5
312
100
AcDbEntity
  8
0
390
0
  6
DOT
 62
     2
100
AcDbLine
 10
100.19957
 20
110.787508
 30
0.0
 11
100.19957
 21
110.632807
 31
0.0
  0
LINE
  5
313
100
AcDbEntity
  8
0
390
0
  6
DOT
 62
     2
100
AcDbLine
 10
96.19957
 20
110.632807
 30
0.0
 11
96.19957
 21
110.787508
 31
0.0
  0
ARC
  5
314
100
AcDbEntity
  8
0
390
0
  6
DOT
 62
     2
100
AcDbCircle
 10
97.19957
 20
107.471638
 30
0.0
 40
3.315568
210
0.0
220
0.0
230
1.0
100
AcDbArc
 50
72.445822
 51
107.554178
  0
ARC
  5
315
100
AcDbEntity
  8
0
390
0
  6
DOT
 62
     2
100
AcDbCircle
 10
99.19957
 20
107.471638
 30
0.0
 40
3.315568
210
0.0
220
0.0
230
1.0
100
AcDbArc
 50
72.445822
 51
107.554178
  0
LINE
  5
316
100
AcDbEntity
  8
0
390
0
  6
DOT
 62
     2
100
AcDbLine
 10
98.19957
 20
110.632807
 30
0.0
 11
98.19957
 21
109.787508
 31
0.0
  0
LINE
  5
317
100
AcDbEntity
  8
0
390
0
  6
DOT
 62
     2
100
AcDbLine
 10
98.19957
 20
109.787508
 30
0.0
 11
98.19957
 21
108.037508
 31
0.0
  0
LINE
  5
318
100
AcDbEntity
  8
0
390
0
  6
DOT
 62
     2
100
AcDbLine
 10
96.19957
 20
108.037508
 30
0.0
 11
98.19957
 21
108.037508
 31
0.0
  0
LINE
  5
319
100
AcDbEntity
  8
0
390
0
  6
DOT
 62
     2
100
AcDbLine
 10
98.19957
 20
108.037508
 30
0.0
 11
100.19957
 21
108.037508
 31
0.0
  0
LINE
  5
31A
100
AcDbEntity
  8
0
390
0
  6
DOT
 62
     2
100
AcDbLine
 10
100.19957
 20
110.632807
 30
0.0
 11
100.19957
 21
109.787508
 31
0.0
  0
LINE
  5
31B
100
AcDbEntity
  8
0
390
0
  6
DOT
 62
     2
100
AcDbLine
 10
100.19957
 20
109.787508
 30
0.0
 11
100.19957
 21
108.037508
 31
0.0
  0
LINE
  5
31C
100
AcDbEntity
  8
0
390
0
  6
DOT
 62
     2
100
AcDbLine
 10
96.19957
 20
110.632807
 30
0.0
 11
96.19957
 21
109.787508
 31
0.0
  0
LINE
  5
31D
100
AcDbEntity
  8
0
390
0
  6
DOT
 62
     2
100
AcDbLine
 10
96.19957
 20
109.787508
 30
0.0
 11
96.19957
 21
108.037508
 31
0.0
  0
LINE
  5
31E
100
AcDbEntity
  8
0
390
0
  6
DOT
 62
     2
100
AcDbLine
 10
76.3793
 20
90.967237
 30
0.0
 11
76.534
 21
90.967237
 31
0.0
  0
LINE
  5
31F
100
AcDbEntity
  8
0
390
0
  6
DOT
 62
     2
100
AcDbLine
 10
76.534
 20
86.967237
 30
0.0
 11
76.3793
 21
86.967237
 31
0.0
  0
ARC
  5
320
100
AcDbEntity
  8
0
390
0
  6
DOT
 62
     2
100
AcDbCircle
 10
79.695169
 20
87.967237
 30
0.0
 40
3.315568
210
0.0
220
0.0
230
1.0
100
AcDbArc
 50
162.445822
 51
197.554178
  0
ARC
  5
321
100
AcDbEntity
  8
0
390
0
  6
DOT
 62
     2
100
AcDbCircle
 10
79.695169
 20
89.967237
 30
0.0
 40
3.315568
210
0.0
220
0.0
230
1.0
100
AcDbArc
 50
162.445822
 51
197.554178
  0
LINE
  5
322
100
AcDbEntity
  8
0
390
0
  6
DOT
 62
     2
100
AcDbLine
 10
77.3793
 20
92.967237
 30
0.0
 11
77.3793
 21
84.967237
 31
0.0
  0
LINE
  5
323
100
AcDbEntity
  8
0
390
0
  6
DOT
 62
     2
100
AcDbLine
 10
84.1293
 20
91.467237
 30
0.0
 11
84.1293
 21
86.467237
 31
0.0
  0
LINE
  5
324
100
AcDbEntity
  8
0
390
0
  6
DOT
 62
     2
100
AcDbLine
 10
82.6293
 20
92.967237
 30
0.0
 11
82.6293
 21
84.967237
 31
0.0
  0
LINE
  5
325
100
AcDbEntity
  8
0
390
0
  6
DOT
 62
     2
100
AcDbLine
 10
76.534
 20
88.967237
 30
0.0
 11
77.3793
 21
88.967237
 31
0.0
  0
LINE
  5
326
100
AcDbEntity
  8
0
390
0
  6
DOT
 62
     2
100
AcDbLine
 10
77.3793
 20
88.967237
 30
0.0
 11
79.1293
 21
88.967237
 31
0.0
  0
LINE
  5
327
100
AcDbEntity
  8
0
390
0
  6
DOT
 62
     2
100
AcDbLine
 10
79.1293
 20
86.967237
 30
0.0
 11
79.1293
 21
88.967237
 31
0.0
  0
LINE
  5
328
100
AcDbEntity
  8
0
390
0
  6
DOT
 62
     2
100
AcDbLine
 10
79.1293
 20
88.967237
 30
0.0
 11
79.1293
 21
90.967237
 31
0.0
  0
LINE
  5
329
100
AcDbEntity
  8
0
390
0
  6
DOT
 62
     2
100
AcDbLine
 10
76.534
 20
86.967237
 30
0.0
 11
77.3793
 21
86.967237
 31
0.0
  0
LINE
  5
32A
100
AcDbEntity
  8
0
390
0
  6
DOT
 62
     2
100
AcDbLine
 10
77.3793
 20
86.967237
 30
0.0
 11
79.1293
 21
86.967237
 31
0.0
  0
LINE
  5
32B
100
AcDbEntity
  8
0
390
0
  6
DOT
 62
     2
100
AcDbLine
 10
76.534
 20
90.967237
 30
0.0
 11
77.3793
 21
90.967237
 31
0.0
  0
LINE
  5
32C
100
AcDbEntity
  8
0
390
0
  6
DOT
 62
     2
100
AcDbLine
 10
77.3793
 20
90.967237
 30
0.0
 11
79.1293
 21
90.967237
 31
0.0
  0
ARC
  5
32D
100
AcDbEntity
  8
0
390
0
  6
DOT
 62
     2
100
AcDbCircle
 10
98.19957
 20
88.967237
 30
0.0
 40
23.0
210
0.0
220
0.0
230
1.0
100
AcDbArc
 50
169.984603
 51
180.0
  0
ARC
  5
32E
100
AcDbEntity
  8
0
390
0
  6
DOT
 62
     2
100
AcDbCircle
 10
98.19957
 20
88.967237
 30
0.0
 40
23.0
210
0.0
220
0.0
230
1.0
100
AcDbArc
 50
100.015397
 51
169.984603
  0
ARC
  5
32F
100
AcDbEntity
  8
0
390
0
  6
DOT
 62
     2
100
AcDbCircle
 10
98.19957
 20
88.967237
 30
0.0
 40
23.0
210
0.0
220
0.0
230
1.0
100
AcDbArc
 50
89.412917
 51
100.015397
  0
ARC
  5
330
100
AcDbEntity
  8
0
390
0
  6
DOT
 62
     2
100
AcDbCircle
 10
98.19957
 20
88.967237
 30
0.0
 40
23.0
210
0.0
220
0.0
230
1.0
100
AcDbArc
 50
80.072689
 51
89.412917
  0
ARC
  5
331
100
AcDbEntity
  8
0
390
0
  6
DOT
 62
     2
100
AcDbCircle
 10
98.19957
 20
88.967237
 30
0.0
 40
23.0
210
0.0
220
0.0
230
1.0
100
AcDbArc
 50
190.015397
 51
80.072689
  0
ARC
  5
332
100
AcDbEntity
  8
0
390
0
  6
DOT
 62
     2
100
AcDbCircle
 10
98.19957
 20
88.967237
 30
0.0
 40
23.0
210
0.0
220
0.0
230
1.0
100
AcDbArc
 50
180.0
 51
190.015397
  0
CIRCLE
  5
333
100
AcDbEntity
  8
0
390
0
  6
Continuous
 62
     7
100
AcDbCircle
 10
98.19957
 20
88.967237
 30
0.0
 40
27.5
210
0.0
220
0.0
230
1.0
  0
CIRCLE
  5
334
100
AcDbEntity
  8
0
390
0
  6
Continuous
 62
     7
100
AcDbCircle
 10
98.19957
 20
88.967237
 30
0.0
 40
12.5
210
0.0
220
0.0
230
1.0
  0
CIRCLE
  5
335
100
AcDbEntity
  8
0
390
0
  6
Continuous
 62
     7
100
AcDbCircle
 10
98.19957
 20
88.967237
 30
0.0
 40
13.0
210
0.0
220
0.0
230
1.0
  0
CIRCLE
  5
336
100
AcDbEntity
  8
0
390
0
  6
Continuous
 62
     7
100
AcDbCircle
 10
98.19957
 20
88.967237
 30
0.0
 40
22.6
210
0.0
220
0.0
230
1.0
  0
CIRCLE
  5
337
100
AcDbEntity
  8
0
390
0
  6
Continuous
 62
     7
100
AcDbCircle
 10
98.19957
 20
88.967237
 30
0.0
 40
23.1
210
0.0
220
0.0
230
1.0
  0
CIRCLE
  5
338
100
AcDbEntity
  8
0
390
0
  6
DOT
 62
     2
100
AcDbCircle
 10
98.19957
 20
88.967237
 30
0.0
 40
23.0
210
0.0
220
0.0
230
1.0
  0
LINE
  5
339
100
AcDbEntity
  8
0
390
0
  6
DOT
 62
     2
100
AcDbLine
 10
122.07457
 20
161.912508
 30
0.0
 11
122.07457
 21
167.787508
 31
0.0
  0
LINE
  5
33A
100
AcDbEntity
  8
0
390
0
  6
DOT
 62
     2
100
AcDbLine
 10
115.32457
 20
167.787508
 30
0.0
 11
115.32457
 21
161.912508
 31
0.0
  0
LINE
  5
33B
100
AcDbEntity
  8
0
390
0
  6
DOT
 62
     2
100
AcDbLine
 10
101.57457
 20
103.912508
 30
0.0
 11
101.57457
 21
109.787508
 31
0.0
  0
LINE
  5
33C
100
AcDbEntity
  8
0
390
0
  6
DOT
 62
     2
100
AcDbLine
 10
94.82457
 20
109.787508
 30
0.0
 11
94.82457
 21
103.912508
 31
0.0
  0
LINE
  5
33D
100
AcDbEntity
  8
0
390
0
  6
DOT
 62
     2
100
AcDbLine
 10
83.2543
 20
92.342237
 30
0.0
 11
77.3793
 21
92.342237
 31
0.0
  0
LINE
  5
33E
100
AcDbEntity
  8
0
390
0
  6
DOT
 62
     2
100
AcDbLine
 10
77.3793
 20
85.592237
 30
0.0
 11
83.2543
 21
85.592237
 31
0.0
  0
LINE
  5
33F
100
AcDbEntity
  8
0
390
0
  6
DOT
 62
     2
100
AcDbLine
 10
114.699575
 20
170.067237
 30
0.0
 11
114.699575
 21
167.787527
 31
0.0
  0
LINE
  5
340
100
AcDbEntity
  8
0
390
0
  6
DOT
 62
     2
100
AcDbLine
 10
114.699575
 20
167.78751
 30
0.0
 11
114.699575
 21
162.537503
 31
0.0
  0
LINE
  5
341
100
AcDbEntity
  8
0
390
0
  6
DOT
 62
     2
100
AcDbLine
 10
114.699575
 20
162.537488
 30
0.0
 11
114.699575
 21
159.467237
 31
0.0
  0
LINE
  5
342
100
AcDbEntity
  8
0
390
0
  6
DOT
 62
     2
100
AcDbLine
 10
122.699565
 20
159.466707
 30
0.0
 11
122.699565
 21
159.467237
 31
0.0
  0
LINE
  5
343
100
AcDbEntity
  8
0
390
0
  6
DOT
 62
     2
100
AcDbLine
 10
122.699565
 20
159.467237
 30
0.0
 11
122.699565
 21
162.537488
 31
0.0
  0
LINE
  5
344
100
AcDbEntity
  8
0
390
0
  6
DOT
 62
     2
100
AcDbLine
 10
122.699565
 20
162.537503
 30
0.0
 11
122.699565
 21
167.78751
 31
0.0
  0
LINE
  5
345
100
AcDbEntity
  8
0
390
0
  6
DOT
 62
     2
100
AcDbLine
 10
122.699565
 20
167.787527
 30
0.0
 11
122.699565
 21
170.067237
 31
0.0
  0
LINE
  5
346
100
AcDbEntity
  8
0
390
0
  6
DOT
 62
     2
100
AcDbLine
 10
94.199575
 20
111.718282
 30
0.0
 11
94.199575
 21
109.787527
 31
0.0
  0
LINE
  5
347
100
AcDbEntity
  8
0
390
0
  6
DOT
 62
     2
100
AcDbLine
 10
94.199575
 20
109.78751
 30
0.0
 11
94.199575
 21
104.537508
 31
0.0
  0
LINE
  5
348
100
AcDbEntity
  8
0
390
0
  6
DOT
 62
     2
100
AcDbLine
 10
94.199575
 20
104.537488
 30
0.0
 11
94.199575
 21
100.809958
 31
0.0
  0
LINE
  5
349
100
AcDbEntity
  8
0
390
0
  6
DOT
 62
     2
100
AcDbLine
 10
102.199565
 20
100.810532
 30
0.0
 11
102.199565
 21
104.537488
 31
0.0
  0
LINE
  5
34A
100
AcDbEntity
  8
0
390
0
  6
DOT
 62
     2
100
AcDbLine
 10
102.199565
 20
104.537508
 30
0.0
 11
102.199565
 21
109.78751
 31
0.0
  0
LINE
  5
34B
100
AcDbEntity
  8
0
390
0
  6
DOT
 62
     2
100
AcDbLine
 10
102.199565
 20
109.787527
 30
0.0
 11
102.199565
 21
111.718282
 31
0.0
  0
LINE
  5
34C
100
AcDbEntity
  8
0
390
0
  6
Continuous
 62
     2
100
AcDbLine
 10
102.199565
 20
111.718282
 30
0.0
 11
102.199565
 21
111.718599
 31
0.0
  0
LINE
  5
34D
100
AcDbEntity
  8
0
390
0
  6
DOT
 62
     2
100
AcDbLine
 10
75.448526
 20
84.967242
 30
0.0
 11
77.37928
 21
84.967242
 31
0.0
  0
LINE
  5
34E
100
AcDbEntity
  8
0
390
0
  6
DOT
 62
     2
100
AcDbLine
 10
77.379297
 20
84.967242
 30
0.0
 11
82.6293
 21
84.967242
 31
0.0
  0
LINE
  5
34F
100
AcDbEntity
  8
0
390
0
  6
DOT
 62
     2
100
AcDbLine
 10
82.629319
 20
84.967242
 30
0.0
 11
86.356663
 21
84.967242
 31
0.0
  0
LINE
  5
350
100
AcDbEntity
  8
0
390
0
  6
DOT
 62
     2
100
AcDbLine
 10
86.356849
 20
92.967232
 30
0.0
 11
82.629319
 21
92.967232
 31
0.0
  0
LINE
  5
351
100
AcDbEntity
  8
0
390
0
  6
DOT
 62
     2
100
AcDbLine
 10
82.6293
 20
92.967232
 30
0.0
 11
77.379297
 21
92.967232
 31
0.0
  0
LINE
  5
352
100
AcDbEntity
  8
0
390
0
  6
DOT
 62
     2
100
AcDbLine
 10
77.37928
 20
92.967232
 30
0.0
 11
75.448526
 21
92.967232
 31
0.0
  0
LINE
  5
353
100
AcDbEntity
  8
0
390
0
  6
DOT
 62
     2
100
AcDbLine
 10
122.69957
 20
162.537508
 30
0.0
 11
122.69957
 21
167.787508
 31
0.0
  0
LINE
  5
354
100
AcDbEntity
  8
0
390
0
  6
DOT
 62
     2
100
AcDbLine
 10
114.69957
 20
167.787508
 30
0.0
 11
114.69957
 21
162.537508
 31
0.0
  0
LINE
  5
355
100
AcDbEntity
  8
0
390
0
  6
DOT
 62
     2
100
AcDbLine
 10
114.69957
 20
162.537508
 30
0.0
 11
115.32457
 21
161.912508
 31
0.0
  0
LINE
  5
356
100
AcDbEntity
  8
0
390
0
  6
DOT
 62
     2
100
AcDbLine
 10
115.32457
 20
161.912508
 30
0.0
 11
116.19957
 21
161.037508
 31
0.0
  0
LINE
  5
357
100
AcDbEntity
  8
0
390
0
  6
DOT
 62
     2
100
AcDbLine
 10
121.19957
 20
161.037508
 30
0.0
 11
122.07457
 21
161.912508
 31
0.0
  0
LINE
  5
358
100
AcDbEntity
  8
0
390
0
  6
DOT
 62
     2
100
AcDbLine
 10
122.07457
 20
161.912508
 30
0.0
 11
122.69957
 21
162.537508
 31
0.0
  0
LINE
  5
359
100
AcDbEntity
  8
0
390
0
  6
DOT
 62
     2
100
AcDbLine
 10
122.69957
 20
167.787508
 30
0.0
 11
122.07457
 21
168.100008
 31
0.0
  0
LINE
  5
35A
100
AcDbEntity
  8
0
390
0
  6
DOT
 62
     2
100
AcDbLine
 10
122.07457
 20
168.100008
 30
0.0
 11
121.008971
 21
168.632807
 31
0.0
  0
LINE
  5
35B
100
AcDbEntity
  8
0
390
0
  6
DOT
 62
     2
100
AcDbLine
 10
116.390169
 20
168.632807
 30
0.0
 11
115.32457
 21
168.100008
 31
0.0
  0
LINE
  5
35C
100
AcDbEntity
  8
0
390
0
  6
DOT
 62
     2
100
AcDbLine
 10
115.32457
 20
168.100008
 30
0.0
 11
114.69957
 21
167.787508
 31
0.0
  0
LINE
  5
35D
100
AcDbEntity
  8
0
390
0
  6
DOT
 62
     2
100
AcDbLine
 10
121.19957
 20
161.037508
 30
0.0
 11
118.69957
 21
162.482595
 31
0.0
  0
LINE
  5
35E
100
AcDbEntity
  8
0
390
0
  6
DOT
 62
     2
100
AcDbLine
 10
118.69957
 20
162.482595
 30
0.0
 11
116.19957
 21
161.037508
 31
0.0
  0
LINE
  5
35F
100
AcDbEntity
  8
0
390
0
  6
Continuous
 62
     7
100
AcDbLine
 10
87.19957
 20
119.467237
 30
0.0
 11
112.19957
 21
119.467237
 31
0.0
  0
LINE
  5
360
100
AcDbEntity
  8
0
390
0
  6
Continuous
 62
     7
100
AcDbLine
 10
112.19957
 20
174.467237
 30
0.0
 11
87.19957
 21
174.467237
 31
0.0
  0
LINE
  5
361
100
AcDbEntity
  8
0
390
0
  6
DOT
 62
     2
100
AcDbLine
 10
87.19957
 20
123.967237
 30
0.0
 11
87.69957
 21
123.967237
 31
0.0
  0
LINE
  5
362
100
AcDbEntity
  8
0
390
0
  6
DOT
 62
     2
100
AcDbLine
 10
87.69957
 20
169.967237
 30
0.0
 11
87.19957
 21
169.967237
 31
0.0
  0
LINE
  5
363
100
AcDbEntity
  8
0
390
0
  6
Continuous
 62
     7
100
AcDbLine
 10
124.69957
 20
123.867237
 30
0.0
 11
125.19957
 21
124.367237
 31
0.0
  0
LINE
  5
364
100
AcDbEntity
  8
0
390
0
  6
Continuous
 62
     7
100
AcDbLine
 10
125.19957
 20
169.567237
 30
0.0
 11
124.69957
 21
170.067237
 31
0.0
  0
LINE
  5
365
100
AcDbEntity
  8
0
390
0
  6
Continuous
 62
     7
100
AcDbLine
 10
112.19957
 20
123.867237
 30
0.0
 11
124.69957
 21
123.867237
 31
0.0
  0
LINE
  5
366
100
AcDbEntity
  8
0
390
0
  6
Continuous
 62
     7
100
AcDbLine
 10
115.325049
 20
170.067237
 30
0.0
 11
115.32457
 21
170.067237
 31
0.0
  0
LINE
  5
367
100
AcDbEntity
  8
0
390
0
  6
Continuous
 62
     7
100
AcDbLine
 10
115.32457
 20
170.067237
 30
0.0
 11
114.699575
 21
170.067237
 31
0.0
  0
LINE
  5
368
100
AcDbEntity
  8
0
390
0
  6
Continuous
 62
     7
100
AcDbLine
 10
114.699575
 20
170.067237
 30
0.0
 11
112.19957
 21
170.067237
 31
0.0
  0
LINE
  5
369
100
AcDbEntity
  8
0
390
0
  6
Continuous
 62
     7
100
AcDbLine
 10
124.69957
 20
170.067237
 30
0.0
 11
122.699565
 21
170.067237
 31
0.0
  0
LINE
  5
36A
100
AcDbEntity
  8
0
390
0
  6
DOT
 62
     2
100
AcDbLine
 10
122.699565
 20
170.067237
 30
0.0
 11
122.698012
 21
170.067237
 31
0.0
  0
LINE
  5
36B
100
AcDbEntity
  8
0
390
0
  6
Continuous
 62
     7
100
AcDbLine
 10
122.697985
 20
170.067237
 30
0.0
 11
122.07457
 21
170.067237
 31
0.0
  0
LINE
  5
36C
100
AcDbEntity
  8
0
390
0
  6
DOT
 62
     2
100
AcDbLine
 10
112.19957
 20
169.967237
 30
0.0
 11
87.69957
 21
169.967237
 31
0.0
  0
LINE
  5
36D
100
AcDbEntity
  8
0
390
0
  6
DOT
 62
     2
100
AcDbLine
 10
87.69957
 20
123.967237
 30
0.0
 11
112.19957
 21
123.967237
 31
0.0
  0
LINE
  5
36E
100
AcDbEntity
  8
0
390
0
  6
DOT
 62
     2
100
AcDbLine
 10
125.19957
 20
159.967237
 30
0.0
 11
124.69957
 21
159.467237
 31
0.0
  0
LINE
  5
36F
100
AcDbEntity
  8
0
390
0
  6
DOT
 62
     2
100
AcDbLine
 10
124.69957
 20
134.467237
 30
0.0
 11
125.19957
 21
133.967237
 31
0.0
  0
LINE
  5
370
100
AcDbEntity
  8
0
390
0
  6
DOT
 62
     2
100
AcDbLine
 10
87.19957
 20
133.967237
 30
0.0
 11
87.69957
 21
134.467237
 31
0.0
  0
LINE
  5
371
100
AcDbEntity
  8
0
390
0
  6
DOT
 62
     2
100
AcDbLine
 10
87.69957
 20
159.467237
 30
0.0
 11
87.19957
 21
159.967237
 31
0.0
  0
LINE
  5
372
100
AcDbEntity
  8
0
390
0
  6
DOT
 62
     2
100
AcDbLine
 10
87.69957
 20
134.467237
 30
0.0
 11
124.69957
 21
134.467237
 31
0.0
  0
LINE
  5
373
100
AcDbEntity
  8
0
390
0
  6
DOT
 62
     2
100
AcDbLine
 10
115.324903
 20
159.467237
 30
0.0
 11
115.32457
 21
159.467237
 31
0.0
  0
LINE
  5
374
100
AcDbEntity
  8
0
390
0
  6
DOT
 62
     2
100
AcDbLine
 10
115.32457
 20
159.467237
 30
0.0
 11
114.699575
 21
159.467237
 31
0.0
  0
LINE
  5
375
100
AcDbEntity
  8
0
390
0
  6
DOT
 62
     2
100
AcDbLine
 10
114.699575
 20
159.467237
 30
0.0
 11
87.69957
 21
159.467237
 31
0.0
  0
LINE
  5
376
100
AcDbEntity
  8
0
390
0
  6
DOT
 62
     2
100
AcDbLine
 10
124.69957
 20
159.467237
 30
0.0
 11
122.699565
 21
159.467237
 31
0.0
  0
LINE
  5
377
100
AcDbEntity
  8
0
390
0
  6
DOT
 62
     2
100
AcDbLine
 10
122.699565
 20
159.467237
 30
0.0
 11
122.07457
 21
159.467237
 31
0.0
  0
LINE
  5
378
100
AcDbEntity
  8
0
390
0
  6
DOT
 62
     2
100
AcDbLine
 10
122.07457
 20
159.467237
 30
0.0
 11
122.073883
 21
159.467237
 31
0.0
  0
LINE
  5
379
100
AcDbEntity
  8
0
390
0
  6
DOT
 62
     2
100
AcDbLine
 10
115.32457
 20
170.067237
 30
0.0
 11
115.32457
 21
168.100008
 31
0.0
  0
LINE
  5
37A
100
AcDbEntity
  8
0
390
0
  6
DOT
 62
     2
100
AcDbLine
 10
115.32457
 20
168.100008
 30
0.0
 11
115.32457
 21
167.787528
 31
0.0
  0
LINE
  5
37B
100
AcDbEntity
  8
0
390
0
  6
DOT
 62
     2
100
AcDbLine
 10
115.32457
 20
161.912488
 30
0.0
 11
115.32457
 21
159.467237
 31
0.0
  0
LINE
  5
37C
100
AcDbEntity
  8
0
390
0
  6
DOT
 62
     2
100
AcDbLine
 10
122.07457
 20
159.467047
 30
0.0
 11
122.07457
 21
159.467237
 31
0.0
  0
LINE
  5
37D
100
AcDbEntity
  8
0
390
0
  6
DOT
 62
     2
100
AcDbLine
 10
122.07457
 20
159.467237
 30
0.0
 11
122.07457
 21
161.912488
 31
0.0
  0
LINE
  5
37E
100
AcDbEntity
  8
0
390
0
  6
DOT
 62
     2
100
AcDbLine
 10
122.07457
 20
167.787528
 30
0.0
 11
122.07457
 21
168.100008
 31
0.0
  0
LINE
  5
37F
100
AcDbEntity
  8
0
390
0
  6
DOT
 62
     2
100
AcDbLine
 10
122.07457
 20
168.100008
 30
0.0
 11
122.07457
 21
170.067237
 31
0.0
  0
LINE
  5
380
100
AcDbEntity
  8
0
390
0
  6
DOT
 62
     2
100
AcDbLine
 10
94.19957
 20
104.537508
 30
0.0
 11
94.82457
 21
103.912508
 31
0.0
  0
LINE
  5
381
100
AcDbEntity
  8
0
390
0
  6
DOT
 62
     2
100
AcDbLine
 10
94.82457
 20
103.912508
 30
0.0
 11
95.69957
 21
103.037508
 31
0.0
  0
LINE
  5
382
100
AcDbEntity
  8
0
390
0
  6
DOT
 62
     2
100
AcDbLine
 10
100.69957
 20
103.037508
 30
0.0
 11
101.57457
 21
103.912508
 31
0.0
  0
LINE
  5
383
100
AcDbEntity
  8
0
390
0
  6
DOT
 62
     2
100
AcDbLine
 10
101.57457
 20
103.912508
 30
0.0
 11
102.19957
 21
104.537508
 31
0.0
  0
LINE
  5
384
100
AcDbEntity
  8
0
390
0
  6
DOT
 62
     2
100
AcDbLine
 10
102.19957
 20
104.537508
 30
0.0
 11
102.19957
 21
109.787508
 31
0.0
  0
LINE
  5
385
100
AcDbEntity
  8
0
390
0
  6
DOT
 62
     2
100
AcDbLine
 10
94.19957
 20
109.787508
 30
0.0
 11
94.19957
 21
104.537508
 31
0.0
  0
LINE
  5
386
100
AcDbEntity
  8
0
390
0
  6
DOT
 62
     2
100
AcDbLine
 10
102.19957
 20
109.787508
 30
0.0
 11
101.57457
 21
110.100008
 31
0.0
  0
LINE
  5
387
100
AcDbEntity
  8
0
390
0
  6
DOT
 62
     2
100
AcDbLine
 10
101.57457
 20
110.100008
 30
0.0
 11
100.19957
 21
110.787508
 31
0.0
  0
LINE
  5
388
100
AcDbEntity
  8
0
390
0
  6
DOT
 62
     2
100
AcDbLine
 10
96.19957
 20
110.787508
 30
0.0
 11
94.82457
 21
110.100008
 31
0.0
  0
LINE
  5
389
100
AcDbEntity
  8
0
390
0
  6
DOT
 62
     2
100
AcDbLine
 10
94.82457
 20
110.100008
 30
0.0
 11
94.19957
 21
109.787508
 31
0.0
  0
LINE
  5
38A
100
AcDbEntity
  8
0
390
0
  6
DOT
 62
     2
100
AcDbLine
 10
100.69957
 20
103.037508
 30
0.0
 11
98.19957
 21
104.482595
 31
0.0
  0
LINE
  5
38B
100
AcDbEntity
  8
0
390
0
  6
DOT
 62
     2
100
AcDbLine
 10
98.19957
 20
104.482595
 30
0.0
 11
95.69957
 21
103.037508
 31
0.0
  0
LINE
  5
38C
100
AcDbEntity
  8
0
390
0
  6
DOT
 62
     2
100
AcDbLine
 10
77.3793
 20
92.967237
 30
0.0
 11
77.0668
 21
92.342237
 31
0.0
  0
LINE
  5
38D
100
AcDbEntity
  8
0
390
0
  6
DOT
 62
     2
100
AcDbLine
 10
77.0668
 20
92.342237
 30
0.0
 11
76.3793
 21
90.967237
 31
0.0
  0
LINE
  5
38E
100
AcDbEntity
  8
0
390
0
  6
DOT
 62
     2
100
AcDbLine
 10
76.3793
 20
86.967237
 30
0.0
 11
77.0668
 21
85.592237
 31
0.0
  0
LINE
  5
38F
100
AcDbEntity
  8
0
390
0
  6
DOT
 62
     2
100
AcDbLine
 10
77.0668
 20
85.592237
 30
0.0
 11
77.3793
 21
84.967237
 31
0.0
  0
LINE
  5
390
100
AcDbEntity
  8
0
390
0
  6
DOT
 62
     2
100
AcDbLine
 10
82.6293
 20
92.967237
 30
0.0
 11
77.3793
 21
92.967237
 31
0.0
  0
LINE
  5
391
100
AcDbEntity
  8
0
390
0
  6
DOT
 62
     2
100
AcDbLine
 10
77.3793
 20
84.967237
 30
0.0
 11
82.6293
 21
84.967237
 31
0.0
  0
LINE
  5
392
100
AcDbEntity
  8
0
390
0
  6
DOT
 62
     2
100
AcDbLine
 10
82.6293
 20
84.967237
 30
0.0
 11
83.2543
 21
85.592237
 31
0.0
  0
LINE
  5
393
100
AcDbEntity
  8
0
390
0
  6
DOT
 62
     2
100
AcDbLine
 10
83.2543
 20
85.592237
 30
0.0
 11
84.1293
 21
86.467237
 31
0.0
  0
LINE
  5
394
100
AcDbEntity
  8
0
390
0
  6
DOT
 62
     2
100
AcDbLine
 10
84.1293
 20
91.467237
 30
0.0
 11
83.2543
 21
92.342237
 31
0.0
  0
LINE
  5
395
100
AcDbEntity
  8
0
390
0
  6
DOT
 62
     2
100
AcDbLine
 10
83.2543
 20
92.342237
 30
0.0
 11
82.6293
 21
92.967237
 31
0.0
  0
LINE
  5
396
100
AcDbEntity
  8
0
390
0
  6
DOT
 62
     2
100
AcDbLine
 10
84.1293
 20
91.467237
 30
0.0
 11
82.684213
 21
88.967237
 31
0.0
  0
LINE
  5
397
100
AcDbEntity
  8
0
390
0
  6
DOT
 62
     2
100
AcDbLine
 10
82.684213
 20
88.967237
 30
0.0
 11
84.1293
 21
86.467237
 31
0.0
  0
LINE
  5
398
100
AcDbEntity
  8
0
390
0
  6
DOT
 62
     2
100
AcDbLine
 10
94.82457
 20
111.81941
 30
0.0
 11
94.82457
 21
110.100008
 31
0.0
  0
LINE
  5
399
100
AcDbEntity
  8
0
390
0
  6
DOT
 62
     2
100
AcDbLine
 10
94.82457
 20
110.100008
 30
0.0
 11
94.82457
 21
109.787528
 31
0.0
  0
LINE
  5
39A
100
AcDbEntity
  8
0
390
0
  6
DOT
 62
     2
100
AcDbLine
 10
94.82457
 20
103.912488
 30
0.0
 11
94.82457
 21
101.003189
 31
0.0
  0
LINE
  5
39B
100
AcDbEntity
  8
0
390
0
  6
DOT
 62
     2
100
AcDbLine
 10
101.57457
 20
101.002991
 30
0.0
 11
101.57457
 21
103.912488
 31
0.0
  0
LINE
  5
39C
100
AcDbEntity
  8
0
390
0
  6
DOT
 62
     2
100
AcDbLine
 10
101.57457
 20
109.787528
 30
0.0
 11
101.57457
 21
110.100008
 31
0.0
  0
LINE
  5
39D
100
AcDbEntity
  8
0
390
0
  6
DOT
 62
     2
100
AcDbLine
 10
101.57457
 20
110.100008
 30
0.0
 11
101.57457
 21
111.819471
 31
0.0
  0
LINE
  5
39E
100
AcDbEntity
  8
0
390
0
  6
DOT
 62
     2
100
AcDbLine
 10
75.347386
 20
85.592237
 30
0.0
 11
77.0668
 21
85.592237
 31
0.0
  0
LINE
  5
39F
100
AcDbEntity
  8
0
390
0
  6
DOT
 62
     2
100
AcDbLine
 10
77.0668
 20
85.592237
 30
0.0
 11
77.37928
 21
85.592237
 31
0.0
  0
LINE
  5
3A0
100
AcDbEntity
  8
0
390
0
  6
DOT
 62
     2
100
AcDbLine
 10
83.25432
 20
85.592237
 30
0.0
 11
86.163589
 21
85.592237
 31
0.0
  0
LINE
  5
3A1
100
AcDbEntity
  8
0
390
0
  6
DOT
 62
     2
100
AcDbLine
 10
86.163816
 20
92.342237
 30
0.0
 11
83.25432
 21
92.342237
 31
0.0
  0
LINE
  5
3A2
100
AcDbEntity
  8
0
390
0
  6
DOT
 62
     2
100
AcDbLine
 10
77.37928
 20
92.342237
 30
0.0
 11
77.0668
 21
92.342237
 31
0.0
  0
LINE
  5
3A3
100
AcDbEntity
  8
0
390
0
  6
DOT
 62
     2
100
AcDbLine
 10
77.0668
 20
92.342237
 30
0.0
 11
75.34725
 21
92.342237
 31
0.0
  0
LINE
  5
3A4
100
AcDbEntity
  8
0
390
0
  6
CENTER
 62
     1
100
AcDbLine
 10
66.69957
 20
88.967237
 30
0.0
 11
129.69957
 21
88.967237
 31
0.0
  0
LINE
  5
3A5
100
AcDbEntity
  8
0
390
0
  6
CENTER
 62
     1
100
AcDbLine
 10
98.19957
 20
57.467237
 30
0.0
 11
98.19957
 21
120.467237
 31
0.0
  0
LINE
  5
3A6
100
AcDbEntity
  8
0
390
0
  6
DOT
 62
     2
100
AcDbLine
 10
205.68288
 20
167.787508
 30
0.0
 11
201.682875
 21
167.787508
 31
0.0
  0
LINE
  5
3A7
100
AcDbEntity
  8
0
390
0
  6
DOT
 62
     2
100
AcDbLine
 10
209.682885
 20
167.787508
 30
0.0
 11
201.682875
 21
167.787508
 31
0.0
  0
LINE
  5
3A8
100
AcDbEntity
  8
0
390
0
  6
DOT
 62
     2
100
AcDbLine
 10
209.682885
 20
167.787508
 30
0.0
 11
209.05788
 21
167.787508
 31
0.0
  0
LINE
  5
3A9
100
AcDbEntity
  8
0
390
0
  6
DOT
 62
     2
100
AcDbLine
 10
184.86261
 20
150.967242
 30
0.0
 11
184.86261
 21
142.967232
 31
0.0
  0
ARC
  5
3AA
100
AcDbEntity
  8
0
390
0
  6
DOT
 62
     2
100
AcDbCircle
 10
185.18288
 20
88.967237
 30
0.0
 40
3.375
210
0.0
220
0.0
230
1.0
100
AcDbArc
 50
0.0
 51
5.445212
  0
LINE
  5
3AB
100
AcDbEntity
  8
0
390
0
  6
DOT
 62
     2
100
AcDbLine
 10
201.682885
 20
158.809958
 30
0.0
 11
202.44228
 21
159.039872
 31
0.0
  0
LINE
  5
3AC
100
AcDbEntity
  8
0
390
0
  6
DOT
 62
     2
100
AcDbLine
 10
208.924677
 20
159.039551
 30
0.0
 11
209.682875
 21
158.809958
 31
0.0
  0
LINE
  5
3AD
100
AcDbEntity
  8
0
390
0
  6
DOT
 62
     2
100
AcDbLine
 10
193.840159
 20
142.967242
 30
0.0
 11
193.610245
 21
143.726637
 31
0.0
  0
LINE
  5
3AE
100
AcDbEntity
  8
0
390
0
  6
DOT
 62
     2
100
AcDbLine
 10
193.610567
 20
150.209034
 30
0.0
 11
193.840159
 21
150.967232
 31
0.0
  0
LINE
  5
3AF
100
AcDbEntity
  8
0
390
0
  6
DOT
 62
     2
100
AcDbLine
 10
182.931835
 20
150.967232
 30
0.0
 11
182.867337
 21
150.581237
 31
0.0
  0
LINE
  5
3B0
100
AcDbEntity
  8
0
390
0
  6
DOT
 62
     2
100
AcDbLine
 10
182.867375
 20
143.352996
 30
0.0
 11
182.931835
 21
142.967242
 31
0.0
  0
LINE
  5
3B1
100
AcDbEntity
  8
0
390
0
  6
DOT
 62
     2
100
AcDbLine
 10
189.182875
 20
101.467237
 30
0.0
 11
189.129118
 21
101.450139
 31
0.0
  0
LINE
  5
3B2
100
AcDbEntity
  8
0
390
0
  6
DOT
 62
     2
100
AcDbLine
 10
185.106905
 20
111.718409
 30
0.0
 11
185.18288
 21
111.718282
 31
0.0
  0
LINE
  5
3B3
100
AcDbEntity
  8
0
390
0
  6
DOT
 62
     2
100
AcDbLine
 10
185.315873
 20
100.810705
 30
0.0
 11
185.18288
 21
100.809958
 31
0.0
  0
ARC
  5
3B4
100
AcDbEntity
  8
0
390
0
  6
Continuous
 62
     2
100
AcDbCircle
 10
185.18288
 20
134.827502
 30
0.0
 40
23.10908
210
0.0
220
0.0
230
1.0
100
AcDbArc
 50
260.032362
 51
279.967638
  0
CIRCLE
  5
3B5
100
AcDbEntity
  8
0
390
0
  6
DOT
 62
     2
100
AcDbCircle
 10
185.182654
 20
88.96524
 30
0.0
 40
3.999774
210
0.0
220
0.0
230
1.0
  0
LINE
  5
3B6
100
AcDbEntity
  8
0
390
0
  6
DOT
 62
     2
100
AcDbLine
 10
209.68288
 20
162.537508
 30
0.0
 11
201.68288
 21
162.537508
 31
0.0
  0
LINE
  5
3B7
100
AcDbEntity
  8
0
390
0
  6
DOT
 62
     2
100
AcDbLine
 10
209.68288
 20
167.787508
 30
0.0
 11
201.68288
 21
167.787508
 31
0.0
  0
LINE
  5
3B8
100
AcDbEntity
  8
0
390
0
  6
DOT
 62
     2
100
AcDbLine
 10
208.18288
 20
161.037508
 30
0.0
 11
203.18288
 21
161.037508
 31
0.0
  0
LINE
  5
3B9
100
AcDbEntity
  8
0
390
0
  6
DOT
 62
     2
100
AcDbLine
 10
207.68288
 20
168.787508
 30
0.0
 11
207.68288
 21
168.632807
 31
0.0
  0
LINE
  5
3BA
100
AcDbEntity
  8
0
390
0
  6
DOT
 62
     2
100
AcDbLine
 10
203.68288
 20
168.632807
 30
0.0
 11
203.68288
 21
168.787508
 31
0.0
  0
ARC
  5
3BB
100
AcDbEntity
  8
0
390
0
  6
DOT
 62
     2
100
AcDbCircle
 10
204.68288
 20
165.471638
 30
0.0
 40
3.315568
210
0.0
220
0.0
230
1.0
100
AcDbArc
 50
72.445822
 51
107.554178
  0
ARC
  5
3BC
100
AcDbEntity
  8
0
390
0
  6
DOT
 62
     2
100
AcDbCircle
 10
206.68288
 20
165.471638
 30
0.0
 40
3.315568
210
0.0
220
0.0
230
1.0
100
AcDbArc
 50
72.445822
 51
107.554178
  0
LINE
  5
3BD
100
AcDbEntity
  8
0
390
0
  6
DOT
 62
     2
100
AcDbLine
 10
203.68288
 20
166.037508
 30
0.0
 11
205.68288
 21
166.037508
 31
0.0
  0
LINE
  5
3BE
100
AcDbEntity
  8
0
390
0
  6
DOT
 62
     2
100
AcDbLine
 10
205.68288
 20
168.632807
 30
0.0
 11
205.68288
 21
167.787508
 31
0.0
  0
LINE
  5
3BF
100
AcDbEntity
  8
0
390
0
  6
DOT
 62
     2
100
AcDbLine
 10
205.68288
 20
167.787508
 30
0.0
 11
205.68288
 21
166.037508
 31
0.0
  0
LINE
  5
3C0
100
AcDbEntity
  8
0
390
0
  6
DOT
 62
     2
100
AcDbLine
 10
205.68288
 20
166.037508
 30
0.0
 11
207.68288
 21
166.037508
 31
0.0
  0
LINE
  5
3C1
100
AcDbEntity
  8
0
390
0
  6
DOT
 62
     2
100
AcDbLine
 10
203.68288
 20
168.632807
 30
0.0
 11
203.68288
 21
167.787508
 31
0.0
  0
LINE
  5
3C2
100
AcDbEntity
  8
0
390
0
  6
DOT
 62
     2
100
AcDbLine
 10
203.68288
 20
167.787508
 30
0.0
 11
203.68288
 21
166.037508
 31
0.0
  0
LINE
  5
3C3
100
AcDbEntity
  8
0
390
0
  6
DOT
 62
     2
100
AcDbLine
 10
207.68288
 20
168.632807
 30
0.0
 11
207.68288
 21
167.787508
 31
0.0
  0
LINE
  5
3C4
100
AcDbEntity
  8
0
390
0
  6
DOT
 62
     2
100
AcDbLine
 10
207.68288
 20
167.787508
 30
0.0
 11
207.68288
 21
166.037508
 31
0.0
  0
LINE
  5
3C5
100
AcDbEntity
  8
0
390
0
  6
DOT
 62
     2
100
AcDbLine
 10
205.68288
 20
168.632807
 30
0.0
 11
205.68288
 21
167.787508
 31
0.0
  0
LINE
  5
3C6
100
AcDbEntity
  8
0
390
0
  6
DOT
 62
     2
100
AcDbLine
 10
205.68288
 20
167.787508
 30
0.0
 11
205.68288
 21
166.037508
 31
0.0
  0
LINE
  5
3C7
100
AcDbEntity
  8
0
390
0
  6
DOT
 62
     2
100
AcDbLine
 10
190.11261
 20
150.967237
 30
0.0
 11
190.11261
 21
142.967237
 31
0.0
  0
LINE
  5
3C8
100
AcDbEntity
  8
0
390
0
  6
DOT
 62
     2
100
AcDbLine
 10
184.86261
 20
150.967237
 30
0.0
 11
184.86261
 21
142.967237
 31
0.0
  0
LINE
  5
3C9
100
AcDbEntity
  8
0
390
0
  6
DOT
 62
     2
100
AcDbLine
 10
191.61261
 20
149.467237
 30
0.0
 11
191.61261
 21
144.467237
 31
0.0
  0
LINE
  5
3CA
100
AcDbEntity
  8
0
390
0
  6
DOT
 62
     2
100
AcDbLine
 10
183.86261
 20
148.967237
 30
0.0
 11
184.01731
 21
148.967237
 31
0.0
  0
LINE
  5
3CB
100
AcDbEntity
  8
0
390
0
  6
DOT
 62
     2
100
AcDbLine
 10
184.01731
 20
144.967237
 30
0.0
 11
183.86261
 21
144.967237
 31
0.0
  0
ARC
  5
3CC
100
AcDbEntity
  8
0
390
0
  6
DOT
 62
     2
100
AcDbCircle
 10
187.178479
 20
145.967237
 30
0.0
 40
3.315568
210
0.0
220
0.0
230
1.0
100
AcDbArc
 50
162.445822
 51
197.554178
  0
ARC
  5
3CD
100
AcDbEntity
  8
0
390
0
  6
DOT
 62
     2
100
AcDbCircle
 10
187.178479
 20
147.967237
 30
0.0
 40
3.315568
210
0.0
220
0.0
230
1.0
100
AcDbArc
 50
162.445822
 51
197.554178
  0
LINE
  5
3CE
100
AcDbEntity
  8
0
390
0
  6
DOT
 62
     2
100
AcDbLine
 10
184.01731
 20
146.967237
 30
0.0
 11
184.86261
 21
146.967237
 31
0.0
  0
LINE
  5
3CF
100
AcDbEntity
  8
0
390
0
  6
DOT
 62
     2
100
AcDbLine
 10
184.86261
 20
146.967237
 30
0.0
 11
186.61261
 21
146.967237
 31
0.0
  0
LINE
  5
3D0
100
AcDbEntity
  8
0
390
0
  6
DOT
 62
     2
100
AcDbLine
 10
186.61261
 20
146.967237
 30
0.0
 11
186.61261
 21
148.967237
 31
0.0
  0
LINE
  5
3D1
100
AcDbEntity
  8
0
390
0
  6
DOT
 62
     2
100
AcDbLine
 10
186.61261
 20
144.967237
 30
0.0
 11
186.61261
 21
146.967237
 31
0.0
  0
LINE
  5
3D2
100
AcDbEntity
  8
0
390
0
  6
DOT
 62
     2
100
AcDbLine
 10
184.01731
 20
144.967237
 30
0.0
 11
184.86261
 21
144.967237
 31
0.0
  0
LINE
  5
3D3
100
AcDbEntity
  8
0
390
0
  6
DOT
 62
     2
100
AcDbLine
 10
184.86261
 20
144.967237
 30
0.0
 11
186.61261
 21
144.967237
 31
0.0
  0
LINE
  5
3D4
100
AcDbEntity
  8
0
390
0
  6
DOT
 62
     2
100
AcDbLine
 10
184.01731
 20
148.967237
 30
0.0
 11
184.86261
 21
148.967237
 31
0.0
  0
LINE
  5
3D5
100
AcDbEntity
  8
0
390
0
  6
DOT
 62
     2
100
AcDbLine
 10
184.86261
 20
148.967237
 30
0.0
 11
186.61261
 21
148.967237
 31
0.0
  0
ARC
  5
3D6
100
AcDbEntity
  8
0
390
0
  6
DOT
 62
     2
100
AcDbCircle
 10
205.68288
 20
146.967237
 30
0.0
 40
23.0
210
0.0
220
0.0
230
1.0
100
AcDbArc
 50
169.984603
 51
180.0
  0
ARC
  5
3D7
100
AcDbEntity
  8
0
390
0
  6
DOT
 62
     2
100
AcDbCircle
 10
205.68288
 20
146.967237
 30
0.0
 40
23.0
210
0.0
220
0.0
230
1.0
100
AcDbArc
 50
100.015397
 51
169.984603
  0
ARC
  5
3D8
100
AcDbEntity
  8
0
390
0
  6
DOT
 62
     2
100
AcDbCircle
 10
205.68288
 20
146.967237
 30
0.0
 40
23.0
210
0.0
220
0.0
230
1.0
100
AcDbArc
 50
89.999554
 51
100.015397
  0
ARC
  5
3D9
100
AcDbEntity
  8
0
390
0
  6
DOT
 62
     2
100
AcDbCircle
 10
205.68288
 20
146.967237
 30
0.0
 40
23.0
210
0.0
220
0.0
230
1.0
100
AcDbArc
 50
79.984603
 51
89.999554
  0
ARC
  5
3DA
100
AcDbEntity
  8
0
390
0
  6
DOT
 62
     2
100
AcDbCircle
 10
205.68288
 20
146.967237
 30
0.0
 40
23.0
210
0.0
220
0.0
230
1.0
100
AcDbArc
 50
190.015397
 51
79.984603
  0
ARC
  5
3DB
100
AcDbEntity
  8
0
390
0
  6
DOT
 62
     2
100
AcDbCircle
 10
205.68288
 20
146.967237
 30
0.0
 40
23.0
210
0.0
220
0.0
230
1.0
100
AcDbArc
 50
180.0
 51
190.015397
  0
CIRCLE
  5
3DC
100
AcDbEntity
  8
0
390
0
  6
Continuous
 62
     7
100
AcDbCircle
 10
205.68288
 20
146.967237
 30
0.0
 40
27.5
210
0.0
220
0.0
230
1.0
  0
CIRCLE
  5
3DD
100
AcDbEntity
  8
0
390
0
  6
Continuous
 62
     7
100
AcDbCircle
 10
205.68288
 20
146.967237
 30
0.0
 40
23.1
210
0.0
220
0.0
230
1.0
  0
CIRCLE
  5
3DE
100
AcDbEntity
  8
0
390
0
  6
Continuous
 62
     7
100
AcDbCircle
 10
205.68288
 20
146.967237
 30
0.0
 40
22.6
210
0.0
220
0.0
230
1.0
  0
CIRCLE
  5
3DF
100
AcDbEntity
  8
0
390
0
  6
Continuous
 62
     7
100
AcDbCircle
 10
205.68288
 20
146.967237
 30
0.0
 40
13.0
210
0.0
220
0.0
230
1.0
  0
CIRCLE
  5
3E0
100
AcDbEntity
  8
0
390
0
  6
Continuous
 62
     7
100
AcDbCircle
 10
205.68288
 20
146.967237
 30
0.0
 40
12.5
210
0.0
220
0.0
230
1.0
  0
CIRCLE
  5
3E1
100
AcDbEntity
  8
0
390
0
  6
DOT
 62
     2
100
AcDbCircle
 10
205.68288
 20
146.967237
 30
0.0
 40
23.0
210
0.0
220
0.0
230
1.0
  0
LINE
  5
3E2
100
AcDbEntity
  8
0
390
0
  6
DOT
 62
     2
100
AcDbLine
 10
189.18288
 20
109.787508
 30
0.0
 11
181.18288
 21
109.787508
 31
0.0
  0
POLYLINE
  5
3E3
100
AcDbEntity
  8
0
390
0
  6
DOT
 62
     2
100
AcDb2dPolyline
 66
     1
 10
0.0
 20
0.0
 30
0.0
 40
0.1
 41
0.1
  0
VERTEX
  5
3E4
100
AcDbEntity
  8
0
390
0
 62
     2
100
AcDbVertex
100
AcDb2dVertex
 10
184.02818
 20
110.632807
 30
0.0
 42
0.177045
  0
VERTEX
  5
3E5
100
AcDbEntity
  8
0
390
0
 62
     2
100
AcDbVertex
100
AcDb2dVertex
 10
183.238245
 20
110.765161
 30
0.0
  0
VERTEX
  5
3E6
100
AcDbEntity
  8
0
390
0
 62
     2
100
AcDbVertex
100
AcDb2dVertex
 10
183.055181
 20
110.712083
 30
0.0
  0
VERTEX
  5
3E7
100
AcDbEntity
  8
0
390
0
 62
     2
100
AcDbVertex
100
AcDb2dVertex
 10
182.873479
 20
110.632807
 30
0.0
  0
SEQEND
  5
3E8
100
AcDbEntity
  8
0
390
0
  0
ARC
  5
3E9
100
AcDbEntity
  8
0
390
0
  6
DOT
 62
     2
100
AcDbCircle
 10
185.18288
 20
106.399406
 30
0.0
 40
4.388054
210
0.0
220
0.0
230
1.0
100
AcDbArc
 50
74.743161
 51
105.256839
  0
POLYLINE
  5
3EA
100
AcDbEntity
  8
0
390
0
  6
DOT
 62
     2
100
AcDb2dPolyline
 66
     1
 10
0.0
 20
0.0
 30
0.0
 40
0.1
 41
0.1
  0
VERTEX
  5
3EB
100
AcDbEntity
  8
0
390
0
 62
     2
100
AcDbVertex
100
AcDb2dVertex
 10
187.492281
 20
110.632807
 30
0.0
 42
0.177045
  0
VERTEX
  5
3EC
100
AcDbEntity
  8
0
390
0
 62
     2
100
AcDbVertex
100
AcDb2dVertex
 10
186.702346
 20
110.765161
 30
0.0
  0
VERTEX
  5
3ED
100
AcDbEntity
  8
0
390
0
 62
     2
100
AcDbVertex
100
AcDb2dVertex
 10
186.519283
 20
110.712083
 30
0.0
  0
VERTEX
  5
3EE
100
AcDbEntity
  8
0
390
0
 62
     2
100
AcDbVertex
100
AcDb2dVertex
 10
186.337581
 20
110.632807
 30
0.0
  0
SEQEND
  5
3EF
100
AcDbEntity
  8
0
390
0
  0
LINE
  5
3F0
100
AcDbEntity
  8
0
390
0
  6
DOT
 62
     2
100
AcDbLine
 10
189.18288
 20
104.537508
 30
0.0
 11
181.18288
 21
104.537508
 31
0.0
  0
LINE
  5
3F1
100
AcDbEntity
  8
0
390
0
  6
DOT
 62
     2
100
AcDbLine
 10
187.68288
 20
103.037508
 30
0.0
 11
182.68288
 21
103.037508
 31
0.0
  0
LINE
  5
3F2
100
AcDbEntity
  8
0
390
0
  6
DOT
 62
     2
100
AcDbLine
 10
186.337581
 20
108.037508
 30
0.0
 11
187.492281
 21
108.037508
 31
0.0
  0
LINE
  5
3F3
100
AcDbEntity
  8
0
390
0
  6
DOT
 62
     2
100
AcDbLine
 10
184.02818
 20
108.037508
 30
0.0
 11
186.337581
 21
108.037508
 31
0.0
  0
LINE
  5
3F4
100
AcDbEntity
  8
0
390
0
  6
DOT
 62
     2
100
AcDbLine
 10
186.337581
 20
110.632807
 30
0.0
 11
186.337581
 21
109.787508
 31
0.0
  0
LINE
  5
3F5
100
AcDbEntity
  8
0
390
0
  6
DOT
 62
     2
100
AcDbLine
 10
186.337581
 20
109.787508
 30
0.0
 11
186.337581
 21
108.037508
 31
0.0
  0
LINE
  5
3F6
100
AcDbEntity
  8
0
390
0
  6
DOT
 62
     2
100
AcDbLine
 10
184.02818
 20
110.632807
 30
0.0
 11
184.02818
 21
109.787508
 31
0.0
  0
LINE
  5
3F7
100
AcDbEntity
  8
0
390
0
  6
DOT
 62
     2
100
AcDbLine
 10
184.02818
 20
109.787508
 30
0.0
 11
184.02818
 21
108.037508
 31
0.0
  0
LINE
  5
3F8
100
AcDbEntity
  8
0
390
0
  6
DOT
 62
     2
100
AcDbLine
 10
182.873479
 20
108.037508
 30
0.0
 11
184.02818
 21
108.037508
 31
0.0
  0
LINE
  5
3F9
100
AcDbEntity
  8
0
390
0
  6
DOT
 62
     2
100
AcDbLine
 10
187.492281
 20
110.632807
 30
0.0
 11
187.492281
 21
109.787508
 31
0.0
  0
LINE
  5
3FA
100
AcDbEntity
  8
0
390
0
  6
DOT
 62
     2
100
AcDbLine
 10
187.492281
 20
109.787508
 30
0.0
 11
187.492281
 21
108.037508
 31
0.0
  0
LINE
  5
3FB
100
AcDbEntity
  8
0
390
0
  6
DOT
 62
     2
100
AcDbLine
 10
182.873479
 20
110.632807
 30
0.0
 11
182.873479
 21
109.787508
 31
0.0
  0
LINE
  5
3FC
100
AcDbEntity
  8
0
390
0
  6
DOT
 62
     2
100
AcDbLine
 10
182.873479
 20
109.787508
 30
0.0
 11
182.873479
 21
108.037508
 31
0.0
  0
CIRCLE
  5
3FD
100
AcDbEntity
  8
0
390
0
  6
DOT
 62
     2
100
AcDbCircle
 10
185.18288
 20
88.967237
 30
0.0
 40
2.5
210
0.0
220
0.0
230
1.0
  0
ARC
  5
3FE
100
AcDbEntity
  8
0
390
0
  6
DOT
 62
     2
100
AcDbCircle
 10
185.18288
 20
88.967237
 30
0.0
 40
4.0
210
0.0
220
0.0
230
1.0
100
AcDbArc
 50
270.0
 51
271.305355
  0
ARC
  5
3FF
100
AcDbEntity
  8
0
390
0
  6
DOT
 62
     2
100
AcDbCircle
 10
185.18288
 20
88.967237
 30
0.0
 40
4.0
210
0.0
220
0.0
230
1.0
100
AcDbArc
 50
180.0
 51
184.127191
  0
ARC
  5
400
100
AcDbEntity
  8
0
390
0
  6
DOT
 62
     2
100
AcDbCircle
 10
185.18288
 20
88.967237
 30
0.0
 40
4.0
210
0.0
220
0.0
230
0.9999999999999999
100
AcDbArc
 50
264.745196
 51
270.0
  0
LINE
  5
401
100
AcDbEntity
  8
0
390
0
  6
DOT
 62
     2
100
AcDbLine
 10
182.873479
 20
88.967237
 30
0.0
 11
184.02818
 21
90.967237
 31
0.0
  0
LINE
  5
402
100
AcDbEntity
  8
0
390
0
  6
DOT
 62
     2
100
AcDbLine
 10
184.02818
 20
86.967237
 30
0.0
 11
182.873479
 21
88.967237
 31
0.0
  0
LINE
  5
403
100
AcDbEntity
  8
0
390
0
  6
DOT
 62
     2
100
AcDbLine
 10
186.337581
 20
86.967237
 30
0.0
 11
184.02818
 21
86.967237
 31
0.0
  0
LINE
  5
404
100
AcDbEntity
  8
0
390
0
  6
DOT
 62
     2
100
AcDbLine
 10
184.02818
 20
90.967237
 30
0.0
 11
186.337581
 21
90.967237
 31
0.0
  0
LINE
  5
405
100
AcDbEntity
  8
0
390
0
  6
DOT
 62
     2
100
AcDbLine
 10
186.337581
 20
90.967237
 30
0.0
 11
187.492281
 21
88.967237
 31
0.0
  0
LINE
  5
406
100
AcDbEntity
  8
0
390
0
  6
DOT
 62
     2
100
AcDbLine
 10
187.492281
 20
88.967237
 30
0.0
 11
186.337581
 21
86.967237
 31
0.0
  0
LINE
  5
407
100
AcDbEntity
  8
0
390
0
  6
Continuous
 62
     7
100
AcDbLine
 10
216.68288
 20
116.467237
 30
0.0
 11
216.68288
 21
61.467237
 31
0.0
  0
LINE
  5
408
100
AcDbEntity
  8
0
390
0
  6
Continuous
 62
     7
100
AcDbLine
 10
191.68288
 20
116.467237
 30
0.0
 11
191.68288
 21
61.467237
 31
0.0
  0
LINE
  5
409
100
AcDbEntity
  8
0
390
0
  6
Continuous
 62
     7
100
AcDbLine
 10
179.18288
 20
112.067237
 30
0.0
 11
179.18288
 21
65.867237
 31
0.0
  0
ARC
  5
40A
100
AcDbEntity
  8
0
390
0
  6
Continuous
 62
     7
100
AcDbCircle
 10
185.18288
 20
134.919787
 30
0.0
 40
23.100426
210
0.0
220
0.0
230
1.0
100
AcDbArc
 50
261.598947
 51
278.401053
  0
LINE
  5
40B
100
AcDbEntity
  8
0
390
0
  6
Continuous
 62
     7
100
AcDbLine
 10
178.68288
 20
66.367237
 30
0.0
 11
178.68288
 21
111.567237
 31
0.0
  0
ARC
  5
40C
100
AcDbEntity
  8
0
390
0
  6
DOT
 62
     2
100
AcDbCircle
 10
185.126434
 20
113.913344
 30
0.0
 40
12.910476
210
0.0
220
0.0
230
0.9999999999999999
100
AcDbArc
 50
270.250503
 51
285.413764
  0
LINE
  5
40D
100
AcDbEntity
  8
0
390
0
  6
DOT
 62
     2
100
AcDbLine
 10
185.152401
 20
101.00303
 30
0.0
 11
185.215138
 21
101.003034
 31
0.0
  0
ARC
  5
40E
100
AcDbEntity
  8
0
390
0
  6
DOT
 62
     2
100
AcDbCircle
 10
185.233102
 20
113.868094
 30
0.0
 40
12.865201
210
0.0
220
0.0
230
0.9999999999999999
100
AcDbArc
 50
254.559397
 51
269.776336
  0
CIRCLE
  5
40F
100
AcDbEntity
  8
0
390
0
  6
DOT
 62
     2
100
AcDbCircle
 10
185.181564
 20
88.967287
 30
0.0
 40
3.374951
210
0.0
220
0.0
230
1.0
  0
LINE
  5
410
100
AcDbEntity
  8
0
390
0
  6
DOT
 62
     2
100
AcDbLine
 10
209.05788
 20
161.912508
 30
0.0
 11
209.05788
 21
167.787508
 31
0.0
  0
LINE
  5
411
100
AcDbEntity
  8
0
390
0
  6
DOT
 62
     2
100
AcDbLine
 10
202.30788
 20
167.787508
 30
0.0
 11
202.30788
 21
161.912508
 31
0.0
  0
LINE
  5
412
100
AcDbEntity
  8
0
390
0
  6
DOT
 62
     2
100
AcDbLine
 10
190.73761
 20
150.342237
 30
0.0
 11
184.86261
 21
150.342237
 31
0.0
  0
LINE
  5
413
100
AcDbEntity
  8
0
390
0
  6
DOT
 62
     2
100
AcDbLine
 10
184.86261
 20
143.592237
 30
0.0
 11
190.73761
 21
143.592237
 31
0.0
  0
LINE
  5
414
100
AcDbEntity
  8
0
390
0
  6
DOT
 62
     2
100
AcDbLine
 10
188.55788
 20
103.912508
 30
0.0
 11
188.55788
 21
109.787508
 31
0.0
  0
LINE
  5
415
100
AcDbEntity
  8
0
390
0
  6
DOT
 62
     2
100
AcDbLine
 10
181.80788
 20
109.787508
 30
0.0
 11
181.80788
 21
103.912508
 31
0.0
  0
LINE
  5
416
100
AcDbEntity
  8
0
390
0
  6
Continuous
 62
     2
100
AcDbLine
 10
201.682885
 20
169.718446
 30
0.0
 11
201.682885
 21
169.718282
 31
0.0
  0
LINE
  5
417
100
AcDbEntity
  8
0
390
0
  6
DOT
 62
     2
100
AcDbLine
 10
201.682885
 20
169.718282
 30
0.0
 11
201.682885
 21
167.787527
 31
0.0
  0
LINE
  5
418
100
AcDbEntity
  8
0
390
0
  6
DOT
 62
     2
100
AcDbLine
 10
201.682885
 20
167.78751
 30
0.0
 11
201.682885
 21
162.537503
 31
0.0
  0
LINE
  5
419
100
AcDbEntity
  8
0
390
0
  6
DOT
 62
     2
100
AcDbLine
 10
201.682885
 20
162.537488
 30
0.0
 11
201.682885
 21
158.810234
 31
0.0
  0
LINE
  5
41A
100
AcDbEntity
  8
0
390
0
  6
DOT
 62
     2
100
AcDbLine
 10
209.682875
 20
158.810437
 30
0.0
 11
209.682875
 21
162.537488
 31
0.0
  0
LINE
  5
41B
100
AcDbEntity
  8
0
390
0
  6
DOT
 62
     2
100
AcDbLine
 10
209.682875
 20
162.537503
 30
0.0
 11
209.682875
 21
167.78751
 31
0.0
  0
LINE
  5
41C
100
AcDbEntity
  8
0
390
0
  6
DOT
 62
     2
100
AcDbLine
 10
209.682875
 20
167.787527
 30
0.0
 11
209.682875
 21
169.718282
 31
0.0
  0
LINE
  5
41D
100
AcDbEntity
  8
0
390
0
  6
Continuous
 62
     2
100
AcDbLine
 10
209.682875
 20
169.718282
 30
0.0
 11
209.682875
 21
169.71855
 31
0.0
  0
LINE
  5
41E
100
AcDbEntity
  8
0
390
0
  6
Continuous
 62
     2
100
AcDbLine
 10
182.931672
 20
142.967242
 30
0.0
 11
182.931835
 21
142.967242
 31
0.0
  0
LINE
  5
41F
100
AcDbEntity
  8
0
390
0
  6
DOT
 62
     2
100
AcDbLine
 10
182.931835
 20
142.967242
 30
0.0
 11
184.86259
 21
142.967242
 31
0.0
  0
LINE
  5
420
100
AcDbEntity
  8
0
390
0
  6
DOT
 62
     2
100
AcDbLine
 10
184.862607
 20
142.967242
 30
0.0
 11
190.112615
 21
142.967242
 31
0.0
  0
LINE
  5
421
100
AcDbEntity
  8
0
390
0
  6
DOT
 62
     2
100
AcDbLine
 10
190.112629
 20
142.967242
 30
0.0
 11
193.839883
 21
142.967242
 31
0.0
  0
LINE
  5
422
100
AcDbEntity
  8
0
390
0
  6
DOT
 62
     2
100
AcDbLine
 10
193.83968
 20
150.967232
 30
0.0
 11
190.112629
 21
150.967232
 31
0.0
  0
LINE
  5
423
100
AcDbEntity
  8
0
390
0
  6
DOT
 62
     2
100
AcDbLine
 10
190.112615
 20
150.967232
 30
0.0
 11
184.862607
 21
150.967232
 31
0.0
  0
LINE
  5
424
100
AcDbEntity
  8
0
390
0
  6
DOT
 62
     2
100
AcDbLine
 10
184.86259
 20
150.967232
 30
0.0
 11
182.931835
 21
150.967232
 31
0.0
  0
LINE
  5
425
100
AcDbEntity
  8
0
390
0
  6
Continuous
 62
     2
100
AcDbLine
 10
182.931835
 20
150.967232
 30
0.0
 11
182.931568
 21
150.967232
 31
0.0
  0
LINE
  5
426
100
AcDbEntity
  8
0
390
0
  6
DOT
 62
     2
100
AcDbLine
 10
181.182885
 20
112.067237
 30
0.0
 11
181.182885
 21
109.787527
 31
0.0
  0
LINE
  5
427
100
AcDbEntity
  8
0
390
0
  6
DOT
 62
     2
100
AcDbLine
 10
181.182885
 20
109.787508
 30
0.0
 11
181.182885
 21
104.537503
 31
0.0
  0
LINE
  5
428
100
AcDbEntity
  8
0
390
0
  6
DOT
 62
     2
100
AcDbLine
 10
181.182885
 20
104.537488
 30
0.0
 11
181.182885
 21
101.467237
 31
0.0
  0
LINE
  5
429
100
AcDbEntity
  8
0
390
0
  6
DOT
 62
     2
100
AcDbLine
 10
181.182885
 20
101.467237
 30
0.0
 11
181.182885
 21
101.466973
 31
0.0
  0
LINE
  5
42A
100
AcDbEntity
  8
0
390
0
  6
DOT
 62
     2
100
AcDbLine
 10
189.182875
 20
101.466787
 30
0.0
 11
189.182875
 21
101.467237
 31
0.0
  0
LINE
  5
42B
100
AcDbEntity
  8
0
390
0
  6
DOT
 62
     2
100
AcDbLine
 10
189.182875
 20
101.467237
 30
0.0
 11
189.182875
 21
104.537488
 31
0.0
  0
LINE
  5
42C
100
AcDbEntity
  8
0
390
0
  6
DOT
 62
     2
100
AcDbLine
 10
189.182875
 20
104.537503
 30
0.0
 11
189.182875
 21
109.787508
 31
0.0
  0
LINE
  5
42D
100
AcDbEntity
  8
0
390
0
  6
DOT
 62
     2
100
AcDbLine
 10
185.18288
 20
111.718282
 30
0.0
 11
185.25313
 21
111.71839
 31
0.0
  0
LINE
  5
42E
100
AcDbEntity
  8
0
390
0
  6
DOT
 62
     2
100
AcDbLine
 10
209.68288
 20
162.537508
 30
0.0
 11
209.68288
 21
167.787508
 31
0.0
  0
LINE
  5
42F
100
AcDbEntity
  8
0
390
0
  6
DOT
 62
     2
100
AcDbLine
 10
201.68288
 20
167.787508
 30
0.0
 11
201.68288
 21
162.537508
 31
0.0
  0
LINE
  5
430
100
AcDbEntity
  8
0
390
0
  6
DOT
 62
     2
100
AcDbLine
 10
201.68288
 20
162.537508
 30
0.0
 11
202.30788
 21
161.912508
 31
0.0
  0
LINE
  5
431
100
AcDbEntity
  8
0
390
0
  6
DOT
 62
     2
100
AcDbLine
 10
202.30788
 20
161.912508
 30
0.0
 11
203.18288
 21
161.037508
 31
0.0
  0
LINE
  5
432
100
AcDbEntity
  8
0
390
0
  6
DOT
 62
     2
100
AcDbLine
 10
208.18288
 20
161.037508
 30
0.0
 11
209.05788
 21
161.912508
 31
0.0
  0
LINE
  5
433
100
AcDbEntity
  8
0
390
0
  6
DOT
 62
     2
100
AcDbLine
 10
209.05788
 20
161.912508
 30
0.0
 11
209.68288
 21
162.537508
 31
0.0
  0
LINE
  5
434
100
AcDbEntity
  8
0
390
0
  6
DOT
 62
     2
100
AcDbLine
 10
209.68288
 20
167.787508
 30
0.0
 11
209.05788
 21
168.100008
 31
0.0
  0
LINE
  5
435
100
AcDbEntity
  8
0
390
0
  6
DOT
 62
     2
100
AcDbLine
 10
209.05788
 20
168.100008
 30
0.0
 11
207.68288
 21
168.787508
 31
0.0
  0
LINE
  5
436
100
AcDbEntity
  8
0
390
0
  6
DOT
 62
     2
100
AcDbLine
 10
203.68288
 20
168.787508
 30
0.0
 11
202.30788
 21
168.100008
 31
0.0
  0
LINE
  5
437
100
AcDbEntity
  8
0
390
0
  6
DOT
 62
     2
100
AcDbLine
 10
202.30788
 20
168.100008
 30
0.0
 11
201.68288
 21
167.787508
 31
0.0
  0
LINE
  5
438
100
AcDbEntity
  8
0
390
0
  6
DOT
 62
     2
100
AcDbLine
 10
208.18288
 20
161.037508
 30
0.0
 11
205.68288
 21
162.482595
 31
0.0
  0
LINE
  5
439
100
AcDbEntity
  8
0
390
0
  6
DOT
 62
     2
100
AcDbLine
 10
205.68288
 20
162.482595
 30
0.0
 11
203.18288
 21
161.037508
 31
0.0
  0
LINE
  5
43A
100
AcDbEntity
  8
0
390
0
  6
DOT
 62
     2
100
AcDbLine
 10
190.11261
 20
150.967237
 30
0.0
 11
184.86261
 21
150.967237
 31
0.0
  0
LINE
  5
43B
100
AcDbEntity
  8
0
390
0
  6
DOT
 62
     2
100
AcDbLine
 10
184.86261
 20
142.967237
 30
0.0
 11
190.11261
 21
142.967237
 31
0.0
  0
LINE
  5
43C
100
AcDbEntity
  8
0
390
0
  6
DOT
 62
     2
100
AcDbLine
 10
190.11261
 20
142.967237
 30
0.0
 11
190.73761
 21
143.592237
 31
0.0
  0
LINE
  5
43D
100
AcDbEntity
  8
0
390
0
  6
DOT
 62
     2
100
AcDbLine
 10
190.73761
 20
143.592237
 30
0.0
 11
191.61261
 21
144.467237
 31
0.0
  0
LINE
  5
43E
100
AcDbEntity
  8
0
390
0
  6
DOT
 62
     2
100
AcDbLine
 10
191.61261
 20
149.467237
 30
0.0
 11
190.73761
 21
150.342237
 31
0.0
  0
LINE
  5
43F
100
AcDbEntity
  8
0
390
0
  6
DOT
 62
     2
100
AcDbLine
 10
190.73761
 20
150.342237
 30
0.0
 11
190.11261
 21
150.967237
 31
0.0
  0
LINE
  5
440
100
AcDbEntity
  8
0
390
0
  6
DOT
 62
     2
100
AcDbLine
 10
184.86261
 20
150.967237
 30
0.0
 11
184.55011
 21
150.342237
 31
0.0
  0
LINE
  5
441
100
AcDbEntity
  8
0
390
0
  6
DOT
 62
     2
100
AcDbLine
 10
184.55011
 20
150.342237
 30
0.0
 11
183.86261
 21
148.967237
 31
0.0
  0
LINE
  5
442
100
AcDbEntity
  8
0
390
0
  6
DOT
 62
     2
100
AcDbLine
 10
183.86261
 20
144.967237
 30
0.0
 11
184.55011
 21
143.592237
 31
0.0
  0
LINE
  5
443
100
AcDbEntity
  8
0
390
0
  6
DOT
 62
     2
100
AcDbLine
 10
184.55011
 20
143.592237
 30
0.0
 11
184.86261
 21
142.967237
 31
0.0
  0
LINE
  5
444
100
AcDbEntity
  8
0
390
0
  6
DOT
 62
     2
100
AcDbLine
 10
191.61261
 20
149.467237
 30
0.0
 11
190.167523
 21
146.967237
 31
0.0
  0
LINE
  5
445
100
AcDbEntity
  8
0
390
0
  6
DOT
 62
     2
100
AcDbLine
 10
190.167523
 20
146.967237
 30
0.0
 11
191.61261
 21
144.467237
 31
0.0
  0
LINE
  5
446
100
AcDbEntity
  8
0
390
0
  6
DOT
 62
     2
100
AcDbLine
 10
202.30788
 20
169.81941
 30
0.0
 11
202.30788
 21
168.100008
 31
0.0
  0
LINE
  5
447
100
AcDbEntity
  8
0
390
0
  6
DOT
 62
     2
100
AcDbLine
 10
202.30788
 20
168.100008
 30
0.0
 11
202.30788
 21
167.787528
 31
0.0
  0
LINE
  5
448
100
AcDbEntity
  8
0
390
0
  6
DOT
 62
     2
100
AcDbLine
 10
202.30788
 20
161.912488
 30
0.0
 11
202.30788
 21
159.003189
 31
0.0
  0
LINE
  5
449
100
AcDbEntity
  8
0
390
0
  6
DOT
 62
     2
100
AcDbLine
 10
209.05788
 20
159.002991
 30
0.0
 11
209.05788
 21
161.912488
 31
0.0
  0
LINE
  5
44A
100
AcDbEntity
  8
0
390
0
  6
DOT
 62
     2
100
AcDbLine
 10
209.05788
 20
167.787528
 30
0.0
 11
209.05788
 21
168.100008
 31
0.0
  0
LINE
  5
44B
100
AcDbEntity
  8
0
390
0
  6
DOT
 62
     2
100
AcDbLine
 10
209.05788
 20
168.100008
 30
0.0
 11
209.05788
 21
169.819471
 31
0.0
  0
LINE
  5
44C
100
AcDbEntity
  8
0
390
0
  6
DOT
 62
     2
100
AcDbLine
 10
182.830708
 20
143.592237
 30
0.0
 11
184.55011
 21
143.592237
 31
0.0
  0
LINE
  5
44D
100
AcDbEntity
  8
0
390
0
  6
DOT
 62
     2
100
AcDbLine
 10
184.55011
 20
143.592237
 30
0.0
 11
184.86259
 21
143.592237
 31
0.0
  0
LINE
  5
44E
100
AcDbEntity
  8
0
390
0
  6
DOT
 62
     2
100
AcDbLine
 10
190.73763
 20
143.592237
 30
0.0
 11
193.646929
 21
143.592237
 31
0.0
  0
LINE
  5
44F
100
AcDbEntity
  8
0
390
0
  6
DOT
 62
     2
100
AcDbLine
 10
193.647126
 20
150.342237
 30
0.0
 11
190.73763
 21
150.342237
 31
0.0
  0
LINE
  5
450
100
AcDbEntity
  8
0
390
0
  6
DOT
 62
     2
100
AcDbLine
 10
184.86259
 20
150.342237
 30
0.0
 11
184.55011
 21
150.342237
 31
0.0
  0
LINE
  5
451
100
AcDbEntity
  8
0
390
0
  6
DOT
 62
     2
100
AcDbLine
 10
184.55011
 20
150.342237
 30
0.0
 11
182.830646
 21
150.342237
 31
0.0
  0
LINE
  5
452
100
AcDbEntity
  8
0
390
0
  6
DOT
 62
     2
100
AcDbLine
 10
189.18288
 20
109.787508
 30
0.0
 11
188.55788
 21
110.100008
 31
0.0
  0
LINE
  5
453
100
AcDbEntity
  8
0
390
0
  6
DOT
 62
     2
100
AcDbLine
 10
188.55788
 20
110.100008
 30
0.0
 11
187.492281
 21
110.632807
 31
0.0
  0
LINE
  5
454
100
AcDbEntity
  8
0
390
0
  6
DOT
 62
     2
100
AcDbLine
 10
182.873479
 20
110.632807
 30
0.0
 11
181.80788
 21
110.100008
 31
0.0
  0
LINE
  5
455
100
AcDbEntity
  8
0
390
0
  6
DOT
 62
     2
100
AcDbLine
 10
181.80788
 20
110.100008
 30
0.0
 11
181.18288
 21
109.787508
 31
0.0
  0
LINE
  5
456
100
AcDbEntity
  8
0
390
0
  6
DOT
 62
     2
100
AcDbLine
 10
189.18288
 20
104.537508
 30
0.0
 11
189.18288
 21
109.787508
 31
0.0
  0
LINE
  5
457
100
AcDbEntity
  8
0
390
0
  6
DOT
 62
     2
100
AcDbLine
 10
181.18288
 20
109.787508
 30
0.0
 11
181.18288
 21
104.537508
 31
0.0
  0
LINE
  5
458
100
AcDbEntity
  8
0
390
0
  6
DOT
 62
     2
100
AcDbLine
 10
181.18288
 20
104.537508
 30
0.0
 11
181.80788
 21
103.912508
 31
0.0
  0
LINE
  5
459
100
AcDbEntity
  8
0
390
0
  6
DOT
 62
     2
100
AcDbLine
 10
181.80788
 20
103.912508
 30
0.0
 11
182.68288
 21
103.037508
 31
0.0
  0
LINE
  5
45A
100
AcDbEntity
  8
0
390
0
  6
DOT
 62
     2
100
AcDbLine
 10
187.68288
 20
103.037508
 30
0.0
 11
188.55788
 21
103.912508
 31
0.0
  0
LINE
  5
45B
100
AcDbEntity
  8
0
390
0
  6
DOT
 62
     2
100
AcDbLine
 10
188.55788
 20
103.912508
 30
0.0
 11
189.18288
 21
104.537508
 31
0.0
  0
LINE
  5
45C
100
AcDbEntity
  8
0
390
0
  6
DOT
 62
     2
100
AcDbLine
 10
187.68288
 20
103.037508
 30
0.0
 11
185.18288
 21
104.482595
 31
0.0
  0
LINE
  5
45D
100
AcDbEntity
  8
0
390
0
  6
DOT
 62
     2
100
AcDbLine
 10
185.18288
 20
104.482595
 30
0.0
 11
182.68288
 21
103.037508
 31
0.0
  0
LINE
  5
45E
100
AcDbEntity
  8
0
390
0
  6
Continuous
 62
     7
100
AcDbLine
 10
216.68288
 20
116.467237
 30
0.0
 11
191.68288
 21
116.467237
 31
0.0
  0
LINE
  5
45F
100
AcDbEntity
  8
0
390
0
  6
Continuous
 62
     7
100
AcDbLine
 10
191.68288
 20
61.467237
 30
0.0
 11
216.68288
 21
61.467237
 31
0.0
  0
LINE
  5
460
100
AcDbEntity
  8
0
390
0
  6
DOT
 62
     2
100
AcDbLine
 10
216.68288
 20
111.967237
 30
0.0
 11
216.18288
 21
111.967237
 31
0.0
  0
LINE
  5
461
100
AcDbEntity
  8
0
390
0
  6
DOT
 62
     2
100
AcDbLine
 10
216.18288
 20
65.967237
 30
0.0
 11
216.68288
 21
65.967237
 31
0.0
  0
LINE
  5
462
100
AcDbEntity
  8
0
390
0
  6
Continuous
 62
     7
100
AcDbLine
 10
181.80788
 20
112.067237
 30
0.0
 11
181.184626
 21
112.067237
 31
0.0
  0
LINE
  5
463
100
AcDbEntity
  8
0
390
0
  6
DOT
 62
     2
100
AcDbLine
 10
181.184626
 20
112.067237
 30
0.0
 11
181.183513
 21
112.067237
 31
0.0
  0
LINE
  5
464
100
AcDbEntity
  8
0
390
0
  6
DOT
 62
     2
100
AcDbLine
 10
181.183513
 20
112.067237
 30
0.0
 11
181.182885
 21
112.067237
 31
0.0
  0
LINE
  5
465
100
AcDbEntity
  8
0
390
0
  6
Continuous
 62
     7
100
AcDbLine
 10
181.182885
 20
112.067237
 30
0.0
 11
179.18288
 21
112.067237
 31
0.0
  0
LINE
  5
466
100
AcDbEntity
  8
0
390
0
  6
Continuous
 62
     7
100
AcDbLine
 10
191.68288
 20
112.067237
 30
0.0
 11
189.182875
 21
112.067237
 31
0.0
  0
LINE
  5
467
100
AcDbEntity
  8
0
390
0
  6
DOT
 62
     2
100
AcDbLine
 10
189.182875
 20
112.067237
 30
0.0
 11
189.18194
 21
112.067237
 31
0.0
  0
LINE
  5
468
100
AcDbEntity
  8
0
390
0
  6
DOT
 62
     2
100
AcDbLine
 10
189.18194
 20
112.067237
 30
0.0
 11
189.180784
 21
112.067237
 31
0.0
  0
LINE
  5
469
100
AcDbEntity
  8
0
390
0
  6
Continuous
 62
     7
100
AcDbLine
 10
189.180784
 20
112.067237
 30
0.0
 11
188.55788
 21
112.067237
 31
0.0
  0
LINE
  5
46A
100
AcDbEntity
  8
0
390
0
  6
Continuous
 62
     7
100
AcDbLine
 10
188.55788
 20
112.067237
 30
0.0
 11
188.557402
 21
112.067237
 31
0.0
  0
LINE
  5
46B
100
AcDbEntity
  8
0
390
0
  6
Continuous
 62
     7
100
AcDbLine
 10
179.18288
 20
65.867237
 30
0.0
 11
191.68288
 21
65.867237
 31
0.0
  0
LINE
  5
46C
100
AcDbEntity
  8
0
390
0
  6
Continuous
 62
     7
100
AcDbLine
 10
179.18288
 20
112.067237
 30
0.0
 11
178.68288
 21
111.567237
 31
0.0
  0
LINE
  5
46D
100
AcDbEntity
  8
0
390
0
  6
Continuous
 62
     7
100
AcDbLine
 10
178.68288
 20
66.367237
 30
0.0
 11
179.18288
 21
65.867237
 31
0.0
  0
LINE
  5
46E
100
AcDbEntity
  8
0
390
0
  6
DOT
 62
     2
100
AcDbLine
 10
191.68288
 20
65.967237
 30
0.0
 11
216.18288
 21
65.967237
 31
0.0
  0
LINE
  5
46F
100
AcDbEntity
  8
0
390
0
  6
DOT
 62
     2
100
AcDbLine
 10
216.18288
 20
111.967237
 30
0.0
 11
191.68288
 21
111.967237
 31
0.0
  0
LINE
  5
470
100
AcDbEntity
  8
0
390
0
  6
DOT
 62
     2
100
AcDbLine
 10
216.68288
 20
101.967237
 30
0.0
 11
216.18288
 21
101.467237
 31
0.0
  0
LINE
  5
471
100
AcDbEntity
  8
0
390
0
  6
DOT
 62
     2
100
AcDbLine
 10
216.18288
 20
76.467237
 30
0.0
 11
216.68288
 21
75.967237
 31
0.0
  0
LINE
  5
472
100
AcDbEntity
  8
0
390
0
  6
DOT
 62
     2
100
AcDbLine
 10
178.68288
 20
75.967237
 30
0.0
 11
179.18288
 21
76.467237
 31
0.0
  0
LINE
  5
473
100
AcDbEntity
  8
0
390
0
  6
DOT
 62
     2
100
AcDbLine
 10
179.18288
 20
101.467237
 30
0.0
 11
178.68288
 21
101.967237
 31
0.0
  0
LINE
  5
474
100
AcDbEntity
  8
0
390
0
  6
DOT
 62
     2
100
AcDbLine
 10
181.808568
 20
101.467237
 30
0.0
 11
181.80788
 21
101.467237
 31
0.0
  0
LINE
  5
475
100
AcDbEntity
  8
0
390
0
  6
DOT
 62
     2
100
AcDbLine
 10
181.80788
 20
101.467237
 30
0.0
 11
181.182885
 21
101.467237
 31
0.0
  0
LINE
  5
476
100
AcDbEntity
  8
0
390
0
  6
DOT
 62
     2
100
AcDbLine
 10
181.182885
 20
101.467237
 30
0.0
 11
179.18288
 21
101.467237
 31
0.0
  0
LINE
  5
477
100
AcDbEntity
  8
0
390
0
  6
DOT
 62
     2
100
AcDbLine
 10
216.18288
 20
101.467237
 30
0.0
 11
189.182875
 21
101.467237
 31
0.0
  0
LINE
  5
478
100
AcDbEntity
  8
0
390
0
  6
DOT
 62
     2
100
AcDbLine
 10
189.182875
 20
101.467237
 30
0.0
 11
188.55788
 21
101.467237
 31
0.0
  0
LINE
  5
479
100
AcDbEntity
  8
0
390
0
  6
DOT
 62
     2
100
AcDbLine
 10
188.55788
 20
101.467237
 30
0.0
 11
188.557548
 21
101.467237
 31
0.0
  0
LINE
  5
47A
100
AcDbEntity
  8
0
390
0
  6
DOT
 62
     2
100
AcDbLine
 10
179.18288
 20
76.467237
 30
0.0
 11
216.18288
 21
76.467237
 31
0.0
  0
LINE
  5
47B
100
AcDbEntity
  8
0
390
0
  6
DOT
 62
     2
100
AcDbLine
 10
181.80788
 20
112.067237
 30
0.0
 11
181.80788
 21
110.100008
 31
0.0
  0
LINE
  5
47C
100
AcDbEntity
  8
0
390
0
  6
DOT
 62
     2
100
AcDbLine
 10
181.80788
 20
110.100008
 30
0.0
 11
181.80788
 21
109.787528
 31
0.0
  0
LINE
  5
47D
100
AcDbEntity
  8
0
390
0
  6
DOT
 62
     2
100
AcDbLine
 10
181.80788
 20
103.912488
 30
0.0
 11
181.80788
 21
101.467237
 31
0.0
  0
LINE
  5
47E
100
AcDbEntity
  8
0
390
0
  6
DOT
 62
     2
100
AcDbLine
 10
181.80788
 20
101.467237
 30
0.0
 11
181.80788
 21
101.467047
 31
0.0
  0
LINE
  5
47F
100
AcDbEntity
  8
0
390
0
  6
DOT
 62
     2
100
AcDbLine
 10
188.55788
 20
101.467237
 30
0.0
 11
188.55788
 21
103.912488
 31
0.0
  0
LINE
  5
480
100
AcDbEntity
  8
0
390
0
  6
DOT
 62
     2
100
AcDbLine
 10
188.55788
 20
109.787528
 30
0.0
 11
188.55788
 21
110.100008
 31
0.0
  0
LINE
  5
481
100
AcDbEntity
  8
0
390
0
  6
DOT
 62
     2
100
AcDbLine
 10
188.55788
 20
110.100008
 30
0.0
 11
188.55788
 21
112.067237
 31
0.0
  0
LINE
  5
482
100
AcDbEntity
  8
0
390
0
  6
CENTER
 62
     1
100
AcDbLine
 10
174.18288
 20
146.967237
 30
0.0
 11
237.18288
 21
146.967237
 31
0.0
  0
LINE
  5
483
100
AcDbEntity
  8
0
390
0
  6
CENTER
 62
     1
100
AcDbLine
 10
205.68288
 20
115.467237
 30
0.0
 11
205.68288
 21
178.467237
 31
0.0
  0
LINE
  5
484
100
AcDbEntity
  8
0
390
0
  6
CENTER
 62
     1
100
AcDbLine
 10
128.69957
 20
146.967237
 30
0.0
 11
83.69957
 21
146.967237
 31
0.0
  0
LINE
  5
485
100
AcDbEntity
  8
0
390
0
  6
CENTER
 62
     1
100
AcDbLine
 10
220.18288
 20
88.967237
 30
0.0
 11
175.18288
 21
88.967237
 31
0.0
  0
LINE
  5
486
100
AcDbEntity
  8
0
390
0
  6
CENTER
 62
     1
100
AcDbLine
 10
185.18288
 20
116.067237
 30
0.0
 11
185.18288
 21
97.467237
 31
0.0
  0
LINE
  5
487
100
AcDbEntity
  8
0
390
0
  6
CENTER
 62
     1
100
AcDbLine
 10
118.69957
 20
174.067237
 30
0.0
 11
118.69957
 21
155.467237
 31
0.0
  0
DIMENSION
  5
488
100
AcDbEntity
  8
0
390
0
100
AcDbDimension
  2
*D12
 10
245.114212
 20
101.467237
 30
0.0
 11
241.482962
 21
88.967237
 31
0.0
 71
     5
 72
     1
 41
1.0
 42
0.0
  3
Standard
100
AcDbAlignedDimension
 13
216.18288
 23
101.467237
 33
0.0
 14
216.18288
 24
76.467237
 34
0.0
 50
270.0
100
AcDbRotatedDimension
1001
ACAD
1000
DSTYLE
1002
{
1070
    47
1040
0.0
1070
    71
1070
     1
1070
    48
1040
0.0
1070
    71
1070
     1
1070
     3
1000
%%c<>H8
1070
   271
1070
     1
1070
   179
1070
     1
1002
}
  0
DIMENSION
  5
49B
100
AcDbEntity
  8
0
390
0
100
AcDbDimension
  2
*D13
 10
159.670844
 20
112.067237
 30
0.0
 11
156.361754
 21
88.967237
 31
0.0
 71
     5
 72
     1
 41
1.0
 42
0.0
  3
Standard
100
AcDbAlignedDimension
 13
179.18288
 23
112.067237
 33
0.0
 14
179.18288
 24
65.867237
 34
0.0
 50
270.0
100
AcDbRotatedDimension
1001
ACAD
1000
DSTYLE
1002
{
1070
     3
1000
%%c<>
1070
   271
1070
     1
1070
   179
1070
     1
1002
}
  0
DIMENSION
  5
4AD
100
AcDbEntity
  8
0
390
0
100
AcDbDimension
  2
*D14
 10
254.396833
 20
116.467237
 30
0.0
 11
251.087743
 21
88.967237
 31
0.0
 71
     5
 72
     1
 41
1.0
 42
0.0
  3
Standard
100
AcDbAlignedDimension
 13
216.68288
 23
116.467237
 33
0.0
 14
216.68288
 24
61.467237
 34
0.0
 50
270.0
100
AcDbRotatedDimension
1001
ACAD
1000
DSTYLE
1002
{
1070
    47
1040
0.3
1070
    71
1070
     1
1070
    48
1040
0.3
1070
    71
1070
     1
1070
     3
1000
%%c<>
1070
   271
1070
     1
1070
   179
1070
     1
1002
}
  0
INSERT
  5
4CA
100
AcDbEntity
  8
0
390
0
100
AcDbBlockReference
  2
AID2093
 10
0.0
 20
0.0
 30
0.0
  0
INSERT
  5
4D6
100
AcDbEntity
  8
0
390
0
100
AcDbBlockReference
  2
AID2099
 10
0.0
 20
0.0
 30
0.0
  0
DIMENSION
  5
4D7
100
AcDbEntity
  8
0
390
0
100
AcDbDimension
  2
*D17
 10
87.19957
 20
193.39352
 30
0.0
 11
106.19957
 21
196.54352
 31
0.0
 71
     5
 72
     1
 41
1.0
 42
0.0
  3
Standard
100
AcDbAlignedDimension
 13
87.19957
 23
174.467237
 33
0.0
 14
125.19957
 24
169.567237
 34
0.0
100
AcDbRotatedDimension
1001
ACAD
1000
DSTYLE
1002
{
1070
    47
1040
0.3
1070
    71
1070
     1
1070
    48
1040
0.3
1070
    71
1070
     1
1070
   271
1070
     1
1070
   179
1070
     1
1002
}
  0
DIMENSION
  5
4E9
100
AcDbEntity
  8
0
390
0
100
AcDbDimension
  2
*D18
 10
87.19957
 20
179.999333
 30
0.0
 11
99.69957
 21
183.149333
 31
0.0
 71
     5
 72
     1
 41
1.0
 42
0.0
  3
Standard
100
AcDbAlignedDimension
 13
87.19957
 23
174.467237
 33
0.0
 14
112.19957
 24
174.467237
 34
0.0
100
AcDbRotatedDimension
1001
ACAD
1000
DSTYLE
1002
{
1070
   271
1070
     1
1070
   179
1070
     1
1002
}
  0
DIMENSION
  5
4FB
100
AcDbEntity
  8
0
390
0
100
AcDbDimension
  2
*D19
 10
87.19957
 20
186.977099
 30
0.0
 11
102.94957
 21
190.127099
 31
0.0
 71
     5
 72
     1
 41
1.0
 42
0.0
  3
Standard
100
AcDbAlignedDimension
 13
118.69957
 23
174.067237
 33
0.0
 14
87.19957
 24
174.467237
 34
0.0
100
AcDbRotatedDimension
1001
ACAD
1000
DSTYLE
1002
{
1070
   271
1070
     1
1070
   179
1070
     1
1002
}
  0
DIMENSION
  5
50D
100
AcDbEntity
  8
0
390
0
100
AcDbDimension
  2
*D20
 10
114.699575
 20
179.999333
 30
0.0
 11
134.34502
 21
183.141379
 31
0.0
 71
     5
 72
     1
 41
1.0
 42
0.0
  3
Standard
100
AcDbAlignedDimension
 13
114.699575
 23
170.067237
 33
0.0
 14
122.699565
 24
170.067237
 34
0.0
100
AcDbRotatedDimension
1001
ACAD
1000
DSTYLE
1002
{
1070
     3
1000
2 -M<>
1070
   280
1040
0.0
1070
   271
1070
     0
1070
   179
1070
     0
1002
}
  0
DIMENSION
  5
51F
100
AcDbEntity
  8
0
390
0
100
AcDbDimension
  2
*D21
 10
94.329363
 20
92.837444
 30
0.0
 11
91.950109
 21
95.216698
 31
0.0
 70
     5
 71
     5
 72
     1
 41
1.0
 42
0.0
210
0.0
220
0.0
230
1.0
  3
Standard
100
AcDb3PointAngularDimension
 13
98.19957
 23
94.440537
 33
0.0
 14
92.726271
 24
88.967237
 34
0.0
 15
98.19957
 25
88.967237
 35
0.0
1001
ACAD
1000
DSTYLE
1002
{
1070
   271
1070
     1
1070
   179
1070
     1
1002
}
  0
INSERT
  5
536
100
AcDbEntity
  8
0
390
0
100
AcDbBlockReference
  2
AID2143
 10
0.0
 20
0.0
 30
0.0
  0
POINT
  5
537
100
AcDbEntity
  8
0
390
0
 62
     7
100
AcDbPoint
 10
104.382028
 20
72.286521
 30
0.0
  0
POINT
  5
538
100
AcDbEntity
  8
0
390
0
 62
     7
100
AcDbPoint
 10
98.19957
 20
116.467237
 30
0.0
  0
DIMENSION
  5
539
100
AcDbEntity
  8
0
390
0
100
AcDbDimension
  2
*D23
 10
62.621655
 20
119.467237
 30
0.0
 11
59.47961
 21
127.246783
 31
0.0
 71
     5
 72
     1
 41
1.0
 42
0.0
  1
AG
  3
Standard
100
AcDbAlignedDimension
 13
99.69957
 23
119.467237
 33
0.0
 14
98.19957
 24
116.467237
 34
0.0
 50
270.0
100
AcDbRotatedDimension
1001
ACAD
1000
DSTYLE
1002
{
1070
   280
1040
0.0
1070
   271
1070
     1
1070
   179
1070
     1
1002
}
  0
INSERT
  5
556
100
AcDbEntity
  8
0
390
0
100
AcDbBlockReference
  2
AID2165
 10
0.0
 20
0.0
 30
0.0
  0
LINE
  5
557
100
AcDbEntity
  8
0
390
0
  6
DOT
 62
     2
100
AcDbLine
 10
102.199575
 20
109.787508
 30
0.0
 11
94.199565
 21
109.787508
 31
0.0
  0
LINE
  5
558
100
AcDbEntity
  8
0
390
0
  6
DOT
 62
     2
100
AcDbLine
 10
94.82457
 20
109.787508
 30
0.0
 11
94.199565
 21
109.787508
 31
0.0
  0
LINE
  5
559
100
AcDbEntity
  8
0
390
0
  6
DOT
 62
     2
100
AcDbLine
 10
102.199575
 20
109.787508
 30
0.0
 11
101.57457
 21
109.787508
 31
0.0
  0
LINE
  5
55A
100
AcDbEntity
  8
0
390
0
  6
DOT
 62
     2
100
AcDbLine
 10
122.69957
 20
146.967237
 30
0.0
 11
122.689197
 21
146.679349
 31
0.0
  0
LINE
  5
55B
100
AcDbEntity
  8
0
390
0
  6
DOT
 62
     2
100
AcDbLine
 10
87.69957
 20
169.967237
 30
0.0
 11
87.69957
 21
146.967237
 31
0.0
  0
LINE
  5
55C
100
AcDbEntity
  8
0
390
0
  6
DOT
 62
     2
100
AcDbLine
 10
87.69957
 20
146.967237
 30
0.0
 11
87.69957
 21
123.967237
 31
0.0
  0
CIRCLE
  5
55D
100
AcDbEntity
  8
0
390
0
  6
DOT
 62
     2
100
AcDbCircle
 10
98.19957
 20
88.967237
 30
0.0
 40
22.5
210
0.0
220
0.0
230
1.0
  0
LINE
  5
55E
100
AcDbEntity
  8
0
390
0
  6
DOT
 62
     2
100
AcDbLine
 10
87.69957
 20
169.967237
 30
0.0
 11
87.19957
 21
169.467237
 31
0.0
  0
LINE
  5
55F
100
AcDbEntity
  8
0
390
0
  6
DOT
 62
     2
100
AcDbLine
 10
87.19957
 20
124.467237
 30
0.0
 11
87.69957
 21
123.967237
 31
0.0
  0
LINE
  5
560
100
AcDbEntity
  8
0
390
0
  6
DOT
 62
     2
100
AcDbLine
 10
189.182885
 20
109.787508
 30
0.0
 11
181.182875
 21
109.787508
 31
0.0
  0
ARC
  5
561
100
AcDbEntity
  8
0
390
0
  6
DOT
 62
     2
100
AcDbCircle
 10
185.18288
 20
113.316051
 30
0.0
 40
12.505773
210
0.0
220
0.0
230
1.0
100
AcDbArc
 50
251.346033
 51
288.653967
  0
CIRCLE
  5
562
100
AcDbEntity
  8
0
390
0
  6
DOT
 62
     2
100
AcDbCircle
 10
205.68288
 20
146.967237
 30
0.0
 40
22.5
210
0.0
220
0.0
230
1.0
  0
LINE
  5
563
100
AcDbEntity
  8
0
390
0
  6
DOT
 62
     2
100
AcDbLine
 10
186.337581
 20
110.632807
 30
0.0
 11
186.451256
 21
110.68524
 31
0.0
  0
LINE
  5
564
100
AcDbEntity
  8
0
390
0
  6
DOT
 62
     2
100
AcDbLine
 10
182.873479
 20
110.632807
 30
0.0
 11
182.987154
 21
110.68524
 31
0.0
  0
LINE
  5
565
100
AcDbEntity
  8
0
390
0
  6
DOT
 62
     2
100
AcDbLine
 10
216.18288
 20
65.967237
 30
0.0
 11
216.18288
 21
111.967237
 31
0.0
  0
LINE
  5
566
100
AcDbEntity
  8
0
390
0
  6
DOT
 62
     2
100
AcDbLine
 10
189.182875
 20
109.787527
 30
0.0
 11
189.182875
 21
112.067237
 31
0.0
  0
LINE
  5
567
100
AcDbEntity
  8
0
390
0
  6
DOT
 62
     2
100
AcDbLine
 10
216.18288
 20
65.967237
 30
0.0
 11
216.68288
 21
66.467237
 31
0.0
  0
LINE
  5
568
100
AcDbEntity
  8
0
390
0
  6
DOT
 62
     2
100
AcDbLine
 10
216.68288
 20
111.467237
 30
0.0
 11
216.18288
 21
111.967237
 31
0.0
  0
ENDSEC
  0
SECTION
  2
OBJECTS
  0
DICTIONARY
  5
19
100
AcDbDictionary
280
     0
281
     1
  3
ACAD_GROUP
350
1A
  3
ACAD_MLINESTYLE
350
1B
  3
ACAD_LAYOUT
350
1E
  3
ACAD_PLOTSETTINGS
350
22
  3
ACAD_PLOTSTYLENAME
350
1F
  3
ACAD_WIPEOUT_VARS
350
23
  0
DICTIONARY
  5
1A
102
{ACAD_REACTORS
330
19
102
}
100
AcDbDictionary
280
     0
281
     1
  0
DICTIONARY
  5
1B
102
{ACAD_REACTORS
330
19
102
}
100
AcDbDictionary
280
     0
281
     1
  3
Standard
350
1C
  0
MLINESTYLE
  5
1C
102
{ACAD_REACTORS
330
1B
102
}
100
AcDbMlineStyle
  2
Standard
 70
     0
  3

 62
     0
 51
90.0
 52
90.0
 71
     2
 49
0.5
 62
   256
  6
ByLayer
 49
-0.5
 62
   256
  6
ByLayer
  0
ACDBDICTIONARYWDFLT
  5
1F
102
{ACAD_REACTORS
330
19
102
}
100
AcDbDictionary
281
     1
  3
Normal
350
1D
100
AcDbDictionaryWithDefault
340
1D
  0
ACDBPLACEHOLDER
  5
1D
102
{ACAD_REACTORS
330
1F
102
}
  0
LAYOUT
  5
20
102
{ACAD_REACTORS
330
1E
102
}
100
AcDbPlotSettings
  1

  2

  4

  6

 40
0.0
 41
0.0
 42
0.0
 43
0.0
 44
0.0
 45
0.0
 46
0.0
 47
0.0
 48
0.0
 49
0.0
140
0.0
141
0.0
142
1.0
143
1.0
 70
  1024
 72
     0
 73
     0
 74
     0
  7

 75
     0
147
1.0
148
0.0
149
0.0
100
AcDbLayout
  1
Model
 70
     0
 71
     1
 10
0.0
 20
0.0
 11
0.0
 21
0.0
 12
0.0
 22
0.0
 32
0.0
 14
0.0
 24
0.0
 34
0.0
 15
0.0
 25
0.0
 35
0.0
146
0.0
 13
0.0
 23
0.0
 33
0.0
 16
0.0
 26
0.0
 36
0.0
 17
0.0
 27
0.0
 37
0.0
 76
     0
330
A
331
0
345
0
346
0
  0
LAYOUT
  5
21
102
{ACAD_REACTORS
330
1E
102
}
100
AcDbPlotSettings
  1

  2

  4

  6

 40
0.0
 41
0.0
 42
0.0
 43
0.0
 44
0.0
 45
0.0
 46
0.0
 47
0.0
 48
0.0
 49
0.0
140
0.0
141
0.0
142
1.0
143
1.0
 70
     0
 72
     0
 73
     0
 74
     0
  7

 75
     0
147
1.0
148
0.0
149
0.0
100
AcDbLayout
  1
Layout1
 70
     0
 71
     2
 10
0.0
 20
0.0
 11
0.0
 21
0.0
 12
0.0
 22
0.0
 32
0.0
 14
0.0
 24
0.0
 34
0.0
 15
0.0
 25
0.0
 35
0.0
146
0.0
 13
0.0
 23
0.0
 33
0.0
 16
0.0
 26
0.0
 36
0.0
 17
0.0
 27
0.0
 37
0.0
 76
     0
330
B
331
0
345
0
346
0
  0
DICTIONARY
  5
1E
102
{ACAD_REACTORS
330
19
102
}
100
AcDbDictionary
280
     0
281
     1
  3
Layout1
350
21
  3
Model
350
20
  0
DICTIONARY
  5
22
102
{ACAD_REACTORS
330
19
102
}
100
AcDbDictionary
280
     0
281
     1
  0
WIPEOUTVARIABLES
  5
23
100
AcDbWipeoutVariables
 70
     1
  0
ENDSEC
  0
EOF
