  0
SECTION
  2
HEADER
  9
$ACADVER
  1
AC1015
  9
$ACADMAINTVER
 70
     6
  9
$DWGCODEPAGE
  3
DOS932
  9
$INSBASE
 10
0.0
 20
0.0
 30
0.0
  9
$EXTMIN
 10
0.0
 20
0.0
 30
0.0
  9
$EXTMAX
 10
297.0
 20
200.0
 30
10.0
  9
$LIMMIN
 10
0.0
 20
0.0
  9
$LIMMAX
 10
297.0
 20
200.0
  9
$ORTHOMODE
 70
     0
  9
$REGENMODE
 70
     1
  9
$FILLMODE
 70
     1
  9
$QTEXTMODE
 70
     0
  9
$MIRRTEXT
 70
     1
  9
$LTSCALE
 40
10.0
  9
$ATTMODE
 70
     1
  9
$TEXTSIZE
 40
0.2
  9
$TRACEWID
 40
0.05
  9
$TEXTSTYLE
  7
Standard
  9
$CLAYER
  8
0
  9
$CELTYPE
  6
Continuous
  9
$CECOLOR
 62
   256
  9
$CELTSCALE
 40
1.0
  9
$DISPSILH
 70
     0
  9
$DIMSCALE
 40
1.0
  9
$DIMASZ
 40
1.05
  9
$DIMEXO
 40
1.05
  9
$DIMDLI
 40
0.38
  9
$DIMRND
 40
0.0
  9
$DIMDLE
 40
0.0
  9
$DIMEXE
 40
1.05
  9
$DIMTP
 40
0.0
  9
$DIMTM
 40
0.0
  9
$DIMTXT
 40
3.5
  9
$DIMCEN
 40
0.09
  9
$DIMTSZ
 40
0.0
  9
$DIMTOL
 70
     0
  9
$DIMLIM
 70
     0
  9
$DIMTIH
 70
     0
  9
$DIMTOH
 70
     0
  9
$DIMSE1
 70
     0
  9
$DIMSE2
 70
     0
  9
$DIMTAD
 70
     1
  9
$DIMZIN
 70
     0
  9
$DIMBLK
  1

  9
$DIMASO
 70
     1
  9
$DIMSHO
 70
     1
  9
$DIMPOST
  1

  9
$DIMAPOST
  1

  9
$DIMALT
 70
     0
  9
$DIMALTD
 70
     2
  9
$DIMALTF
 40
25.4
  9
$DIMLFAC
 40
1.0
  9
$DIMTOFL
 70
     0
  9
$DIMTVP
 40
0.0
  9
$DIMTIX
 70
     0
  9
$DIMSOXD
 70
     0
  9
$DIMSAH
 70
     0
  9
$DIMBLK1
  1

  9
$DIMBLK2
  1

  9
$DIMSTYLE
  2
Standard
  9
$DIMCLRD
 70
     7
  9
$DIMCLRE
 70
     7
  9
$DIMCLRT
 70
     7
  9
$DIMTFAC
 40
0.5
  9
$DIMGAP
 40
1.75
  9
$DIMJUST
 70
     0
  9
$DIMSD1
 70
     0
  9
$DIMSD2
 70
     0
  9
$DIMTOLJ
 70
     1
  9
$DIMTZIN
 70
     0
  9
$DIMALTZ
 70
     0
  9
$DIMALTTZ
 70
     0
  9
$DIMUPT
 70
     0
  9
$DIMDEC
 70
     1
  9
$DIMTDEC
 70
     4
  9
$DIMALTU
 70
     2
  9
$DIMALTTD
 70
     2
  9
$DIMTXSTY
  7
Standard
  9
$DIMAUNIT
 70
     0
  9
$DIMADEC
 70
     0
  9
$DIMALTRND
 40
0.0
  9
$DIMAZIN
 70
     0
  9
$DIMDSEP
 70
     0
  9
$DIMATFIT
 70
     3
  9
$DIMFRAC
 70
     0
  9
$DIMLDRBLK
  1

  9
$DIMLUNIT
 70
     2
  9
$DIMLWD
 70
     0
  9
$DIMLWE
 70
     0
  9
$DIMTMOVE
 70
     0
  9
$LUNITS
 70
     2
  9
$LUPREC
 70
     4
  9
$SKETCHINC
 40
0.1
  9
$FILLETRAD
 40
0.0
  9
$AUNITS
 70
     0
  9
$AUPREC
 70
     0
  9
$MENU
  1
acad
  9
$ELEVATION
 40
0.0
  9
$PELEVATION
 40
0.0
  9
$THICKNESS
 40
0.0
  9
$LIMCHECK
 70
     0
  9
$CHAMFERA
 40
0.0
  9
$CHAMFERB
 40
0.0
  9
$CHAMFERC
 40
0.0
  9
$CHAMFERD
 40
0.0
  9
$SKPOLY
 70
     0
  9
$TDCREATE
 40
2458393.369687500
  9
$TDUCREATE
 40
0.000000000
  9
$TDUPDATE
 40
2458392.994421296
  9
$TDUUPDATE
 40
0.000000000
  9
$TDINDWG
 40
0.0000000000
  9
$TDUSRTIMER
 40
0.0000000000
  9
$USRTIMER
 70
     1
  9
$ANGBASE
 50
0.0
  9
$ANGDIR
 70
     0
  9
$PDMODE
 70
     0
  9
$PDSIZE
 40
0.0
  9
$PLINEWID
 40
0.0
  9
$SPLFRAME
 70
     0
  9
$SPLINETYPE
 70
     6
  9
$SPLINESEGS
 70
     8
  9
$HANDSEED
  5
7D2
  9
$SURFTAB1
 70
     6
  9
$SURFTAB2
 70
     6
  9
$SURFTYPE
 70
     6
  9
$SURFU
 70
     6
  9
$SURFV
 70
     6
  9
$UCSBASE
  2

  9
$UCSNAME
  2

  9
$UCSORG
 10
0.0
 20
0.0
 30
0.0
  9
$UCSXDIR
 10
1.0
 20
0.0
 30
0.0
  9
$UCSYDIR
 10
0.0
 20
1.0
 30
0.0
  9
$UCSORTHOREF
  2

  9
$UCSORTHOVIEW
 70
     0
  9
$UCSORGTOP
 10
0.0
 20
0.0
 30
0.0
  9
$UCSORGBOTTOM
 10
0.0
 20
0.0
 30
0.0
  9
$UCSORGLEFT
 10
0.0
 20
0.0
 30
0.0
  9
$UCSORGRIGHT
 10
0.0
 20
0.0
 30
0.0
  9
$UCSORGFRONT
 10
0.0
 20
0.0
 30
0.0
  9
$UCSORGBACK
 10
0.0
 20
0.0
 30
0.0
  9
$PUCSBASE
  2

  9
$PUCSNAME
  2

  9
$PUCSORG
 10
0.0
 20
0.0
 30
0.0
  9
$PUCSXDIR
 10
1.0
 20
0.0
 30
0.0
  9
$PUCSYDIR
 10
0.0
 20
1.0
 30
0.0
  9
$PUCSORTHOREF
  2

  9
$PUCSORTHOVIEW
 70
     0
  9
$PUCSORGTOP
 10
0.0
 20
0.0
 30
0.0
  9
$PUCSORGBOTTOM
 10
0.0
 20
0.0
 30
0.0
  9
$PUCSORGLEFT
 10
0.0
 20
0.0
 30
0.0
  9
$PUCSORGRIGHT
 10
0.0
 20
0.0
 30
0.0
  9
$PUCSORGFRONT
 10
0.0
 20
0.0
 30
0.0
  9
$PUCSORGBACK
 10
0.0
 20
0.0
 30
0.0
  9
$USERI1
 70
     0
  9
$USERI2
 70
     0
  9
$USERI3
 70
     0
  9
$USERI4
 70
     0
  9
$USERI5
 70
     0
  9
$USERR1
 40
0.0
  9
$USERR2
 40
0.0
  9
$USERR3
 40
0.0
  9
$USERR4
 40
0.0
  9
$USERR5
 40
0.0
  9
$WORLDVIEW
 70
     1
  9
$SHADEDGE
 70
     3
  9
$SHADEDIF
 70
    70
  9
$TILEMODE
 70
     1
  9
$MAXACTVP
 70
    16
  9
$PINSBASE
 10
0.0
 20
0.0
 30
0.0
  9
$PLIMCHECK
 70
     0
  9
$PEXTMIN
 10
1.000000E+20
 20
1.000000E+20
 30
1.000000E+20
  9
$PEXTMAX
 10
-1.000000E+20
 20
-1.000000E+20
 30
-1.000000E+20
  9
$PLIMMIN
 10
0.0
 20
0.0
  9
$PLIMMAX
 10
12.0
 20
9.0
  9
$UNITMODE
 70
     0
  9
$VISRETAIN
 70
     0
  9
$PLINEGEN
 70
     1
  9
$PSLTSCALE
 70
     0
  9
$TREEDEPTH
 70
  3020
  9
$CMLSTYLE
  2
Standard
  9
$CMLJUST
 70
     0
  9
$CMLSCALE
 40
1.0
  9
$PROXYGRAPHICS
 70
     0
  9
$MEASUREMENT
 70
     1
  9
$CELWEIGHT
370
     0
  9
$ENDCAPS
280
     0
  9
$JOINSTYLE
280
     0
  9
$LWDISPLAY
290
     0
  9
$INSUNITS
 70
     0
  9
$HYPERLINKBASE
  1

  9
$STYLESHEET
  1

  9
$XEDIT
290
     1
  9
$CEPSNTYPE
380
     0
  9
$PSTYLEMODE
290
     1
  9
$FINGERPRINTGUID
  2

  9
$VERSIONGUID
  2

  9
$EXTNAMES
290
     1
  9
$PSVPSCALE
 40
0.0
  0
ENDSEC
  0
SECTION
  2
CLASSES
  0
CLASS
  1
LWPOLYLINE
  2
AcDbPolyline
  3
AutoCAD 2000
 90
        0
280
     0
281
     1
  0
CLASS
  1
IMAGE
  2
AcDbRasterImage
  3
ISM
 90
      127
280
     0
281
     1
  0
CLASS
  1
OLE2FRAME
  2
AcDbOle2Frame
  3
AutoCAD 2000
 90
        0
280
     0
281
     1
  0
CLASS
  1
HATCH
  2
AcDbHatch
  3
AutoCAD 2000
 90
        0
280
     0
281
     1
  0
CLASS
  1
DICTIONARYVAR
  2
AcDbDictionaryVar
  3
AutoCAD 2000
 90
        0
280
     0
281
     0
  0
CLASS
  1
RASTERVARIABLES
  2
AcDbRasterVariables
  3
ISM
 90
        0
280
     0
281
     0
  0
CLASS
  1
IMAGEDEF
  2
AcDbRasterImageDef
  3
ISM
 90
        0
280
     0
281
     0
  0
CLASS
  1
IMAGEDEF_REACTOR
  2
AcDbRasterImageDefReactor
  3
ISM
 90
        1
280
     0
281
     0
  0
CLASS
  1
IDBUFFER
  2
AcDbIdBuffer
  3
AutoCAD 2000
 90
        0
280
     0
281
     0
  0
CLASS
  1
SPATIAL_FILTER
  2
AcDbSpatialFilter
  3
AutoCAD 2000
 90
        0
280
     0
281
     0
  0
CLASS
  1
XRECORD
  2
AcDbXrecord
  3
AutoCAD 2000
 90
        0
280
     0
281
     0
  0
CLASS
  1
SORTENTSTABLE
  2
AcDbSortentsTable
  3
AutoCAD 2000
 90
        0
280
     0
281
     0
  0
CLASS
  1
LAYER_INDEX
  2
AcDbLayerIndex
  3
AutoCAD 2000
 90
        0
280
     0
281
     0
  0
CLASS
  1
SPATIAL_INDEX
  2
AcDbSpatialIndex
  3
AutoCAD 2000
 90
        0
280
     0
281
     0
  0
CLASS
  1
OBJECT_PTR
  2
CAseDLPNTableRecord
  3
"ASE-LPNTableRecord"
 90
        1
280
     0
281
     0
  0
CLASS
  1
LAYOUT
  2
AcDbLayout
  3
AutoCAD 2000
 90
        0
280
     0
281
     0
  0
CLASS
  1
PLOTSETTINGS
  2
AcDbPlotSettings
  3
AutoCAD 2000
 90
        0
280
     0
281
     0
  0
CLASS
  1
ACDBDICTIONARYWDFLT
  2
AcDbDictionaryWithDefault
  3
AutoCAD 2000
 90
        0
280
     0
281
     0
  0
CLASS
  1
ACDBPLACEHOLDER
  2
AcDbPlaceHolder
  3
AutoCAD 2000
 90
        0
280
     0
281
     0
  0
CLASS
  1
VBA_PROJECT
  2
AcDbVbaProject
  3
acadvba
 90
        0
280
     0
281
     0
  0
CLASS
  1
WIPEOUT
  2
AcDbWipeout
  3
WipeOut|AutoCAD Express Tool|expresstools@autodesk.com
 90
      127
280
     0
281
     1
  0
CLASS
  1
WIPEOUTVARIABLES
  2
AcDbWipeoutVariables
  3
WipeOut|AutoCAD Express Tool|expresstools@autodesk.com
 90
        0
280
     0
281
     0
  0
CLASS
  1
RTEXT
  2
RText
  3
RText|AutoCAD Express Tool|expresstools@autodesk.com
 90
        0
280
     0
281
     1
  0
CLASS
  1
ARCALIGNEDTEXT
  2
AcDbArcAlignedText
  3
ATEXT|AutoCAD Express Tool|expresstools@autodesk.com
 90
        0
280
     0
281
     1
  0
ENDSEC
  0
SECTION
  2
TABLES
  0
TABLE
  2
VPORT
  5
7
100
AcDbSymbolTable
 70
     1
  0
VPORT
  5
15
100
AcDbSymbolTableRecord
100
AcDbViewportTableRecord
  2
*ACTIVE
 70
     0
 10
0.0
 20
0.0
 11
1.0
 21
1.0
 12
6.591288
 22
4.579184
 13
0.0
 23
0.0
 14
1.0
 24
1.0
 15
0.0
 25
0.0
 16
0.0
 26
0.0
 36
1.0
 17
0.0
 27
0.0
 37
0.0
 40
9.158369
 41
0.688564
 42
50.0
 43
0.0
 44
0.0
 50
0.0
 51
0.0
 71
     0
 72
   100
 73
     1
 74
     1
 75
     0
 76
     0
 77
     0
 78
     0
281
     0
 65
     0
110
0.0
120
0.0
130
0.0
111
1.0
121
0.0
131
0.0
112
0.0
122
1.0
132
0.0
345
0
346
0
 79
     0
146
0.0
  0
ENDTAB
  0
TABLE
  2
LTYPE
  5
4
100
AcDbSymbolTable
 70
     5
  0
LTYPE
  5
11
100
AcDbSymbolTableRecord
100
AcDbLinetypeTableRecord
  2
ByBlock
 70
    64
  3

 72
    65
 73
     0
 40
0.0
  0
LTYPE
  5
12
100
AcDbSymbolTableRecord
100
AcDbLinetypeTableRecord
  2
ByLayer
 70
    64
  3

 72
    65
 73
     0
 40
0.0
  0
LTYPE
  5
13
100
AcDbSymbolTableRecord
100
AcDbLinetypeTableRecord
  2
Continuous
 70
    64
  3
Solid line
 72
    65
 73
     0
 40
0.0
  0
LTYPE
  5
10B
100
AcDbSymbolTableRecord
100
AcDbLinetypeTableRecord
  2
CENTER
 70
    64
  3
____ _ ____ _ ____ _ ____ _ ____ _ ____ _ ____
 72
    65
 73
     4
 40
2.0
 49
1.25
 74
     0
 49
-0.25
 74
     0
 49
0.25
 74
     0
 49
-0.25
 74
     0
  0
LTYPE
  5
2D4
100
AcDbSymbolTableRecord
100
AcDbLinetypeTableRecord
  2
DOT
 70
    64
  3
..............................................
 72
    65
 73
     2
 40
0.5
 49
0.25
 74
     0
 49
-0.25
 74
     0
  0
ENDTAB
  0
TABLE
  2
LAYER
  5
2
100
AcDbSymbolTable
 70
     1
  0
LAYER
  5
14
100
AcDbSymbolTableRecord
100
AcDbLayerTableRecord
  2
0
 70
     0
 62
     7
  6
Continuous
290
     1
370
    -3
390
1D
  0
ENDTAB
  0
TABLE
  2
STYLE
  5
3
100
AcDbSymbolTable
 70
     2
  0
STYLE
  5
17
100
AcDbSymbolTableRecord
100
AcDbTextStyleTableRecord
  2
Standard
 70
     0
 40
0.0
 41
1.0
 50
0.0
 71
     0
 42
0.0
  3
ＭＳ Ｐゴシック
  4

1001
ACAD
1000
ＭＳ Ｐゴシック
1071
        1
  0
STYLE
  5
166
100
AcDbSymbolTableRecord
100
AcDbTextStyleTableRecord
  2
TopStyle2
 70
     0
 40
0.0
 41
1.0
 50
0.0
 71
     0
 42
0.0
  3
HG丸ｺﾞｼｯｸM-PRO
  4

1001
ACAD
1000
HG丸ｺﾞｼｯｸM-PRO
1071
        2
  0
ENDTAB
  0
TABLE
  2
VIEW
  5
5
100
AcDbSymbolTable
 70
     0
  0
ENDTAB
  0
TABLE
  2
UCS
  5
6
100
AcDbSymbolTable
 70
     0
  0
ENDTAB
  0
TABLE
  2
APPID
  5
8
100
AcDbSymbolTable
 70
     2
  0
APPID
  5
16
100
AcDbSymbolTableRecord
100
AcDbRegAppTableRecord
  2
ACAD
 70
     0
  0
APPID
  5
26
100
AcDbSymbolTableRecord
100
AcDbRegAppTableRecord
  2
TOPsolid_Draft
 70
     0
  0
ENDTAB
  0
TABLE
  2
DIMSTYLE
  5
9
100
AcDbSymbolTable
 70
     1
100
AcDbDimStyleTable
 71
     0
  0
DIMSTYLE
105
18
100
AcDbSymbolTableRecord
100
AcDbDimStyleTableRecord
  2
Standard
 70
     0
  3

  4

 40
1.0
 41
1.05
 42
1.05
 43
0.38
 44
1.05
 45
0.0
 46
0.0
 47
0.0
 48
0.0
 71
     0
 72
     0
 73
     0
 74
     0
 75
     0
 76
     0
 77
     1
 78
     0
 79
     0
140
3.5
141
0.09
142
0.0
143
25.4
144
1.0
145
0.0
146
0.5
147
1.75
148
0.0
170
     0
171
     2
172
     0
173
     0
174
     0
175
     0
176
     7
177
     7
178
     7
179
     0
271
     1
272
     4
273
     2
274
     2
275
     0
276
     0
277
     2
278
    46
279
     0
280
     0
281
     0
282
     0
283
     1
284
     0
285
     0
286
     0
288
     0
289
     3
340
17
341
0
342
0
343
0
344
0
371
    -2
372
    -2
  0
ENDTAB
  0
TABLE
  2
BLOCK_RECORD
  5
1
100
AcDbSymbolTable
 70
    39
  0
BLOCK_RECORD
  5
A
100
AcDbSymbolTableRecord
100
AcDbBlockTableRecord
  2
*MODEL_SPACE
340
20
  0
BLOCK_RECORD
  5
B
100
AcDbSymbolTableRecord
100
AcDbBlockTableRecord
  2
*PAPER_SPACE
340
21
  0
BLOCK_RECORD
  5
27
100
AcDbSymbolTableRecord
100
AcDbBlockTableRecord
  2
$DFT_DRAWING
340
0
102
{BLKREFS
331
58
102
}
  0
BLOCK_RECORD
  5
29
100
AcDbSymbolTableRecord
100
AcDbBlockTableRecord
  2
$DFT_DRAWING950
340
0
102
{BLKREFS
331
56
102
}
  0
BLOCK_RECORD
  5
59
100
AcDbSymbolTableRecord
100
AcDbBlockTableRecord
  2
AID85
340
0
102
{BLKREFS
331
80
102
}
  0
BLOCK_RECORD
  5
8E
100
AcDbSymbolTableRecord
100
AcDbBlockTableRecord
  2
AID185
340
0
102
{BLKREFS
331
B8
102
}
  0
BLOCK_RECORD
  5
C1
100
AcDbSymbolTableRecord
100
AcDbBlockTableRecord
  2
AID280
340
0
102
{BLKREFS
331
CA
102
}
  0
BLOCK_RECORD
  5
CB
100
AcDbSymbolTableRecord
100
AcDbBlockTableRecord
  2
AID285
340
0
102
{BLKREFS
331
D4
102
}
  0
BLOCK_RECORD
  5
D5
100
AcDbSymbolTableRecord
100
AcDbBlockTableRecord
  2
AID290
340
0
102
{BLKREFS
331
DE
102
}
  0
BLOCK_RECORD
  5
DF
100
AcDbSymbolTableRecord
100
AcDbBlockTableRecord
  2
AID295
340
0
102
{BLKREFS
331
E8
102
}
  0
BLOCK_RECORD
  5
E9
100
AcDbSymbolTableRecord
100
AcDbBlockTableRecord
  2
AID300
340
0
102
{BLKREFS
331
F2
102
}
  0
BLOCK_RECORD
  5
101
100
AcDbSymbolTableRecord
100
AcDbBlockTableRecord
  2
AID333
340
0
102
{BLKREFS
331
10F
102
}
  0
BLOCK_RECORD
  5
112
100
AcDbSymbolTableRecord
100
AcDbBlockTableRecord
  2
AID349
340
0
102
{BLKREFS
331
124
102
}
  0
BLOCK_RECORD
  5
169
100
AcDbSymbolTableRecord
100
AcDbBlockTableRecord
  2
AID514
340
0
102
{BLKREFS
331
2D1
102
}
  0
BLOCK_RECORD
  5
2E4
100
AcDbSymbolTableRecord
100
AcDbBlockTableRecord
  2
AID1266
340
0
102
{BLKREFS
331
2F8
102
}
  0
BLOCK_RECORD
  5
30D
100
AcDbSymbolTableRecord
100
AcDbBlockTableRecord
  2
AID1326
340
0
102
{BLKREFS
331
311
102
}
  0
BLOCK_RECORD
  5
329
100
AcDbSymbolTableRecord
100
AcDbBlockTableRecord
  2
AID1378
340
0
102
{BLKREFS
331
331
102
}
  0
BLOCK_RECORD
  5
333
100
AcDbSymbolTableRecord
100
AcDbBlockTableRecord
  2
AID1392
340
0
102
{BLKREFS
331
33B
102
}
  0
BLOCK_RECORD
  5
33E
100
AcDbSymbolTableRecord
100
AcDbBlockTableRecord
  2
*D16
340
0
  0
BLOCK_RECORD
  5
350
100
AcDbSymbolTableRecord
100
AcDbBlockTableRecord
  2
*D17
340
0
  0
BLOCK_RECORD
  5
375
100
AcDbSymbolTableRecord
100
AcDbBlockTableRecord
  2
*D18
340
0
  0
BLOCK_RECORD
  5
388
100
AcDbSymbolTableRecord
100
AcDbBlockTableRecord
  2
*D19
340
0
  0
BLOCK_RECORD
  5
39A
100
AcDbSymbolTableRecord
100
AcDbBlockTableRecord
  2
*D20
340
0
  0
BLOCK_RECORD
  5
3AC
100
AcDbSymbolTableRecord
100
AcDbBlockTableRecord
  2
*D21
340
0
  0
BLOCK_RECORD
  5
3BE
100
AcDbSymbolTableRecord
100
AcDbBlockTableRecord
  2
*D22
340
0
  0
BLOCK_RECORD
  5
3D0
100
AcDbSymbolTableRecord
100
AcDbBlockTableRecord
  2
*D23
340
0
  0
BLOCK_RECORD
  5
3E2
100
AcDbSymbolTableRecord
100
AcDbBlockTableRecord
  2
*D24
340
0
  0
BLOCK_RECORD
  5
3F4
100
AcDbSymbolTableRecord
100
AcDbBlockTableRecord
  2
*D25
340
0
  0
BLOCK_RECORD
  5
594
100
AcDbSymbolTableRecord
100
AcDbBlockTableRecord
  2
*D26
340
0
  0
BLOCK_RECORD
  5
692
100
AcDbSymbolTableRecord
100
AcDbBlockTableRecord
  2
*D27
340
0
  0
BLOCK_RECORD
  5
6A4
100
AcDbSymbolTableRecord
100
AcDbBlockTableRecord
  2
*D28
340
0
  0
BLOCK_RECORD
  5
6B6
100
AcDbSymbolTableRecord
100
AcDbBlockTableRecord
  2
*D29
340
0
  0
BLOCK_RECORD
  5
6C8
100
AcDbSymbolTableRecord
100
AcDbBlockTableRecord
  2
*D30
340
0
  0
BLOCK_RECORD
  5
77B
100
AcDbSymbolTableRecord
100
AcDbBlockTableRecord
  2
AID2777
340
0
102
{BLKREFS
331
780
102
}
  0
BLOCK_RECORD
  5
781
100
AcDbSymbolTableRecord
100
AcDbBlockTableRecord
  2
AID2783
340
0
102
{BLKREFS
331
786
102
}
  0
BLOCK_RECORD
  5
788
100
AcDbSymbolTableRecord
100
AcDbBlockTableRecord
  2
*D33
340
0
  0
BLOCK_RECORD
  5
79A
100
AcDbSymbolTableRecord
100
AcDbBlockTableRecord
  2
*D34
340
0
  0
BLOCK_RECORD
  5
7A9
100
AcDbSymbolTableRecord
100
AcDbBlockTableRecord
  2
AID2803
340
0
102
{BLKREFS
331
7B2
102
}
  0
BLOCK_RECORD
  5
7B3
100
AcDbSymbolTableRecord
100
AcDbBlockTableRecord
  2
AID2809
340
0
102
{BLKREFS
331
7BC
102
}
  0
BLOCK_RECORD
  5
7BD
100
AcDbSymbolTableRecord
100
AcDbBlockTableRecord
  2
AID2815
340
0
102
{BLKREFS
331
7C6
102
}
  0
BLOCK_RECORD
  5
7C7
100
AcDbSymbolTableRecord
100
AcDbBlockTableRecord
  2
AID2821
340
0
102
{BLKREFS
331
7D0
102
}
  0
ENDTAB
  0
ENDSEC
  0
SECTION
  2
BLOCKS
  0
BLOCK
  5
D
100
AcDbEntity
  8
0
390
0
100
AcDbBlockBegin
  2
*MODEL_SPACE
 70
     0
 10
0.0
 20
0.0
 30
0.0
  3
*MODEL_SPACE
  1

  0
ENDBLK
  5
E
100
AcDbEntity
  8
0
390
0
100
AcDbBlockEnd
  0
BLOCK
  5
F
100
AcDbEntity
 67
     1
  8
0
390
0
100
AcDbBlockBegin
  2
*PAPER_SPACE
 70
     0
 10
0.0
 20
0.0
 30
0.0
  3
*PAPER_SPACE
  1

  0
ENDBLK
  5
10
100
AcDbEntity
 67
     1
  8
0
390
0
100
AcDbBlockEnd
  0
BLOCK
  5
28
100
AcDbEntity
  8
0
390
0
100
AcDbBlockBegin
  2
$DFT_DRAWING
 70
     0
 10
0.0
 20
0.0
 30
0.0
  3
D_FRAME_DRAWING
  1

  0
INSERT
  5
56
100
AcDbEntity
  8
0
390
0
100
AcDbBlockReference
  2
$DFT_DRAWING950
 10
0.0
 20
0.0
 30
0.0
  0
ENDBLK
  5
57
100
AcDbEntity
  8
0
390
0
100
AcDbBlockEnd
  0
BLOCK
  5
2A
100
AcDbEntity
  8
0
390
0
100
AcDbBlockBegin
  2
$DFT_DRAWING950
 70
     0
 10
0.0
 20
0.0
 30
0.0
  3
#draft drawing
  1

  0
LINE
  5
2B
100
AcDbEntity
  8
0
390
0
  6
Continuous
 62
     8
100
AcDbLine
 10
10.0
 20
10.0
 30
0.0
 11
287.0
 21
10.0
 31
0.0
  0
LINE
  5
2C
100
AcDbEntity
  8
0
390
0
  6
Continuous
 62
     8
100
AcDbLine
 10
287.0
 20
10.0
 30
0.0
 11
287.0
 21
200.0
 31
0.0
  0
LINE
  5
2D
100
AcDbEntity
  8
0
390
0
  6
Continuous
 62
     8
100
AcDbLine
 10
287.0
 20
200.0
 30
0.0
 11
10.0
 21
200.0
 31
0.0
  0
LINE
  5
2E
100
AcDbEntity
  8
0
390
0
  6
Continuous
 62
     8
100
AcDbLine
 10
10.0
 20
200.0
 30
0.0
 11
10.0
 21
10.0
 31
0.0
  0
LINE
  5
2F
100
AcDbEntity
  8
0
390
0
  6
Continuous
 62
     8
100
AcDbLine
 10
74.25
 20
200.0
 30
0.0
 11
74.25
 21
205.0
 31
0.0
  0
MTEXT
  5
30
100
AcDbEntity
  8
0
390
0
 62
     8
100
AcDbMText
 10
37.125
 20
205.0
 30
0.0
 40
3.5
 41
0.408333
 71
     2
 72
     1
  1
1
210
0.0
220
0.0
230
1.0
 73
     1
 44
1.0
  0
LINE
  5
31
100
AcDbEntity
  8
0
390
0
  6
Continuous
 62
     8
100
AcDbLine
 10
74.25
 20
10.0
 30
0.0
 11
74.25
 21
5.0
 31
0.0
  0
MTEXT
  5
32
100
AcDbEntity
  8
0
390
0
 62
     8
100
AcDbMText
 10
37.125
 20
5.0
 30
0.0
 40
3.5
 41
0.408333
 71
     8
 72
     1
  1
1
210
0.0
220
0.0
230
1.0
 73
     1
 44
1.0
  0
LINE
  5
33
100
AcDbEntity
  8
0
390
0
  6
Continuous
 62
     8
100
AcDbLine
 10
148.5
 20
200.0
 30
0.0
 11
148.5
 21
205.0
 31
0.0
  0
MTEXT
  5
34
100
AcDbEntity
  8
0
390
0
 62
     8
100
AcDbMText
 10
111.375
 20
205.0
 30
0.0
 40
3.5
 41
2.547222
 71
     2
 72
     1
  1
2
210
0.0
220
0.0
230
1.0
 73
     1
 44
1.0
  0
LINE
  5
35
100
AcDbEntity
  8
0
390
0
  6
Continuous
 62
     8
100
AcDbLine
 10
222.75
 20
200.0
 30
0.0
 11
222.75
 21
205.0
 31
0.0
  0
MTEXT
  5
36
100
AcDbEntity
  8
0
390
0
 62
     8
100
AcDbMText
 10
185.625
 20
205.0
 30
0.0
 40
3.5
 41
2.723437
 71
     2
 72
     1
  1
3
210
0.0
220
0.0
230
1.0
 73
     1
 44
1.0
  0
LINE
  5
37
100
AcDbEntity
  8
0
390
0
  6
Continuous
 62
     8
100
AcDbLine
 10
222.75
 20
10.0
 30
0.0
 11
222.75
 21
5.0
 31
0.0
  0
MTEXT
  5
38
100
AcDbEntity
  8
0
390
0
 62
     8
100
AcDbMText
 10
259.875
 20
205.0
 30
0.0
 40
3.5
 41
2.716146
 71
     2
 72
     1
  1
4
210
0.0
220
0.0
230
1.0
 73
     1
 44
1.0
  0
MTEXT
  5
39
100
AcDbEntity
  8
0
390
0
 62
     8
100
AcDbMText
 10
259.875
 20
5.0
 30
0.0
 40
3.5
 41
2.716146
 71
     8
 72
     1
  1
4
210
0.0
220
0.0
230
1.0
 73
     1
 44
1.0
  0
LINE
  5
3A
100
AcDbEntity
  8
0
390
0
  6
Continuous
 62
     8
100
AcDbLine
 10
287.0
 20
157.5
 30
0.0
 11
292.0
 21
157.5
 31
0.0
  0
MTEXT
  5
3B
100
AcDbEntity
  8
0
390
0
 62
     8
100
AcDbMText
 10
292.0
 20
183.75
 30
0.0
 40
3.5
 41
3.137923
 71
     6
 72
     1
  1
A
210
0.0
220
0.0
230
1.0
 73
     1
 44
1.0
  0
LINE
  5
3C
100
AcDbEntity
  8
0
390
0
  6
Continuous
 62
     8
100
AcDbLine
 10
10.0
 20
157.5
 30
0.0
 11
5.0
 21
157.5
 31
0.0
  0
MTEXT
  5
3D
100
AcDbEntity
  8
0
390
0
 62
     8
100
AcDbMText
 10
5.0
 20
183.75
 30
0.0
 40
3.5
 41
3.137923
 71
     4
 72
     1
  1
A
210
0.0
220
0.0
230
1.0
 73
     1
 44
1.0
  0
LINE
  5
3E
100
AcDbEntity
  8
0
390
0
  6
Continuous
 62
     8
100
AcDbLine
 10
287.0
 20
105.0
 30
0.0
 11
292.0
 21
105.0
 31
0.0
  0
MTEXT
  5
3F
100
AcDbEntity
  8
0
390
0
 62
     8
100
AcDbMText
 10
292.0
 20
131.25
 30
0.0
 40
3.5
 41
2.527778
 71
     6
 72
     1
  1
B
210
0.0
220
0.0
230
1.0
 73
     1
 44
1.0
  0
LINE
  5
40
100
AcDbEntity
  8
0
390
0
  6
Continuous
 62
     8
100
AcDbLine
 10
10.0
 20
105.0
 30
0.0
 11
5.0
 21
105.0
 31
0.0
  0
MTEXT
  5
41
100
AcDbEntity
  8
0
390
0
 62
     8
100
AcDbMText
 10
5.0
 20
131.25
 30
0.0
 40
3.5
 41
2.527778
 71
     4
 72
     1
  1
B
210
0.0
220
0.0
230
1.0
 73
     1
 44
1.0
  0
LINE
  5
42
100
AcDbEntity
  8
0
390
0
  6
Continuous
 62
     8
100
AcDbLine
 10
287.0
 20
52.5
 30
0.0
 11
292.0
 21
52.5
 31
0.0
  0
MTEXT
  5
43
100
AcDbEntity
  8
0
390
0
 62
     8
100
AcDbMText
 10
292.0
 20
78.75
 30
0.0
 40
3.5
 41
2.966797
 71
     6
 72
     1
  1
C
210
0.0
220
0.0
230
1.0
 73
     1
 44
1.0
  0
LINE
  5
44
100
AcDbEntity
  8
0
390
0
  6
Continuous
 62
     8
100
AcDbLine
 10
10.0
 20
52.5
 30
0.0
 11
5.0
 21
52.5
 31
0.0
  0
MTEXT
  5
45
100
AcDbEntity
  8
0
390
0
 62
     8
100
AcDbMText
 10
5.0
 20
78.75
 30
0.0
 40
3.5
 41
2.966797
 71
     4
 72
     1
  1
C
210
0.0
220
0.0
230
1.0
 73
     1
 44
1.0
  0
MTEXT
  5
46
100
AcDbEntity
  8
0
390
0
 62
     8
100
AcDbMText
 10
292.0
 20
26.25
 30
0.0
 40
3.5
 41
2.722222
 71
     6
 72
     1
  1
D
210
0.0
220
0.0
230
1.0
 73
     1
 44
1.0
  0
MTEXT
  5
47
100
AcDbEntity
  8
0
390
0
 62
     8
100
AcDbMText
 10
5.0
 20
26.25
 30
0.0
 40
3.5
 41
2.722222
 71
     4
 72
     1
  1
D
210
0.0
220
0.0
230
1.0
 73
     1
 44
1.0
  0
LINE
  5
48
100
AcDbEntity
  8
0
390
0
  6
Continuous
 62
     8
100
AcDbLine
 10
148.5
 20
10.0
 30
0.0
 11
148.5
 21
5.0
 31
0.0
  0
LINE
  5
49
100
AcDbEntity
  8
0
390
0
  6
Continuous
 62
     8
100
AcDbLine
 10
158.5
 20
10.0
 30
0.0
 11
158.5
 21
5.0
 31
0.0
  0
LINE
  5
4A
100
AcDbEntity
  8
0
390
0
  6
Continuous
 62
     8
100
AcDbLine
 10
138.5
 20
10.0
 30
0.0
 11
138.5
 21
5.0
 31
0.0
  0
LINE
  5
4B
100
AcDbEntity
  8
0
390
0
  6
Continuous
 62
     8
100
AcDbLine
 10
168.5
 20
10.0
 30
0.0
 11
168.5
 21
5.0
 31
0.0
  0
LINE
  5
4C
100
AcDbEntity
  8
0
390
0
  6
Continuous
 62
     8
100
AcDbLine
 10
128.5
 20
10.0
 30
0.0
 11
128.5
 21
5.0
 31
0.0
  0
LINE
  5
4D
100
AcDbEntity
  8
0
390
0
  6
Continuous
 62
     8
100
AcDbLine
 10
178.5
 20
10.0
 30
0.0
 11
178.5
 21
5.0
 31
0.0
  0
LINE
  5
4E
100
AcDbEntity
  8
0
390
0
  6
Continuous
 62
     8
100
AcDbLine
 10
118.5
 20
10.0
 30
0.0
 11
118.5
 21
5.0
 31
0.0
  0
LINE
  5
4F
100
AcDbEntity
  8
0
390
0
  6
Continuous
 62
     8
100
AcDbLine
 10
188.5
 20
10.0
 30
0.0
 11
188.5
 21
5.0
 31
0.0
  0
LINE
  5
50
100
AcDbEntity
  8
0
390
0
  6
Continuous
 62
     8
100
AcDbLine
 10
108.5
 20
10.0
 30
0.0
 11
108.5
 21
5.0
 31
0.0
  0
LINE
  5
51
100
AcDbEntity
  8
0
390
0
  6
Continuous
 62
     8
100
AcDbLine
 10
198.5
 20
10.0
 30
0.0
 11
198.5
 21
5.0
 31
0.0
  0
LINE
  5
52
100
AcDbEntity
  8
0
390
0
  6
Continuous
 62
     8
100
AcDbLine
 10
98.5
 20
10.0
 30
0.0
 11
98.5
 21
5.0
 31
0.0
  0
LINE
  5
53
100
AcDbEntity
  8
0
390
0
  6
Continuous
 62
     8
100
AcDbLine
 10
198.5
 20
10.0
 30
0.0
 11
98.5
 21
10.0
 31
0.0
  0
LINE
  5
54
100
AcDbEntity
  8
0
390
0
  6
Continuous
 62
     8
100
AcDbLine
 10
198.5
 20
5.0
 30
0.0
 11
98.5
 21
5.0
 31
0.0
  0
ENDBLK
  5
55
100
AcDbEntity
  8
0
390
0
100
AcDbBlockEnd
  0
BLOCK
  5
5A
100
AcDbEntity
  8
0
390
0
100
AcDbBlockBegin
  2
AID85
 70
     0
 10
0.0
 20
0.0
 30
0.0
  3
#draft border with alignment
  1

  0
LINE
  5
5B
100
AcDbEntity
  8
0
390
0
  6
Continuous
 62
     7
100
AcDbLine
 10
172.0
 20
10.0
 30
0.0
 11
287.0
 21
10.0
 31
0.0
  0
LINE
  5
5C
100
AcDbEntity
  8
0
390
0
  6
Continuous
 62
     7
100
AcDbLine
 10
172.0
 20
58.0
 30
0.0
 11
287.0
 21
58.0
 31
0.0
  0
LINE
  5
5D
100
AcDbEntity
  8
0
390
0
  6
Continuous
 62
     7
100
AcDbLine
 10
172.0
 20
10.0
 30
0.0
 11
172.0
 21
58.0
 31
0.0
  0
LINE
  5
5E
100
AcDbEntity
  8
0
390
0
  6
Continuous
 62
     7
100
AcDbLine
 10
287.0
 20
10.0
 30
0.0
 11
287.0
 21
58.0
 31
0.0
  0
LINE
  5
5F
100
AcDbEntity
  8
0
390
0
  6
Continuous
 62
     9
100
AcDbLine
 10
287.0
 20
51.856682
 30
0.0
 11
172.0
 21
51.856682
 31
0.0
  0
LINE
  5
60
100
AcDbEntity
  8
0
390
0
  6
Continuous
 62
     9
100
AcDbLine
 10
287.0
 20
40.642313
 30
0.0
 11
172.0
 21
40.642313
 31
0.0
  0
LINE
  5
61
100
AcDbEntity
  8
0
390
0
  6
Continuous
 62
     9
100
AcDbLine
 10
287.0
 20
36.542169
 30
0.0
 11
172.0
 21
36.542169
 31
0.0
  0
LINE
  5
62
100
AcDbEntity
  8
0
390
0
  6
Continuous
 62
     9
100
AcDbLine
 10
287.0
 20
28.480012
 30
0.0
 11
172.0
 21
28.480012
 31
0.0
  0
LINE
  5
63
100
AcDbEntity
  8
0
390
0
  6
Continuous
 62
     9
100
AcDbLine
 10
191.06501
 20
10.0
 30
0.0
 11
191.06501
 21
28.480012
 31
0.0
  0
LINE
  5
64
100
AcDbEntity
  8
0
390
0
  6
Continuous
 62
     9
100
AcDbLine
 10
210.163182
 20
10.0
 30
0.0
 11
210.163182
 21
28.480012
 31
0.0
  0
LINE
  5
65
100
AcDbEntity
  8
0
390
0
  6
Continuous
 62
     9
100
AcDbLine
 10
229.261081
 20
10.0
 30
0.0
 11
229.261081
 21
28.480012
 31
0.0
  0
LINE
  5
66
100
AcDbEntity
  8
0
390
0
  6
Continuous
 62
     9
100
AcDbLine
 10
287.0
 20
21.382604
 30
0.0
 11
229.261081
 21
21.382604
 31
0.0
  0
LINE
  5
67
100
AcDbEntity
  8
0
390
0
  6
Continuous
 62
     9
100
AcDbLine
 10
248.767874
 20
21.382604
 30
0.0
 11
248.767874
 21
28.480012
 31
0.0
  0
LINE
  5
68
100
AcDbEntity
  8
0
390
0
  6
Continuous
 62
     9
100
AcDbLine
 10
229.261081
 20
24.671098
 30
0.0
 11
210.163182
 21
24.671098
 31
0.0
  0
LINE
  5
69
100
AcDbEntity
  8
0
390
0
  6
Continuous
 62
     9
100
AcDbLine
 10
210.163182
 20
24.668855
 30
0.0
 11
191.06501
 21
24.668855
 31
0.0
  0
LINE
  5
6A
100
AcDbEntity
  8
0
390
0
  6
Continuous
 62
     9
100
AcDbLine
 10
191.06501
 20
24.668855
 30
0.0
 11
172.0
 21
24.668855
 31
0.0
  0
LINE
  5
6B
100
AcDbEntity
  8
0
390
0
  6
Continuous
 62
     9
100
AcDbLine
 10
191.06501
 20
28.480012
 30
0.0
 11
191.06501
 21
36.542169
 31
0.0
  0
LINE
  5
6C
100
AcDbEntity
  8
0
390
0
  6
Continuous
 62
     9
100
AcDbLine
 10
210.163182
 20
28.480012
 30
0.0
 11
210.163182
 21
36.542169
 31
0.0
  0
LINE
  5
6D
100
AcDbEntity
  8
0
390
0
  6
Continuous
 62
     9
100
AcDbLine
 10
229.261081
 20
28.480012
 30
0.0
 11
229.261081
 21
36.542169
 31
0.0
  0
LINE
  5
6E
100
AcDbEntity
  8
0
390
0
  6
Continuous
 62
     9
100
AcDbLine
 10
248.767874
 20
28.480012
 30
0.0
 11
248.767874
 21
36.542169
 31
0.0
  0
LINE
  5
6F
100
AcDbEntity
  8
0
390
0
  6
Continuous
 62
     9
100
AcDbLine
 10
267.887786
 20
28.480012
 30
0.0
 11
267.887786
 21
36.542169
 31
0.0
  0
LINE
  5
70
100
AcDbEntity
  8
0
390
0
  6
Continuous
 62
     9
100
AcDbLine
 10
191.06501
 20
36.542169
 30
0.0
 11
191.06501
 21
40.642313
 31
0.0
  0
LINE
  5
71
100
AcDbEntity
  8
0
390
0
  6
Continuous
 62
     9
100
AcDbLine
 10
210.163182
 20
36.542169
 30
0.0
 11
210.163182
 21
40.642313
 31
0.0
  0
LINE
  5
72
100
AcDbEntity
  8
0
390
0
  6
Continuous
 62
     9
100
AcDbLine
 10
229.261081
 20
36.542169
 30
0.0
 11
229.261081
 21
40.642313
 31
0.0
  0
LINE
  5
73
100
AcDbEntity
  8
0
390
0
  6
Continuous
 62
     9
100
AcDbLine
 10
248.767874
 20
36.542169
 30
0.0
 11
248.767874
 21
40.642313
 31
0.0
  0
LINE
  5
74
100
AcDbEntity
  8
0
390
0
  6
Continuous
 62
     9
100
AcDbLine
 10
267.887786
 20
36.542169
 30
0.0
 11
267.887786
 21
40.642313
 31
0.0
  0
LINE
  5
75
100
AcDbEntity
  8
0
390
0
  6
Continuous
 62
     9
100
AcDbLine
 10
189.056259
 20
40.642313
 30
0.0
 11
189.056259
 21
51.856682
 31
0.0
  0
LINE
  5
76
100
AcDbEntity
  8
0
390
0
  6
Continuous
 62
     9
100
AcDbLine
 10
229.258465
 20
40.642313
 30
0.0
 11
229.258465
 21
51.856682
 31
0.0
  0
LINE
  5
77
100
AcDbEntity
  8
0
390
0
  6
Continuous
 62
     9
100
AcDbLine
 10
247.674009
 20
40.642313
 30
0.0
 11
247.674009
 21
51.856682
 31
0.0
  0
LINE
  5
78
100
AcDbEntity
  8
0
390
0
  6
Continuous
 62
     9
100
AcDbLine
 10
247.674009
 20
46.249498
 30
0.0
 11
287.0
 21
46.249498
 31
0.0
  0
LINE
  5
79
100
AcDbEntity
  8
0
390
0
  6
Continuous
 62
     9
100
AcDbLine
 10
229.258465
 20
46.249498
 30
0.0
 11
247.674009
 21
46.249498
 31
0.0
  0
LINE
  5
7A
100
AcDbEntity
  8
0
390
0
  6
Continuous
 62
     9
100
AcDbLine
 10
189.056259
 20
46.249498
 30
0.0
 11
229.258465
 21
46.249498
 31
0.0
  0
LINE
  5
7B
100
AcDbEntity
  8
0
390
0
  6
Continuous
 62
     9
100
AcDbLine
 10
172.0
 20
46.249498
 30
0.0
 11
189.056259
 21
46.249498
 31
0.0
  0
LINE
  5
7C
100
AcDbEntity
  8
0
390
0
  6
Continuous
 62
     9
100
AcDbLine
 10
189.056015
 20
51.856682
 30
0.0
 11
189.056015
 21
58.0
 31
0.0
  0
LINE
  5
7D
100
AcDbEntity
  8
0
390
0
  6
Continuous
 62
     9
100
AcDbLine
 10
229.257297
 20
51.856682
 30
0.0
 11
229.257297
 21
58.0
 31
0.0
  0
LINE
  5
7E
100
AcDbEntity
  8
0
390
0
  6
Continuous
 62
     9
100
AcDbLine
 10
247.673427
 20
51.856682
 30
0.0
 11
247.673427
 21
58.0
 31
0.0
  0
ENDBLK
  5
7F
100
AcDbEntity
  8
0
390
0
100
AcDbBlockEnd
  0
BLOCK
  5
8F
100
AcDbEntity
  8
0
390
0
100
AcDbBlockBegin
  2
AID185
 70
     0
 10
0.0
 20
0.0
 30
0.0
  3
#draft border with alignment
  1

  0
LINE
  5
90
100
AcDbEntity
  8
0
390
0
  6
Continuous
 62
     7
100
AcDbLine
 10
88.0
 20
10.0
 30
0.0
 11
172.0
 21
10.0
 31
0.0
  0
LINE
  5
91
100
AcDbEntity
  8
0
390
0
  6
Continuous
 62
     7
100
AcDbLine
 10
88.0
 20
43.99
 30
0.0
 11
172.0
 21
43.99
 31
0.0
  0
LINE
  5
92
100
AcDbEntity
  8
0
390
0
  6
Continuous
 62
     7
100
AcDbLine
 10
88.0
 20
10.0
 30
0.0
 11
88.0
 21
43.99
 31
0.0
  0
LINE
  5
93
100
AcDbEntity
  8
0
390
0
  6
Continuous
 62
     7
100
AcDbLine
 10
172.0
 20
10.0
 30
0.0
 11
172.0
 21
43.99
 31
0.0
  0
LINE
  5
94
100
AcDbEntity
  8
0
390
0
  6
Continuous
 62
     9
100
AcDbLine
 10
88.0
 20
15.665
 30
0.0
 11
172.0
 21
15.665
 31
0.0
  0
LINE
  5
95
100
AcDbEntity
  8
0
390
0
  6
Continuous
 62
     9
100
AcDbLine
 10
88.0
 20
21.33
 30
0.0
 11
172.0
 21
21.33
 31
0.0
  0
LINE
  5
96
100
AcDbEntity
  8
0
390
0
  6
Continuous
 62
     9
100
AcDbLine
 10
88.0
 20
26.995
 30
0.0
 11
172.0
 21
26.995
 31
0.0
  0
LINE
  5
97
100
AcDbEntity
  8
0
390
0
  6
Continuous
 62
     9
100
AcDbLine
 10
88.0
 20
32.66
 30
0.0
 11
172.0
 21
32.66
 31
0.0
  0
LINE
  5
98
100
AcDbEntity
  8
0
390
0
  6
Continuous
 62
     9
100
AcDbLine
 10
88.0
 20
38.325
 30
0.0
 11
172.0
 21
38.325
 31
0.0
  0
LINE
  5
99
100
AcDbEntity
  8
0
390
0
  6
Continuous
 62
     9
100
AcDbLine
 10
162.664654
 20
10.0
 30
0.0
 11
162.664654
 21
15.665
 31
0.0
  0
LINE
  5
9A
100
AcDbEntity
  8
0
390
0
  6
Continuous
 62
     9
100
AcDbLine
 10
153.324515
 20
10.0
 30
0.0
 11
153.324515
 21
15.665
 31
0.0
  0
LINE
  5
9B
100
AcDbEntity
  8
0
390
0
  6
Continuous
 62
     9
100
AcDbLine
 10
143.986913
 20
10.0
 30
0.0
 11
143.986913
 21
15.665
 31
0.0
  0
LINE
  5
9C
100
AcDbEntity
  8
0
390
0
  6
Continuous
 62
     9
100
AcDbLine
 10
97.742741
 20
10.0
 30
0.0
 11
97.742741
 21
15.665
 31
0.0
  0
LINE
  5
9D
100
AcDbEntity
  8
0
390
0
  6
Continuous
 62
     9
100
AcDbLine
 10
128.983997
 20
10.0
 30
0.0
 11
128.983997
 21
15.665
 31
0.0
  0
LINE
  5
9E
100
AcDbEntity
  8
0
390
0
  6
Continuous
 62
     9
100
AcDbLine
 10
162.664654
 20
15.665
 30
0.0
 11
162.664654
 21
21.33
 31
0.0
  0
LINE
  5
9F
100
AcDbEntity
  8
0
390
0
  6
Continuous
 62
     9
100
AcDbLine
 10
153.324515
 20
15.665
 30
0.0
 11
153.324515
 21
21.33
 31
0.0
  0
LINE
  5
A0
100
AcDbEntity
  8
0
390
0
  6
Continuous
 62
     9
100
AcDbLine
 10
143.986913
 20
15.665
 30
0.0
 11
143.986913
 21
21.33
 31
0.0
  0
LINE
  5
A1
100
AcDbEntity
  8
0
390
0
  6
Continuous
 62
     9
100
AcDbLine
 10
97.742741
 20
15.665
 30
0.0
 11
97.742741
 21
21.33
 31
0.0
  0
LINE
  5
A2
100
AcDbEntity
  8
0
390
0
  6
Continuous
 62
     9
100
AcDbLine
 10
128.983997
 20
15.665
 30
0.0
 11
128.983997
 21
21.33
 31
0.0
  0
LINE
  5
A3
100
AcDbEntity
  8
0
390
0
  6
Continuous
 62
     9
100
AcDbLine
 10
162.664654
 20
21.33
 30
0.0
 11
162.664654
 21
26.995
 31
0.0
  0
LINE
  5
A4
100
AcDbEntity
  8
0
390
0
  6
Continuous
 62
     9
100
AcDbLine
 10
153.324515
 20
21.33
 30
0.0
 11
153.324515
 21
26.995
 31
0.0
  0
LINE
  5
A5
100
AcDbEntity
  8
0
390
0
  6
Continuous
 62
     9
100
AcDbLine
 10
143.986913
 20
21.33
 30
0.0
 11
143.986913
 21
26.995
 31
0.0
  0
LINE
  5
A6
100
AcDbEntity
  8
0
390
0
  6
Continuous
 62
     9
100
AcDbLine
 10
97.742741
 20
21.33
 30
0.0
 11
97.742741
 21
26.995
 31
0.0
  0
LINE
  5
A7
100
AcDbEntity
  8
0
390
0
  6
Continuous
 62
     9
100
AcDbLine
 10
128.983997
 20
21.33
 30
0.0
 11
128.983997
 21
26.995
 31
0.0
  0
LINE
  5
A8
100
AcDbEntity
  8
0
390
0
  6
Continuous
 62
     9
100
AcDbLine
 10
162.664654
 20
26.995
 30
0.0
 11
162.664654
 21
32.66
 31
0.0
  0
LINE
  5
A9
100
AcDbEntity
  8
0
390
0
  6
Continuous
 62
     9
100
AcDbLine
 10
153.324515
 20
26.995
 30
0.0
 11
153.324515
 21
32.66
 31
0.0
  0
LINE
  5
AA
100
AcDbEntity
  8
0
390
0
  6
Continuous
 62
     9
100
AcDbLine
 10
143.986913
 20
26.995
 30
0.0
 11
143.986913
 21
32.66
 31
0.0
  0
LINE
  5
AB
100
AcDbEntity
  8
0
390
0
  6
Continuous
 62
     9
100
AcDbLine
 10
97.742741
 20
26.995
 30
0.0
 11
97.742741
 21
32.66
 31
0.0
  0
LINE
  5
AC
100
AcDbEntity
  8
0
390
0
  6
Continuous
 62
     9
100
AcDbLine
 10
128.983997
 20
26.995
 30
0.0
 11
128.983997
 21
32.66
 31
0.0
  0
LINE
  5
AD
100
AcDbEntity
  8
0
390
0
  6
Continuous
 62
     9
100
AcDbLine
 10
162.664654
 20
32.66
 30
0.0
 11
162.664654
 21
38.325
 31
0.0
  0
LINE
  5
AE
100
AcDbEntity
  8
0
390
0
  6
Continuous
 62
     9
100
AcDbLine
 10
153.324515
 20
32.66
 30
0.0
 11
153.324515
 21
38.325
 31
0.0
  0
LINE
  5
AF
100
AcDbEntity
  8
0
390
0
  6
Continuous
 62
     9
100
AcDbLine
 10
143.986913
 20
32.66
 30
0.0
 11
143.986913
 21
38.325
 31
0.0
  0
LINE
  5
B0
100
AcDbEntity
  8
0
390
0
  6
Continuous
 62
     9
100
AcDbLine
 10
97.742741
 20
32.66
 30
0.0
 11
97.742741
 21
38.325
 31
0.0
  0
LINE
  5
B1
100
AcDbEntity
  8
0
390
0
  6
Continuous
 62
     9
100
AcDbLine
 10
128.983997
 20
32.66
 30
0.0
 11
128.983997
 21
38.325
 31
0.0
  0
LINE
  5
B2
100
AcDbEntity
  8
0
390
0
  6
Continuous
 62
     9
100
AcDbLine
 10
162.664654
 20
38.325
 30
0.0
 11
162.664654
 21
43.99
 31
0.0
  0
LINE
  5
B3
100
AcDbEntity
  8
0
390
0
  6
Continuous
 62
     9
100
AcDbLine
 10
153.324515
 20
38.325
 30
0.0
 11
153.324515
 21
43.99
 31
0.0
  0
LINE
  5
B4
100
AcDbEntity
  8
0
390
0
  6
Continuous
 62
     9
100
AcDbLine
 10
143.986913
 20
38.325
 30
0.0
 11
143.986913
 21
43.99
 31
0.0
  0
LINE
  5
B5
100
AcDbEntity
  8
0
390
0
  6
Continuous
 62
     9
100
AcDbLine
 10
97.742741
 20
38.325
 30
0.0
 11
97.742741
 21
43.99
 31
0.0
  0
LINE
  5
B6
100
AcDbEntity
  8
0
390
0
  6
Continuous
 62
     9
100
AcDbLine
 10
128.983997
 20
38.325
 30
0.0
 11
128.983997
 21
43.99
 31
0.0
  0
ENDBLK
  5
B7
100
AcDbEntity
  8
0
390
0
100
AcDbBlockEnd
  0
BLOCK
  5
C2
100
AcDbEntity
  8
0
390
0
100
AcDbBlockBegin
  2
AID280
 70
     0
 10
0.0
 20
0.0
 30
0.0
  3
D_GROUP
  1

  0
MTEXT
  5
C3
100
AcDbEntity
  8
0
390
0
 62
     2
100
AcDbMText
 10
90.370058
 20
17.216139
 30
0.0
 40
2.0
 41
0.963636
 71
     7
 72
     1
  1
1
210
0.0
220
0.0
230
1.0
 73
     1
 44
1.0
  0
POLYLINE
  5
C4
100
AcDbEntity
  8
0
390
0
  6
Continuous
 62
     2
100
AcDb2dPolyline
 66
     1
 10
0.0
 20
0.0
 30
0.0
 70
     1
 40
0.1
 41
0.1
  0
VERTEX
  5
C5
100
AcDbEntity
  8
0
390
0
 62
     2
100
AcDbVertex
100
AcDb2dVertex
 10
92.87137
 20
16.752503
 30
0.0
  0
VERTEX
  5
C6
100
AcDbEntity
  8
0
390
0
 62
     2
100
AcDbVertex
100
AcDb2dVertex
 10
90.856421
 20
20.242497
 30
0.0
  0
VERTEX
  5
C7
100
AcDbEntity
  8
0
390
0
 62
     2
100
AcDbVertex
100
AcDb2dVertex
 10
88.841472
 20
16.752503
 30
0.0
  0
SEQEND
  5
C8
100
AcDbEntity
  8
0
390
0
  0
ENDBLK
  5
C9
100
AcDbEntity
  8
0
390
0
100
AcDbBlockEnd
  0
BLOCK
  5
CC
100
AcDbEntity
  8
0
390
0
100
AcDbBlockBegin
  2
AID285
 70
     0
 10
0.0
 20
0.0
 30
0.0
  3
D_GROUP
  1

  0
MTEXT
  5
CD
100
AcDbEntity
  8
0
390
0
 62
     2
100
AcDbMText
 10
90.051876
 20
22.697343
 30
0.0
 40
2.0
 41
1.854545
 71
     7
 72
     1
  1
2
210
0.0
220
0.0
230
1.0
 73
     1
 44
1.0
  0
POLYLINE
  5
CE
100
AcDbEntity
  8
0
390
0
  6
Continuous
 62
     2
100
AcDb2dPolyline
 66
     1
 10
0.0
 20
0.0
 30
0.0
 70
     1
 40
0.1
 41
0.1
  0
VERTEX
  5
CF
100
AcDbEntity
  8
0
390
0
 62
     2
100
AcDbVertex
100
AcDb2dVertex
 10
92.87137
 20
22.224615
 30
0.0
  0
VERTEX
  5
D0
100
AcDbEntity
  8
0
390
0
 62
     2
100
AcDbVertex
100
AcDb2dVertex
 10
90.633694
 20
26.100385
 30
0.0
  0
VERTEX
  5
D1
100
AcDbEntity
  8
0
390
0
 62
     2
100
AcDbVertex
100
AcDb2dVertex
 10
88.396018
 20
22.224615
 30
0.0
  0
SEQEND
  5
D2
100
AcDbEntity
  8
0
390
0
  0
ENDBLK
  5
D3
100
AcDbEntity
  8
0
390
0
100
AcDbBlockEnd
  0
BLOCK
  5
D6
100
AcDbEntity
  8
0
390
0
100
AcDbBlockBegin
  2
AID290
 70
     0
 10
0.0
 20
0.0
 30
0.0
  3
D_GROUP
  1

  0
MTEXT
  5
D7
100
AcDbEntity
  8
0
390
0
 62
     2
100
AcDbMText
 10
90.041379
 20
28.371434
 30
0.0
 40
2.0
 41
1.854545
 71
     7
 72
     1
  1
3
210
0.0
220
0.0
230
1.0
 73
     1
 44
1.0
  0
POLYLINE
  5
D8
100
AcDbEntity
  8
0
390
0
  6
Continuous
 62
     2
100
AcDb2dPolyline
 66
     1
 10
0.0
 20
0.0
 30
0.0
 70
     1
 40
0.1
 41
0.1
  0
VERTEX
  5
D9
100
AcDbEntity
  8
0
390
0
 62
     2
100
AcDbVertex
100
AcDb2dVertex
 10
92.87137
 20
27.880525
 30
0.0
  0
VERTEX
  5
DA
100
AcDbEntity
  8
0
390
0
 62
     2
100
AcDbVertex
100
AcDb2dVertex
 10
90.623197
 20
31.774475
 30
0.0
  0
VERTEX
  5
DB
100
AcDbEntity
  8
0
390
0
 62
     2
100
AcDbVertex
100
AcDb2dVertex
 10
88.375023
 20
27.880525
 30
0.0
  0
SEQEND
  5
DC
100
AcDbEntity
  8
0
390
0
  0
ENDBLK
  5
DD
100
AcDbEntity
  8
0
390
0
100
AcDbBlockEnd
  0
BLOCK
  5
E0
100
AcDbEntity
  8
0
390
0
100
AcDbBlockBegin
  2
AID295
 70
     0
 10
0.0
 20
0.0
 30
0.0
  3
D_GROUP
  1

  0
MTEXT
  5
E1
100
AcDbEntity
  8
0
390
0
 62
     2
100
AcDbMText
 10
90.006421
 20
33.991914
 30
0.0
 40
2.0
 41
2.018182
 71
     7
 72
     1
  1
4
210
0.0
220
0.0
230
1.0
 73
     1
 44
1.0
  0
POLYLINE
  5
E2
100
AcDbEntity
  8
0
390
0
  6
Continuous
 62
     2
100
AcDb2dPolyline
 66
     1
 10
0.0
 20
0.0
 30
0.0
 70
     1
 40
0.1
 41
0.1
  0
VERTEX
  5
E3
100
AcDbEntity
  8
0
390
0
 62
     2
100
AcDbVertex
100
AcDb2dVertex
 10
92.87137
 20
33.519187
 30
0.0
  0
VERTEX
  5
E4
100
AcDbEntity
  8
0
390
0
 62
     2
100
AcDbVertex
100
AcDb2dVertex
 10
90.592785
 20
37.465813
 30
0.0
  0
VERTEX
  5
E5
100
AcDbEntity
  8
0
390
0
 62
     2
100
AcDbVertex
100
AcDb2dVertex
 10
88.3142
 20
33.519187
 30
0.0
  0
SEQEND
  5
E6
100
AcDbEntity
  8
0
390
0
  0
ENDBLK
  5
E7
100
AcDbEntity
  8
0
390
0
100
AcDbBlockEnd
  0
BLOCK
  5
EA
100
AcDbEntity
  8
0
390
0
100
AcDbBlockBegin
  2
AID300
 70
     0
 10
0.0
 20
0.0
 30
0.0
  3
D_GROUP
  1

  0
MTEXT
  5
EB
100
AcDbEntity
  8
0
390
0
 62
     2
100
AcDbMText
 10
90.051876
 20
39.710525
 30
0.0
 40
2.0
 41
1.854545
 71
     7
 72
     1
  1
5
210
0.0
220
0.0
230
1.0
 73
     1
 44
1.0
  0
POLYLINE
  5
EC
100
AcDbEntity
  8
0
390
0
  6
Continuous
 62
     2
100
AcDb2dPolyline
 66
     1
 10
0.0
 20
0.0
 30
0.0
 70
     1
 40
0.1
 41
0.1
  0
VERTEX
  5
ED
100
AcDbEntity
  8
0
390
0
 62
     2
100
AcDbVertex
100
AcDb2dVertex
 10
92.87137
 20
39.219615
 30
0.0
  0
VERTEX
  5
EE
100
AcDbEntity
  8
0
390
0
 62
     2
100
AcDbVertex
100
AcDb2dVertex
 10
90.633694
 20
43.095385
 30
0.0
  0
VERTEX
  5
EF
100
AcDbEntity
  8
0
390
0
 62
     2
100
AcDbVertex
100
AcDb2dVertex
 10
88.396018
 20
39.219615
 30
0.0
  0
SEQEND
  5
F0
100
AcDbEntity
  8
0
390
0
  0
ENDBLK
  5
F1
100
AcDbEntity
  8
0
390
0
100
AcDbBlockEnd
  0
BLOCK
  5
102
100
AcDbEntity
  8
0
390
0
100
AcDbBlockBegin
  2
AID333
 70
     0
 10
0.0
 20
0.0
 30
0.0
  3
D_GROUP
  1

  0
CIRCLE
  5
103
100
AcDbEntity
  8
0
390
0
  6
Continuous
 62
     7
100
AcDbCircle
 10
234.514478
 20
32.511091
 30
0.0
 40
1.5
210
0.0
220
0.0
230
1.0
  0
CIRCLE
  5
104
100
AcDbEntity
  8
0
390
0
  6
Continuous
 62
     7
100
AcDbCircle
 10
234.514478
 20
32.511091
 30
0.0
 40
3.0
210
0.0
220
0.0
230
1.0
  0
POLYLINE
  5
105
100
AcDbEntity
  8
0
390
0
  6
Continuous
 62
     7
100
AcDb2dPolyline
 66
     1
 10
0.0
 20
0.0
 30
0.0
 70
     1
 40
0.1
 41
0.1
  0
VERTEX
  5
106
100
AcDbEntity
  8
0
390
0
 62
     7
100
AcDbVertex
100
AcDb2dVertex
 10
239.514478
 20
31.011091
 30
0.0
  0
VERTEX
  5
107
100
AcDbEntity
  8
0
390
0
 62
     7
100
AcDbVertex
100
AcDb2dVertex
 10
239.514478
 20
34.011091
 30
0.0
  0
VERTEX
  5
108
100
AcDbEntity
  8
0
390
0
 62
     7
100
AcDbVertex
100
AcDb2dVertex
 10
246.514478
 20
35.511091
 30
0.0
  0
VERTEX
  5
109
100
AcDbEntity
  8
0
390
0
 62
     7
100
AcDbVertex
100
AcDb2dVertex
 10
246.514478
 20
29.511091
 30
0.0
  0
SEQEND
  5
10A
100
AcDbEntity
  8
0
390
0
  0
LINE
  5
10C
100
AcDbEntity
  8
0
390
0
  6
CENTER
 62
     1
100
AcDbLine
 10
230.514478
 20
32.511091
 30
0.0
 11
247.514478
 21
32.511091
 31
0.0
  0
LINE
  5
10D
100
AcDbEntity
  8
0
390
0
  6
CENTER
 62
     1
100
AcDbLine
 10
234.514478
 20
28.511091
 30
0.0
 11
234.514478
 21
36.511091
 31
0.0
  0
ENDBLK
  5
10E
100
AcDbEntity
  8
0
390
0
100
AcDbBlockEnd
  0
BLOCK
  5
113
100
AcDbEntity
  8
0
390
0
100
AcDbBlockBegin
  2
AID349
 70
     0
 10
0.0
 20
0.0
 30
0.0
  3
#draft border with alignment
  1

  0
LINE
  5
114
100
AcDbEntity
  8
0
390
0
  6
Continuous
 62
     7
100
AcDbLine
 10
10.0
 20
10.0
 30
0.0
 11
88.0
 21
10.0
 31
0.0
  0
LINE
  5
115
100
AcDbEntity
  8
0
390
0
  6
Continuous
 62
     7
100
AcDbLine
 10
10.0
 20
43.99
 30
0.0
 11
88.0
 21
43.99
 31
0.0
  0
LINE
  5
116
100
AcDbEntity
  8
0
390
0
  6
Continuous
 62
     7
100
AcDbLine
 10
10.0
 20
10.0
 30
0.0
 11
10.0
 21
43.99
 31
0.0
  0
LINE
  5
117
100
AcDbEntity
  8
0
390
0
  6
Continuous
 62
     7
100
AcDbLine
 10
88.0
 20
10.0
 30
0.0
 11
88.0
 21
43.99
 31
0.0
  0
LINE
  5
118
100
AcDbEntity
  8
0
390
0
  6
Continuous
 62
     9
100
AcDbLine
 10
88.0
 20
37.089693
 30
0.0
 11
10.0
 21
37.089693
 31
0.0
  0
LINE
  5
119
100
AcDbEntity
  8
0
390
0
  6
Continuous
 62
     9
100
AcDbLine
 10
10.0
 20
13.869956
 30
0.0
 11
88.0
 21
13.869956
 31
0.0
  0
LINE
  5
11A
100
AcDbEntity
  8
0
390
0
  6
Continuous
 62
     9
100
AcDbLine
 10
10.0
 20
17.739912
 30
0.0
 11
88.0
 21
17.739912
 31
0.0
  0
LINE
  5
11B
100
AcDbEntity
  8
0
390
0
  6
Continuous
 62
     9
100
AcDbLine
 10
10.0
 20
21.609869
 30
0.0
 11
88.0
 21
21.609869
 31
0.0
  0
LINE
  5
11C
100
AcDbEntity
  8
0
390
0
  6
Continuous
 62
     9
100
AcDbLine
 10
10.0
 20
25.479825
 30
0.0
 11
88.0
 21
25.479825
 31
0.0
  0
LINE
  5
11D
100
AcDbEntity
  8
0
390
0
  6
Continuous
 62
     9
100
AcDbLine
 10
10.0
 20
29.349781
 30
0.0
 11
88.0
 21
29.349781
 31
0.0
  0
LINE
  5
11E
100
AcDbEntity
  8
0
390
0
  6
Continuous
 62
     9
100
AcDbLine
 10
10.0
 20
33.219737
 30
0.0
 11
88.0
 21
33.219737
 31
0.0
  0
LINE
  5
11F
100
AcDbEntity
  8
0
390
0
  6
Continuous
 62
     9
100
AcDbLine
 10
68.5
 20
10.0
 30
0.0
 11
68.5
 21
37.089693
 31
0.0
  0
LINE
  5
120
100
AcDbEntity
  8
0
390
0
  6
Continuous
 62
     9
100
AcDbLine
 10
49.0
 20
10.0
 30
0.0
 11
49.0
 21
37.089693
 31
0.0
  0
LINE
  5
121
100
AcDbEntity
  8
0
390
0
  6
Continuous
 62
     9
100
AcDbLine
 10
29.5
 20
10.0
 30
0.0
 11
29.5
 21
37.089693
 31
0.0
  0
LINE
  5
122
100
AcDbEntity
  8
0
390
0
  6
Continuous
 62
     9
100
AcDbLine
 10
49.0
 20
37.089693
 30
0.0
 11
49.0
 21
43.99
 31
0.0
  0
ENDBLK
  5
123
100
AcDbEntity
  8
0
390
0
100
AcDbBlockEnd
  0
BLOCK
  5
16A
100
AcDbEntity
  8
0
390
0
100
AcDbBlockBegin
  2
AID514
 70
     0
 10
0.0
 20
0.0
 30
0.0
  3
D_GROUP
  1

  0
LINE
  5
16B
100
AcDbEntity
  8
0
390
0
  6
Continuous
 62
     1
100
AcDbLine
 10
240.664325
 20
11.201902
 30
0.0
 11
240.664325
 21
13.105743
 31
0.0
  0
LINE
  5
16C
100
AcDbEntity
  8
0
390
0
  6
Continuous
 62
     1
100
AcDbLine
 10
240.95526
 20
12.523695
 30
0.0
 11
240.955259
 21
12.053134
 31
0.0
  0
ARC
  5
16D
100
AcDbEntity
  8
0
390
0
  6
Continuous
 62
     1
100
AcDbCircle
 10
241.582544
 20
12.269939
 30
0.0
 40
0.663695
210
0.0
220
0.0
230
1.0
100
AcDbArc
 50
199.066441
 51
267.345817
  0
ARC
  5
16E
100
AcDbEntity
  8
0
390
0
  6
Continuous
 62
     1
100
AcDbCircle
 10
241.554391
 20
12.140962
 30
0.0
 40
0.534012
210
0.0
220
0.0
230
1.0
100
AcDbArc
 50
269.722984
 51
320.258813
  0
ARC
  5
16F
100
AcDbEntity
  8
0
390
0
  6
Continuous
 62
     1
100
AcDbCircle
 10
241.405781
 20
12.254125
 30
0.0
 40
0.720676
210
0.0
220
0.0
230
1.0
100
AcDbArc
 50
320.894405
 51
2.749691
  0
ARC
  5
170
100
AcDbEntity
  8
0
390
0
  6
Continuous
 62
     1
100
AcDbCircle
 10
241.399479
 20
12.308293
 30
0.0
 40
0.726413
210
0.0
220
0.0
230
1.0
100
AcDbArc
 50
358.454215
 51
45.095683
  0
ARC
  5
171
100
AcDbEntity
  8
0
390
0
  6
Continuous
 62
     1
100
AcDbCircle
 10
241.546441
 20
12.44385
 30
0.0
 40
0.526722
210
0.0
220
0.0
230
1.0
100
AcDbArc
 50
46.009269
 51
89.41606
  0
ARC
  5
172
100
AcDbEntity
  8
0
390
0
  6
Continuous
 62
     1
100
AcDbCircle
 10
241.599959
 20
12.28464
 30
0.0
 40
0.687593
210
0.0
220
0.0
230
1.0
100
AcDbArc
 50
94.015492
 51
159.655151
  0
ARC
  5
173
100
AcDbEntity
  8
0
390
0
  6
Continuous
 62
     1
100
AcDbCircle
 10
240.81487
 20
13.08542
 30
0.0
 40
0.151911
210
0.0
220
0.0
230
1.0
100
AcDbArc
 50
91.936155
 51
172.312003
  0
ARC
  5
174
100
AcDbEntity
  8
0
390
0
  6
Continuous
 62
     1
100
AcDbCircle
 10
240.808489
 20
13.088609
 30
0.0
 40
0.148641
210
0.0
220
0.0
230
1.0
100
AcDbArc
 50
350.904155
 51
89.518465
  0
LINE
  5
175
100
AcDbEntity
  8
0
390
0
  6
Continuous
 62
     1
100
AcDbLine
 10
240.95526
 20
13.065111
 30
0.0
 11
240.95526
 21
12.940368
 31
0.0
  0
ARC
  5
176
100
AcDbEntity
  8
0
390
0
  6
Continuous
 62
     1
100
AcDbCircle
 10
241.583359
 20
12.425055
 30
0.0
 40
0.812438
210
0.0
220
0.0
230
1.0
100
AcDbArc
 50
91.416039
 51
140.633374
  0
ARC
  5
177
100
AcDbEntity
  8
0
390
0
  6
Continuous
 62
     1
100
AcDbCircle
 10
241.575478
 20
12.412098
 30
0.0
 40
0.825237
210
0.0
220
0.0
230
1.0
100
AcDbArc
 50
40.770944
 51
90.846792
  0
ARC
  5
178
100
AcDbEntity
  8
0
390
0
  6
Continuous
 62
     1
100
AcDbCircle
 10
241.467082
 20
12.312153
 30
0.0
 40
0.972608
210
0.0
220
0.0
230
0.9999999999999999
100
AcDbArc
 50
358.618135
 51
41.05987
  0
ARC
  5
179
100
AcDbEntity
  8
0
390
0
  6
Continuous
 62
     1
100
AcDbCircle
 10
241.436319
 20
12.263932
 30
0.0
 40
1.003394
210
0.0
220
0.0
230
1.0
100
AcDbArc
 50
319.60085
 51
1.41429
  0
ARC
  5
17A
100
AcDbEntity
  8
0
390
0
  6
Continuous
 62
     1
100
AcDbCircle
 10
241.596185
 20
12.144396
 30
0.0
 40
0.804274
210
0.0
220
0.0
230
0.9999999999999999
100
AcDbArc
 50
268.465954
 51
318.704783
  0
ARC
  5
17B
100
AcDbEntity
  8
0
390
0
  6
Continuous
 62
     1
100
AcDbCircle
 10
241.565804
 20
12.142439
 30
0.0
 40
0.802078
210
0.0
220
0.0
230
1.0
100
AcDbArc
 50
220.429708
 51
270.632212
  0
LINE
  5
17C
100
AcDbEntity
  8
0
390
0
  6
Continuous
 62
     1
100
AcDbLine
 10
240.95526
 20
11.62228
 30
0.0
 11
240.95526
 21
11.161263
 31
0.0
  0
ARC
  5
17D
100
AcDbEntity
  8
0
390
0
  6
Continuous
 62
     1
100
AcDbCircle
 10
240.804838
 20
11.181571
 30
0.0
 40
0.151787
210
0.0
220
0.0
230
1.0
100
AcDbArc
 50
271.849995
 51
352.311246
  0
ARC
  5
17E
100
AcDbEntity
  8
0
390
0
  6
Continuous
 62
     1
100
AcDbCircle
 10
240.811025
 20
11.178425
 30
0.0
 40
0.148567
210
0.0
220
0.0
230
1.0
100
AcDbArc
 50
170.907764
 51
269.503551
  0
ARC
  5
17F
100
AcDbEntity
  8
0
390
0
  6
Continuous
 62
     1
100
AcDbCircle
 10
245.917136
 20
12.12295
 30
0.0
 40
0.516136
210
0.0
220
0.0
230
1.0
100
AcDbArc
 50
217.640476
 51
268.656661
  0
LINE
  5
180
100
AcDbEntity
  8
0
390
0
  6
Continuous
 62
     1
100
AcDbLine
 10
245.375763
 20
12.48675
 30
0.0
 11
246.387815
 21
12.48675
 31
0.0
  0
ARC
  5
181
100
AcDbEntity
  8
0
390
0
  6
Continuous
 62
     1
100
AcDbCircle
 10
245.937833
 20
12.490903
 30
0.0
 40
0.450002
210
0.0
220
0.0
230
1.0
100
AcDbArc
 50
359.471136
 51
44.064126
  0
ARC
  5
182
100
AcDbEntity
  8
0
390
0
  6
Continuous
 62
     1
100
AcDbCircle
 10
245.900209
 20
12.496455
 30
0.0
 40
0.474135
210
0.0
220
0.0
230
1.0
100
AcDbArc
 50
40.417661
 51
90.79093
  0
ARC
  5
183
100
AcDbEntity
  8
0
390
0
  6
Continuous
 62
     1
100
AcDbCircle
 10
245.910196
 20
12.469249
 30
0.0
 40
0.501568
210
0.0
220
0.0
230
1.0
100
AcDbArc
 50
91.888859
 51
141.550866
  0
ARC
  5
184
100
AcDbEntity
  8
0
390
0
  6
Continuous
 62
     1
100
AcDbCircle
 10
245.998521
 20
12.368407
 30
0.0
 40
0.633902
210
0.0
220
0.0
230
1.0
100
AcDbArc
 50
139.376252
 51
169.240424
  0
ARC
  5
185
100
AcDbEntity
  8
0
390
0
  6
Continuous
 62
     1
100
AcDbCircle
 10
245.926394
 20
12.074115
 30
0.0
 40
0.467646
210
0.0
220
0.0
230
1.0
100
AcDbArc
 50
267.382381
 51
321.729349
  0
ARC
  5
186
100
AcDbEntity
  8
0
390
0
  6
Continuous
 62
     1
100
AcDbCircle
 10
245.811268
 20
12.155968
 30
0.0
 40
0.608769
210
0.0
220
0.0
230
1.0
100
AcDbArc
 50
322.392308
 51
345.783734
  0
LINE
  5
187
100
AcDbEntity
  8
0
390
0
  6
Continuous
 62
     1
100
AcDbLine
 10
246.403606
 20
12.010499
 30
0.0
 11
246.401394
 21
12.006465
 31
0.0
  0
ARC
  5
188
100
AcDbEntity
  8
0
390
0
  6
Continuous
 62
     1
100
AcDbCircle
 10
246.527126
 20
11.962634
 30
0.0
 40
0.132469
210
0.0
220
0.0
230
1.0
100
AcDbArc
 50
62.446966
 51
158.818237
  0
ARC
  5
189
100
AcDbEntity
  8
0
390
0
  6
Continuous
 62
     1
100
AcDbCircle
 10
246.500579
 20
11.94322
 30
0.0
 40
0.162614
210
0.0
220
0.0
230
1.0
100
AcDbArc
 50
340.786653
 51
57.311474
  0
ARC
  5
18A
100
AcDbEntity
  8
0
390
0
  6
Continuous
 62
     1
100
AcDbCircle
 10
245.773135
 20
12.157353
 30
0.0
 40
0.920759
210
0.0
220
0.0
230
1.0
100
AcDbArc
 50
322.009682
 51
343.101282
  0
ARC
  5
18B
100
AcDbEntity
  8
0
390
0
  6
Continuous
 62
     1
100
AcDbCircle
 10
245.969424
 20
12.019935
 30
0.0
 40
0.681591
210
0.0
220
0.0
230
1.0
100
AcDbArc
 50
265.538429
 51
320.957107
  0
ARC
  5
18C
100
AcDbEntity
  8
0
390
0
  6
Continuous
 62
     1
100
AcDbCircle
 10
245.897452
 20
12.149859
 30
0.0
 40
0.809671
210
0.0
220
0.0
230
0.9999999999999999
100
AcDbArc
 50
221.474595
 51
271.341162
  0
ARC
  5
18D
100
AcDbEntity
  8
0
390
0
  6
Continuous
 62
     1
100
AcDbCircle
 10
246.092175
 20
12.2788
 30
0.0
 40
1.041467
210
0.0
220
0.0
230
1.0
100
AcDbArc
 50
177.311019
 51
219.694362
  0
ARC
  5
18E
100
AcDbEntity
  8
0
390
0
  6
Continuous
 62
     1
100
AcDbCircle
 10
245.993658
 20
12.336997
 30
0.0
 40
0.941849
210
0.0
220
0.0
230
1.0
100
AcDbArc
 50
138.266347
 51
180.567996
  0
ARC
  5
18F
100
AcDbEntity
  8
0
390
0
  6
Continuous
 62
     1
100
AcDbCircle
 10
245.889708
 20
12.444793
 30
0.0
 40
0.7926
210
0.0
220
0.0
230
0.9999999999999999
100
AcDbArc
 50
88.89191
 51
139.079317
  0
ARC
  5
190
100
AcDbEntity
  8
0
390
0
  6
Continuous
 62
     1
100
AcDbCircle
 10
245.921241
 20
12.471927
 30
0.0
 40
0.765489
210
0.0
220
0.0
230
1.0
100
AcDbArc
 50
41.277619
 51
91.212982
  0
ARC
  5
191
100
AcDbEntity
  8
0
390
0
  6
Continuous
 62
     1
100
AcDbCircle
 10
245.892358
 20
12.438835
 30
0.0
 40
0.809047
210
0.0
220
0.0
230
1.0
100
AcDbArc
 50
359.453444
 51
41.689446
  0
ARC
  5
192
100
AcDbEntity
  8
0
390
0
  6
Continuous
 62
     1
100
AcDbCircle
 10
246.514184
 20
12.408633
 30
0.0
 40
0.18853
210
0.0
220
0.0
230
0.9999999999999999
100
AcDbArc
 50
271.251899
 51
6.84946
  0
LINE
  5
193
100
AcDbEntity
  8
0
390
0
  6
Continuous
 62
     1
100
AcDbLine
 10
245.368424
 20
12.220149
 30
0.0
 11
246.518303
 21
12.220149
 31
0.0
  0
ARC
  5
194
100
AcDbEntity
  8
0
390
0
  6
Continuous
 62
     1
100
AcDbCircle
 10
246.036588
 20
12.217013
 30
0.0
 40
0.668171
210
0.0
220
0.0
230
1.0
100
AcDbArc
 50
179.731089
 51
217.772082
  0
ARC
  5
195
100
AcDbEntity
  8
0
390
0
  6
Continuous
 62
     1
100
AcDbCircle
 10
237.931733
 20
12.322851
 30
0.0
 40
0.688489
210
0.0
220
0.0
230
1.0
100
AcDbArc
 50
358.241243
 51
42.774355
  0
ARC
  5
196
100
AcDbEntity
  8
0
390
0
  6
Continuous
 62
     1
100
AcDbCircle
 10
238.022116
 20
12.402448
 30
0.0
 40
0.568098
210
0.0
220
0.0
230
1.0
100
AcDbArc
 50
43.072127
 51
89.881097
  0
ARC
  5
197
100
AcDbEntity
  8
0
390
0
  6
Continuous
 62
     1
100
AcDbCircle
 10
238.023194
 20
12.405602
 30
0.0
 40
0.564943
210
0.0
220
0.0
230
1.0
100
AcDbArc
 50
89.989817
 51
140.482884
  0
ARC
  5
198
100
AcDbEntity
  8
0
390
0
  6
Continuous
 62
     1
100
AcDbCircle
 10
238.107663
 20
12.325297
 30
0.0
 40
0.681253
210
0.0
220
0.0
230
0.9999999999999999
100
AcDbArc
 50
139.793085
 51
181.983258
  0
CIRCLE
  5
199
100
AcDbEntity
  8
0
390
0
  6
Continuous
 62
     1
100
AcDbCircle
 10
238.02337
 20
12.288828
 30
0.0
 40
0.910411
210
0.0
220
0.0
230
1.0
  0
ARC
  5
19A
100
AcDbEntity
  8
0
390
0
  6
Continuous
 62
     1
100
AcDbCircle
 10
238.036526
 20
12.167073
 30
0.0
 40
0.560273
210
0.0
220
0.0
230
1.0
100
AcDbArc
 50
268.646801
 51
319.007629
  0
ARC
  5
19B
100
AcDbEntity
  8
0
390
0
  6
Continuous
 62
     1
100
AcDbCircle
 10
237.879496
 20
12.261612
 30
0.0
 40
0.741488
210
0.0
220
0.0
230
1.0
100
AcDbArc
 50
321.453788
 51
3.100733
  0
ARC
  5
19C
100
AcDbEntity
  8
0
390
0
  6
Continuous
 62
     1
100
AcDbCircle
 10
238.187273
 20
12.268115
 30
0.0
 40
0.761197
210
0.0
220
0.0
230
1.0
100
AcDbArc
 50
177.469701
 51
217.992212
  0
ARC
  5
19D
100
AcDbEntity
  8
0
390
0
  6
Continuous
 62
     1
100
AcDbCircle
 10
238.00939
 20
12.165097
 30
0.0
 40
0.558313
210
0.0
220
0.0
230
1.0
100
AcDbArc
 50
220.898494
 51
271.42703
  0
ARC
  5
19E
100
AcDbEntity
  8
0
390
0
  6
Continuous
 62
     1
100
AcDbCircle
 10
244.151845
 20
12.416829
 30
0.0
 40
0.820446
210
0.0
220
0.0
230
1.0
100
AcDbArc
 50
90.497142
 51
135.467515
  0
ARC
  5
19F
100
AcDbEntity
  8
0
390
0
  6
Continuous
 62
     1
100
AcDbCircle
 10
244.173203
 20
12.499248
 30
0.0
 40
0.738546
210
0.0
220
0.0
230
1.0
100
AcDbArc
 50
42.984286
 51
92.209764
  0
ARC
  5
1A0
100
AcDbEntity
  8
0
390
0
  6
Continuous
 62
     1
100
AcDbCircle
 10
244.075928
 20
12.504201
 30
0.0
 40
0.809358
210
0.0
220
0.0
230
1.0
100
AcDbArc
 50
356.655397
 51
38.026562
  0
LINE
  5
1A1
100
AcDbEntity
  8
0
390
0
  6
Continuous
 62
     1
100
AcDbLine
 10
244.883907
 20
12.456982
 30
0.0
 11
244.883909
 21
11.471864
 31
0.0
  0
ARC
  5
1A2
100
AcDbEntity
  8
0
390
0
  6
Continuous
 62
     1
100
AcDbCircle
 10
244.733435
 20
11.492166
 30
0.0
 40
0.151837
210
0.0
220
0.0
230
1.0
100
AcDbArc
 50
271.869229
 51
352.316001
  0
ARC
  5
1A3
100
AcDbEntity
  8
0
390
0
  6
Continuous
 62
     1
100
AcDbCircle
 10
243.317844
 20
11.492136
 30
0.0
 40
0.151806
210
0.0
220
0.0
230
1.0
100
AcDbArc
 50
271.856202
 51
7.697154
  0
LINE
  5
1A4
100
AcDbEntity
  8
0
390
0
  6
Continuous
 62
     1
100
AcDbLine
 10
243.468283
 20
12.463131
 30
0.0
 11
243.468282
 21
11.512468
 31
0.0
  0
ARC
  5
1A5
100
AcDbEntity
  8
0
390
0
  6
Continuous
 62
     1
100
AcDbCircle
 10
244.219851
 20
12.210897
 30
0.0
 40
0.792766
210
0.0
220
0.0
230
1.0
100
AcDbArc
 50
139.318632
 51
161.44769
  0
ARC
  5
1A6
100
AcDbEntity
  8
0
390
0
  6
Continuous
 62
     1
100
AcDbCircle
 10
244.108841
 20
12.354823
 30
0.0
 40
0.615862
210
0.0
220
0.0
230
1.0
100
AcDbArc
 50
88.776775
 51
142.742776
  0
ARC
  5
1A7
100
AcDbEntity
  8
0
390
0
  6
Continuous
 62
     1
100
AcDbCircle
 10
244.136917
 20
12.515945
 30
0.0
 40
0.454845
210
0.0
220
0.0
230
1.0
100
AcDbArc
 50
41.411226
 51
91.880972
  0
ARC
  5
1A8
100
AcDbEntity
  8
0
390
0
  6
Continuous
 62
     1
100
AcDbCircle
 10
243.982092
 20
12.45794
 30
0.0
 40
0.61217
210
0.0
220
0.0
230
0.9999999999999999
100
AcDbArc
 50
356.27304
 51
35.889176
  0
LINE
  5
1A9
100
AcDbEntity
  8
0
390
0
  6
Continuous
 62
     1
100
AcDbLine
 10
244.592968
 20
11.512468
 30
0.0
 11
244.592967
 21
12.418148
 31
0.0
  0
ARC
  5
1AA
100
AcDbEntity
  8
0
390
0
  6
Continuous
 62
     1
100
AcDbCircle
 10
244.739609
 20
11.488924
 30
0.0
 40
0.148519
210
0.0
220
0.0
230
1.0
100
AcDbArc
 50
170.878787
 51
269.528688
  0
LINE
  5
1AB
100
AcDbEntity
  8
0
390
0
  6
Continuous
 62
     1
100
AcDbLine
 10
243.509661
 20
12.929831
 30
0.0
 11
243.566987
 21
12.992219
 31
0.0
  0
LINE
  5
1AC
100
AcDbEntity
  8
0
390
0
  6
Continuous
 62
     1
100
AcDbLine
 10
243.468282
 20
12.877655
 30
0.0
 11
243.509661
 21
12.929831
 31
0.0
  0
LINE
  5
1AD
100
AcDbEntity
  8
0
390
0
  6
Continuous
 62
     1
100
AcDbLine
 10
243.468283
 20
13.065111
 30
0.0
 11
243.468282
 21
12.877655
 31
0.0
  0
ARC
  5
1AE
100
AcDbEntity
  8
0
390
0
  6
Continuous
 62
     1
100
AcDbCircle
 10
243.321514
 20
13.088612
 30
0.0
 40
0.148638
210
0.0
220
0.0
230
1.0
100
AcDbArc
 50
350.903117
 51
89.519339
  0
ARC
  5
1AF
100
AcDbEntity
  8
0
390
0
  6
Continuous
 62
     1
100
AcDbCircle
 10
243.327794
 20
13.085412
 30
0.0
 40
0.151916
210
0.0
220
0.0
230
1.0
100
AcDbArc
 50
91.898674
 51
187.679004
  0
LINE
  5
1B0
100
AcDbEntity
  8
0
390
0
  6
Continuous
 62
     1
100
AcDbLine
 10
243.177241
 20
11.512468
 30
0.0
 11
243.17724
 21
13.065112
 31
0.0
  0
ARC
  5
1B1
100
AcDbEntity
  8
0
390
0
  6
Continuous
 62
     1
100
AcDbCircle
 10
243.323977
 20
11.489005
 30
0.0
 40
0.1486
210
0.0
220
0.0
230
1.0
100
AcDbArc
 50
170.915515
 51
269.531091
  0
ARC
  5
1B2
100
AcDbEntity
  8
0
390
0
  6
Continuous
 62
     1
100
AcDbCircle
 10
242.795312
 20
13.085469
 30
0.0
 40
0.151915
210
0.0
220
0.0
230
1.0
100
AcDbArc
 50
91.93329
 51
172.299235
  0
LINE
  5
1B3
100
AcDbEntity
  8
0
390
0
  6
Continuous
 62
     1
100
AcDbLine
 10
242.644767
 20
11.512521
 30
0.0
 11
242.644766
 21
13.105825
 31
0.0
  0
ARC
  5
1B4
100
AcDbEntity
  8
0
390
0
  6
Continuous
 62
     1
100
AcDbCircle
 10
242.791471
 20
11.489031
 30
0.0
 40
0.148573
210
0.0
220
0.0
230
1.0
100
AcDbArc
 50
170.902946
 51
269.504554
  0
ARC
  5
1B5
100
AcDbEntity
  8
0
390
0
  6
Continuous
 62
     1
100
AcDbCircle
 10
242.785211
 20
11.492239
 30
0.0
 40
0.151857
210
0.0
220
0.0
230
0.9999999999999999
100
AcDbArc
 50
271.877763
 51
352.324516
  0
LINE
  5
1B6
100
AcDbEntity
  8
0
390
0
  6
Continuous
 62
     1
100
AcDbLine
 10
242.935706
 20
13.065111
 30
0.0
 11
242.935707
 21
11.471956
 31
0.0
  0
ARC
  5
1B7
100
AcDbEntity
  8
0
390
0
  6
Continuous
 62
     1
100
AcDbCircle
 10
242.78888
 20
13.088609
 30
0.0
 40
0.148694
210
0.0
220
0.0
230
1.0
100
AcDbArc
 50
350.90764
 51
89.496464
  0
ARC
  5
1B8
100
AcDbEntity
  8
0
390
0
  6
Continuous
 62
     1
100
AcDbCircle
 10
240.256193
 20
12.754972
 30
0.0
 40
0.163015
210
0.0
220
0.0
230
1.0
100
AcDbArc
 50
298.956364
 51
359.591462
  0
ARC
  5
1B9
100
AcDbEntity
  8
0
390
0
  6
Continuous
 62
     1
100
AcDbCircle
 10
240.02243
 20
12.733546
 30
0.0
 40
0.397291
210
0.0
220
0.0
230
1.0
100
AcDbArc
 50
2.923702
 51
42.663687
  0
ARC
  5
1BA
100
AcDbEntity
  8
0
390
0
  6
Continuous
 62
     1
100
AcDbCircle
 10
239.750565
 20
12.447047
 30
0.0
 40
0.791805
210
0.0
220
0.0
230
1.0
100
AcDbArc
 50
44.57678
 51
93.651322
  0
ARC
  5
1BB
100
AcDbEntity
  8
0
390
0
  6
Continuous
 62
     1
100
AcDbCircle
 10
239.639393
 20
12.495523
 30
0.0
 40
0.744205
210
0.0
220
0.0
230
1.0
100
AcDbArc
 50
85.31798
 51
134.235296
  0
ARC
  5
1BC
100
AcDbEntity
  8
0
390
0
  6
Continuous
 62
     1
100
AcDbCircle
 10
239.491352
 20
12.682576
 30
0.0
 40
0.507499
210
0.0
220
0.0
230
1.0
100
AcDbArc
 50
136.993432
 51
179.168797
  0
ARC
  5
1BD
100
AcDbEntity
  8
0
390
0
  6
Continuous
 62
     1
100
AcDbCircle
 10
239.496953
 20
12.735179
 30
0.0
 40
0.515037
210
0.0
220
0.0
230
1.0
100
AcDbArc
 50
185.039304
 51
266.133785
  0
LINE
  5
1BE
100
AcDbEntity
  8
0
390
0
  6
Continuous
 62
     1
100
AcDbLine
 10
239.965552
 20
12.117572
 30
0.0
 11
239.462226
 21
12.221314
 31
0.0
  0
ARC
  5
1BF
100
AcDbEntity
  8
0
390
0
  6
Continuous
 62
     1
100
AcDbCircle
 10
239.94908
 20
11.861402
 30
0.0
 40
0.256699
210
0.0
220
0.0
230
1.0
100
AcDbArc
 50
2.968107
 51
86.320918
  0
ARC
  5
1C0
100
AcDbEntity
  8
0
390
0
  6
Continuous
 62
     1
100
AcDbCircle
 10
240.026188
 20
11.864445
 30
0.0
 40
0.17954
210
0.0
220
0.0
230
1.0
100
AcDbArc
 50
309.943715
 51
3.272213
  0
ARC
  5
1C1
100
AcDbEntity
  8
0
390
0
  6
Continuous
 62
     1
100
AcDbCircle
 10
239.787363
 20
12.188562
 30
0.0
 40
0.581903
210
0.0
220
0.0
230
1.0
100
AcDbArc
 50
268.168642
 51
307.482092
  0
ARC
  5
1C2
100
AcDbEntity
  8
0
390
0
  6
Continuous
 62
     1
100
AcDbCircle
 10
239.721123
 20
12.143939
 30
0.0
 40
0.539093
210
0.0
220
0.0
230
1.0
100
AcDbArc
 50
227.304262
 51
275.070283
  0
ARC
  5
1C3
100
AcDbEntity
  8
0
390
0
  6
Continuous
 62
     1
100
AcDbCircle
 10
239.644964
 20
12.013756
 30
0.0
 40
0.393098
210
0.0
220
0.0
230
0.9999999999999999
100
AcDbArc
 50
195.548696
 51
222.590534
  0
LINE
  5
1C4
100
AcDbEntity
  8
0
390
0
  6
Continuous
 62
     1
100
AcDbLine
 10
239.260812
 20
11.927935
 30
0.0
 11
239.266252
 21
11.908383
 31
0.0
  0
ARC
  5
1C5
100
AcDbEntity
  8
0
390
0
  6
Continuous
 62
     1
100
AcDbCircle
 10
239.125876
 20
11.89039
 30
0.0
 40
0.140062
210
0.0
220
0.0
230
1.0
100
AcDbArc
 50
15.548696
 51
117.281689
  0
ARC
  5
1C6
100
AcDbEntity
  8
0
390
0
  6
Continuous
 62
     1
100
AcDbCircle
 10
239.164085
 20
11.866358
 30
0.0
 40
0.180399
210
0.0
220
0.0
230
1.0
100
AcDbArc
 50
124.588211
 51
202.264913
  0
ARC
  5
1C7
100
AcDbEntity
  8
0
390
0
  6
Continuous
 62
     1
100
AcDbCircle
 10
239.498902
 20
11.947905
 30
0.0
 40
0.523678
210
0.0
220
0.0
230
1.0
100
AcDbArc
 50
196.633035
 51
225.761587
  0
ARC
  5
1C8
100
AcDbEntity
  8
0
390
0
  6
Continuous
 62
     1
100
AcDbCircle
 10
239.730349
 20
12.219946
 30
0.0
 40
0.880374
210
0.0
220
0.0
230
1.0
100
AcDbArc
 50
227.321724
 51
272.501038
  0
ARC
  5
1C9
100
AcDbEntity
  8
0
390
0
  6
Continuous
 62
     1
100
AcDbCircle
 10
239.794115
 20
12.203728
 30
0.0
 40
0.86369
210
0.0
220
0.0
230
1.0
100
AcDbArc
 50
268.318204
 51
310.213823
  0
ARC
  5
1CA
100
AcDbEntity
  8
0
390
0
  6
Continuous
 62
     1
100
AcDbCircle
 10
240.100367
 20
11.850637
 30
0.0
 40
0.39637
210
0.0
220
0.0
230
1.0
100
AcDbArc
 50
309.361416
 51
1.628804
  0
ARC
  5
1CB
100
AcDbEntity
  8
0
390
0
  6
Continuous
 62
     1
100
AcDbCircle
 10
239.979467
 20
11.88891
 30
0.0
 40
0.517815
210
0.0
220
0.0
230
1.0
100
AcDbArc
 50
357.01041
 51
38.822746
  0
ARC
  5
1CC
100
AcDbEntity
  8
0
390
0
  6
Continuous
 62
     1
100
AcDbCircle
 10
239.88265
 20
11.717443
 30
0.0
 40
0.70452
210
0.0
220
0.0
230
1.0
100
AcDbArc
 50
44.761396
 51
74.074227
  0
LINE
  5
1CD
100
AcDbEntity
  8
0
390
0
  6
Continuous
 62
     1
100
AcDbLine
 10
239.491573
 20
12.524834
 30
0.0
 11
240.075964
 21
12.394922
 31
0.0
  0
LINE
  5
1CE
100
AcDbEntity
  8
0
390
0
  6
Continuous
 62
     1
100
AcDbLine
 10
239.443594
 20
12.536378
 30
0.0
 11
239.491573
 21
12.524834
 31
0.0
  0
LINE
  5
1CF
100
AcDbEntity
  8
0
390
0
  6
Continuous
 62
     1
100
AcDbLine
 10
239.396742
 20
12.551844
 30
0.0
 11
239.443594
 21
12.536378
 31
0.0
  0
LINE
  5
1D0
100
AcDbEntity
  8
0
390
0
  6
Continuous
 62
     1
100
AcDbLine
 10
239.352125
 20
12.572848
 30
0.0
 11
239.396742
 21
12.551844
 31
0.0
  0
LINE
  5
1D1
100
AcDbEntity
  8
0
390
0
  6
Continuous
 62
     1
100
AcDbLine
 10
239.321606
 20
12.593725
 30
0.0
 11
239.352125
 21
12.572848
 31
0.0
  0
LINE
  5
1D2
100
AcDbEntity
  8
0
390
0
  6
Continuous
 62
     1
100
AcDbLine
 10
239.29611
 20
12.620435
 30
0.0
 11
239.321606
 21
12.593725
 31
0.0
  0
LINE
  5
1D3
100
AcDbEntity
  8
0
390
0
  6
Continuous
 62
     1
100
AcDbLine
 10
239.279565
 20
12.653358
 30
0.0
 11
239.29611
 21
12.620435
 31
0.0
  0
LINE
  5
1D4
100
AcDbEntity
  8
0
390
0
  6
Continuous
 62
     1
100
AcDbLine
 10
239.274948
 20
12.689938
 30
0.0
 11
239.279565
 21
12.653358
 31
0.0
  0
ARC
  5
1D5
100
AcDbEntity
  8
0
390
0
  6
Continuous
 62
     1
100
AcDbCircle
 10
239.515449
 20
12.699083
 30
0.0
 40
0.240674
210
0.0
220
0.0
230
1.0
100
AcDbArc
 50
139.395976
 51
182.177643
  0
ARC
  5
1D6
100
AcDbEntity
  8
0
390
0
  6
Continuous
 62
     1
100
AcDbCircle
 10
239.657105
 20
12.467922
 30
0.0
 40
0.505581
210
0.0
220
0.0
230
1.0
100
AcDbArc
 50
83.79895
 51
129.911498
  0
ARC
  5
1D7
100
AcDbEntity
  8
0
390
0
  6
Continuous
 62
     1
100
AcDbCircle
 10
239.755064
 20
12.548556
 30
0.0
 40
0.424209
210
0.0
220
0.0
230
1.0
100
AcDbArc
 50
20.97101
 51
95.864888
  0
ARC
  5
1D8
100
AcDbEntity
  8
0
390
0
  6
Continuous
 62
     1
100
AcDbCircle
 10
240.284034
 20
12.741783
 30
0.0
 40
0.139161
210
0.0
220
0.0
230
1.0
100
AcDbArc
 50
197.309091
 51
291.534944
  0
CIRCLE
  5
1D9
100
AcDbEntity
  8
0
390
0
  6
Continuous
 62
     1
100
AcDbCircle
 10
242.790236
 20
14.424485
 30
0.0
 40
0.963717
210
0.0
220
0.0
230
1.0
  0
ARC
  5
1DA
100
AcDbEntity
  8
0
390
0
  6
Continuous
 62
     1
100
AcDbCircle
 10
236.170867
 20
13.088593
 30
0.0
 40
0.148657
210
0.0
220
0.0
230
1.0
100
AcDbArc
 50
350.915999
 51
89.500183
  0
LINE
  5
1DB
100
AcDbEntity
  8
0
390
0
  6
Continuous
 62
     1
100
AcDbLine
 10
236.31766
 20
12.931066
 30
0.0
 11
236.31766
 21
13.065123
 31
0.0
  0
LINE
  5
1DC
100
AcDbEntity
  8
0
390
0
  6
Continuous
 62
     1
100
AcDbLine
 10
236.351953
 20
12.987506
 30
0.0
 11
236.31766
 21
12.931066
 31
0.0
  0
LINE
  5
1DD
100
AcDbEntity
  8
0
390
0
  6
Continuous
 62
     1
100
AcDbLine
 10
236.402616
 20
13.054518
 30
0.0
 11
236.351953
 21
12.987506
 31
0.0
  0
ARC
  5
1DE
100
AcDbEntity
  8
0
390
0
  6
Continuous
 62
     1
100
AcDbCircle
 10
236.881791
 20
12.529763
 30
0.0
 40
0.710617
210
0.0
220
0.0
230
1.0
100
AcDbArc
 50
84.615683
 51
132.400455
  0
ARC
  5
1DF
100
AcDbEntity
  8
0
390
0
  6
Continuous
 62
     1
100
AcDbCircle
 10
236.958309
 20
13.101507
 30
0.0
 40
0.136094
210
0.0
220
0.0
230
1.0
100
AcDbArc
 50
355.551556
 51
94.145062
  0
ARC
  5
1E0
100
AcDbEntity
  8
0
390
0
  6
Continuous
 62
     1
100
AcDbCircle
 10
236.958222
 20
13.080527
 30
0.0
 40
0.136171
210
0.0
220
0.0
230
1.0
100
AcDbArc
 50
274.095944
 51
4.390634
  0
LINE
  5
1E1
100
AcDbEntity
  8
0
390
0
  6
Continuous
 62
     1
100
AcDbLine
 10
236.822884
 20
12.944704
 30
0.0
 11
236.967948
 21
12.944704
 31
0.0
  0
ARC
  5
1E2
100
AcDbEntity
  8
0
390
0
  6
Continuous
 62
     1
100
AcDbCircle
 10
236.804224
 20
12.548987
 30
0.0
 40
0.396156
210
0.0
220
0.0
230
1.0
100
AcDbArc
 50
87.300271
 51
137.43986
  0
ARC
  5
1E3
100
AcDbEntity
  8
0
390
0
  6
Continuous
 62
     1
100
AcDbCircle
 10
237.250063
 20
12.198715
 30
0.0
 40
0.962444
210
0.0
220
0.0
230
0.9999999999999999
100
AcDbArc
 50
140.033318
 51
165.647036
  0
LINE
  5
1E4
100
AcDbEntity
  8
0
390
0
  6
Continuous
 62
     1
100
AcDbLine
 10
236.31766
 20
11.512456
 30
0.0
 11
236.31766
 21
12.4373
 31
0.0
  0
ARC
  5
1E5
100
AcDbEntity
  8
0
390
0
  6
Continuous
 62
     1
100
AcDbCircle
 10
236.167195
 20
11.492157
 30
0.0
 40
0.151828
210
0.0
220
0.0
230
0.9999999999999999
100
AcDbArc
 50
271.875497
 51
7.683355
  0
ARC
  5
1E6
100
AcDbEntity
  8
0
390
0
  6
Continuous
 62
     1
100
AcDbCircle
 10
236.17336
 20
11.488987
 30
0.0
 40
0.148582
210
0.0
220
0.0
230
1.0
100
AcDbArc
 50
170.907465
 51
269.538812
  0
LINE
  5
1E7
100
AcDbEntity
  8
0
390
0
  6
Continuous
 62
     1
100
AcDbLine
 10
236.026643
 20
13.065112
 30
0.0
 11
236.026644
 21
11.512468
 31
0.0
  0
ARC
  5
1E8
100
AcDbEntity
  8
0
390
0
  6
Continuous
 62
     1
100
AcDbCircle
 10
236.177179
 20
13.085427
 30
0.0
 40
0.151901
210
0.0
220
0.0
230
1.0
100
AcDbArc
 50
91.892157
 51
187.68552
  0
LINE
  5
1E9
100
AcDbEntity
  8
0
390
0
  6
Continuous
 62
     1
100
AcDbLine
 10
235.596282
 20
11.475051
 30
0.0
 11
235.596282
 21
13.828784
 31
0.0
  0
LINE
  5
1EA
100
AcDbEntity
  8
0
390
0
  6
Continuous
 62
     1
100
AcDbLine
 10
235.586195
 20
11.419231
 30
0.0
 11
235.596282
 21
11.475051
 31
0.0
  0
LINE
  5
1EB
100
AcDbEntity
  8
0
390
0
  6
Continuous
 62
     1
100
AcDbLine
 10
235.567599
 20
11.365598
 30
0.0
 11
235.586195
 21
11.419231
 31
0.0
  0
LINE
  5
1EC
100
AcDbEntity
  8
0
390
0
  6
Continuous
 62
     1
100
AcDbLine
 10
235.541985
 20
11.314932
 30
0.0
 11
235.567599
 21
11.365598
 31
0.0
  0
LINE
  5
1ED
100
AcDbEntity
  8
0
390
0
  6
Continuous
 62
     1
100
AcDbLine
 10
235.510029
 20
11.268004
 30
0.0
 11
235.541985
 21
11.314932
 31
0.0
  0
LINE
  5
1EE
100
AcDbEntity
  8
0
390
0
  6
Continuous
 62
     1
100
AcDbLine
 10
235.458789
 20
11.212321
 30
0.0
 11
235.510029
 21
11.268004
 31
0.0
  0
LINE
  5
1EF
100
AcDbEntity
  8
0
390
0
  6
Continuous
 62
     1
100
AcDbLine
 10
235.399498
 20
11.16528
 30
0.0
 11
235.458789
 21
11.212321
 31
0.0
  0
LINE
  5
1F0
100
AcDbEntity
  8
0
390
0
  6
Continuous
 62
     1
100
AcDbLine
 10
235.334205
 20
11.126975
 30
0.0
 11
235.399498
 21
11.16528
 31
0.0
  0
LINE
  5
1F1
100
AcDbEntity
  8
0
390
0
  6
Continuous
 62
     1
100
AcDbLine
 10
235.250463
 20
11.091778
 30
0.0
 11
235.334205
 21
11.126975
 31
0.0
  0
LINE
  5
1F2
100
AcDbEntity
  8
0
390
0
  6
Continuous
 62
     1
100
AcDbLine
 10
235.163072
 20
11.066921
 30
0.0
 11
235.250463
 21
11.091778
 31
0.0
  0
LINE
  5
1F3
100
AcDbEntity
  8
0
390
0
  6
Continuous
 62
     1
100
AcDbLine
 10
235.073641
 20
11.050809
 30
0.0
 11
235.163072
 21
11.066921
 31
0.0
  0
LINE
  5
1F4
100
AcDbEntity
  8
0
390
0
  6
Continuous
 62
     1
100
AcDbLine
 10
234.983191
 20
11.041971
 30
0.0
 11
235.073641
 21
11.050809
 31
0.0
  0
LINE
  5
1F5
100
AcDbEntity
  8
0
390
0
  6
Continuous
 62
     1
100
AcDbLine
 10
234.892348
 20
11.039293
 30
0.0
 11
234.983191
 21
11.041971
 31
0.0
  0
LINE
  5
1F6
100
AcDbEntity
  8
0
390
0
  6
Continuous
 62
     1
100
AcDbLine
 10
234.799037
 20
11.043525
 30
0.0
 11
234.892348
 21
11.039293
 31
0.0
  0
LINE
  5
1F7
100
AcDbEntity
  8
0
390
0
  6
Continuous
 62
     1
100
AcDbLine
 10
234.706442
 20
11.055902
 30
0.0
 11
234.799037
 21
11.043525
 31
0.0
  0
LINE
  5
1F8
100
AcDbEntity
  8
0
390
0
  6
Continuous
 62
     1
100
AcDbLine
 10
234.615354
 20
11.076604
 30
0.0
 11
234.706442
 21
11.055902
 31
0.0
  0
LINE
  5
1F9
100
AcDbEntity
  8
0
390
0
  6
Continuous
 62
     1
100
AcDbLine
 10
234.527099
 20
11.107151
 30
0.0
 11
234.615354
 21
11.076604
 31
0.0
  0
LINE
  5
1FA
100
AcDbEntity
  8
0
390
0
  6
Continuous
 62
     1
100
AcDbLine
 10
234.444048
 20
11.149789
 30
0.0
 11
234.527099
 21
11.107151
 31
0.0
  0
LINE
  5
1FB
100
AcDbEntity
  8
0
390
0
  6
Continuous
 62
     1
100
AcDbLine
 10
234.396526
 20
11.183696
 30
0.0
 11
234.444048
 21
11.149789
 31
0.0
  0
LINE
  5
1FC
100
AcDbEntity
  8
0
390
0
  6
Continuous
 62
     1
100
AcDbLine
 10
234.354041
 20
11.223721
 30
0.0
 11
234.396526
 21
11.183696
 31
0.0
  0
LINE
  5
1FD
100
AcDbEntity
  8
0
390
0
  6
Continuous
 62
     1
100
AcDbLine
 10
234.318229
 20
11.269803
 30
0.0
 11
234.354041
 21
11.223721
 31
0.0
  0
LINE
  5
1FE
100
AcDbEntity
  8
0
390
0
  6
Continuous
 62
     1
100
AcDbLine
 10
234.290538
 20
11.321176
 30
0.0
 11
234.318229
 21
11.269803
 31
0.0
  0
LINE
  5
1FF
100
AcDbEntity
  8
0
390
0
  6
Continuous
 62
     1
100
AcDbLine
 10
234.271731
 20
11.376429
 30
0.0
 11
234.290538
 21
11.321176
 31
0.0
  0
LINE
  5
200
100
AcDbEntity
  8
0
390
0
  6
Continuous
 62
     1
100
AcDbLine
 10
234.261658
 20
11.433927
 30
0.0
 11
234.271731
 21
11.376429
 31
0.0
  0
LINE
  5
201
100
AcDbEntity
  8
0
390
0
  6
Continuous
 62
     1
100
AcDbLine
 10
234.259371
 20
11.492277
 30
0.0
 11
234.261658
 21
11.433927
 31
0.0
  0
LINE
  5
202
100
AcDbEntity
  8
0
390
0
  6
Continuous
 62
     1
100
AcDbLine
 10
234.26383
 20
11.5505
 30
0.0
 11
234.259371
 21
11.492277
 31
0.0
  0
LINE
  5
203
100
AcDbEntity
  8
0
390
0
  6
Continuous
 62
     1
100
AcDbLine
 10
234.523661
 20
13.718818
 30
0.0
 11
234.26383
 21
11.5505
 31
0.0
  0
ARC
  5
204
100
AcDbEntity
  8
0
390
0
  6
Continuous
 62
     1
100
AcDbCircle
 10
233.904092
 20
25.048366
 30
0.0
 40
11.346476
210
0.0
220
0.0
230
1.0
100
AcDbArc
 50
273.130165
 51
278.57697
  0
LINE
  5
205
100
AcDbEntity
  8
0
390
0
  6
Continuous
 62
     1
100
AcDbLine
 10
242.989023
 20
17.179153
 30
0.0
 11
242.819231
 21
17.014855
 31
0.0
  0
LINE
  5
206
100
AcDbEntity
  8
0
390
0
  6
Continuous
 62
     1
100
AcDbLine
 10
242.819231
 20
17.014855
 30
0.0
 11
242.64372
 21
16.856679
 31
0.0
  0
LINE
  5
207
100
AcDbEntity
  8
0
390
0
  6
Continuous
 62
     1
100
AcDbLine
 10
242.64372
 20
16.856679
 30
0.0
 11
242.463263
 21
16.704169
 31
0.0
  0
LINE
  5
208
100
AcDbEntity
  8
0
390
0
  6
Continuous
 62
     1
100
AcDbLine
 10
242.463263
 20
16.704169
 30
0.0
 11
242.278477
 21
16.556933
 31
0.0
  0
LINE
  5
209
100
AcDbEntity
  8
0
390
0
  6
Continuous
 62
     1
100
AcDbLine
 10
242.278477
 20
16.556933
 30
0.0
 11
241.986557
 21
16.339753
 31
0.0
  0
LINE
  5
20A
100
AcDbEntity
  8
0
390
0
  6
Continuous
 62
     1
100
AcDbLine
 10
241.986557
 20
16.339753
 30
0.0
 11
241.686948
 21
16.133304
 31
0.0
  0
LINE
  5
20B
100
AcDbEntity
  8
0
390
0
  6
Continuous
 62
     1
100
AcDbLine
 10
241.686948
 20
16.133304
 30
0.0
 11
241.380728
 21
15.936793
 31
0.0
  0
LINE
  5
20C
100
AcDbEntity
  8
0
390
0
  6
Continuous
 62
     1
100
AcDbLine
 10
241.068729
 20
15.749587
 30
0.0
 11
240.664313
 21
15.524001
 31
0.0
  0
LINE
  5
20D
100
AcDbEntity
  8
0
390
0
  6
Continuous
 62
     1
100
AcDbLine
 10
240.664313
 20
15.524001
 30
0.0
 11
240.252677
 21
15.311869
 31
0.0
  0
LINE
  5
20E
100
AcDbEntity
  8
0
390
0
  6
Continuous
 62
     1
100
AcDbLine
 10
240.252677
 20
15.311869
 30
0.0
 11
239.834692
 21
15.11253
 31
0.0
  0
LINE
  5
20F
100
AcDbEntity
  8
0
390
0
  6
Continuous
 62
     1
100
AcDbLine
 10
239.834692
 20
15.11253
 30
0.0
 11
239.410961
 21
14.925721
 31
0.0
  0
LINE
  5
210
100
AcDbEntity
  8
0
390
0
  6
Continuous
 62
     1
100
AcDbLine
 10
239.410961
 20
14.925721
 30
0.0
 11
239.313508
 21
14.884951
 31
0.0
  0
ARC
  5
211
100
AcDbEntity
  8
0
390
0
  6
Continuous
 62
     1
100
AcDbCircle
 10
239.26596
 20
15.132604
 30
0.0
 40
0.252176
210
0.0
220
0.0
230
1.0
100
AcDbArc
 50
270.208724
 51
280.868276
  0
LINE
  5
212
100
AcDbEntity
  8
0
390
0
  6
Continuous
 62
     1
100
AcDbLine
 10
239.207533
 20
19.224067
 30
0.0
 11
238.917327
 21
19.224875
 31
0.0
  0
LINE
  5
213
100
AcDbEntity
  8
0
390
0
  6
Continuous
 62
     1
100
AcDbLine
 10
238.917327
 20
19.224875
 30
0.0
 11
238.627318
 21
19.214072
 31
0.0
  0
LINE
  5
214
100
AcDbEntity
  8
0
390
0
  6
Continuous
 62
     1
100
AcDbLine
 10
238.627318
 20
19.214072
 30
0.0
 11
238.33791
 21
19.192491
 31
0.0
  0
LINE
  5
215
100
AcDbEntity
  8
0
390
0
  6
Continuous
 62
     1
100
AcDbLine
 10
238.33791
 20
19.192491
 30
0.0
 11
237.970959
 21
19.150463
 31
0.0
  0
LINE
  5
216
100
AcDbEntity
  8
0
390
0
  6
Continuous
 62
     1
100
AcDbLine
 10
237.970959
 20
19.150463
 30
0.0
 11
237.606088
 21
19.093091
 31
0.0
  0
ARC
  5
217
100
AcDbEntity
  8
0
390
0
  6
Continuous
 62
     1
100
AcDbCircle
 10
239.19924
 20
9.960818
 30
0.0
 40
9.268141
210
0.0
220
0.0
230
0.9999999999999999
100
AcDbArc
 50
101.768938
 51
112.876529
  0
LINE
  5
218
100
AcDbEntity
  8
0
390
0
  6
Continuous
 62
     1
100
AcDbLine
 10
235.596282
 20
18.499971
 30
0.0
 11
235.596282
 21
14.660645
 31
0.0
  0
LINE
  5
219
100
AcDbEntity
  8
0
390
0
  6
Continuous
 62
     1
100
AcDbLine
 10
243.62395
 20
17.971288
 30
0.0
 11
243.541235
 21
17.840951
 31
0.0
  0
LINE
  5
21A
100
AcDbEntity
  8
0
390
0
  6
Continuous
 62
     1
100
AcDbLine
 10
243.69968
 20
18.105803
 30
0.0
 11
243.62395
 21
17.971288
 31
0.0
  0
LINE
  5
21B
100
AcDbEntity
  8
0
390
0
  6
Continuous
 62
     1
100
AcDbLine
 10
243.767137
 20
18.244649
 30
0.0
 11
243.69968
 21
18.105803
 31
0.0
  0
LINE
  5
21C
100
AcDbEntity
  8
0
390
0
  6
Continuous
 62
     1
100
AcDbLine
 10
243.824723
 20
18.387869
 30
0.0
 11
243.767137
 21
18.244649
 31
0.0
  0
ARC
  5
21D
100
AcDbEntity
  8
0
390
0
  6
Continuous
 62
     1
100
AcDbCircle
 10
239.267857
 20
15.135342
 30
0.0
 40
0.254915
210
0.0
220
0.0
230
1.0
100
AcDbArc
 50
179.65698
 51
269.779905
  0
LINE
  5
21E
100
AcDbEntity
  8
0
390
0
  6
Continuous
 62
     1
100
AcDbLine
 10
243.896655
 20
18.653725
 30
0.0
 11
243.870488
 21
18.535287
 31
0.0
  0
LINE
  5
21F
100
AcDbEntity
  8
0
390
0
  6
Continuous
 62
     1
100
AcDbLine
 10
243.912877
 20
18.773935
 30
0.0
 11
243.896655
 21
18.653725
 31
0.0
  0
LINE
  5
220
100
AcDbEntity
  8
0
390
0
  6
Continuous
 62
     1
100
AcDbLine
 10
243.917861
 20
18.895118
 30
0.0
 11
243.912877
 21
18.773935
 31
0.0
  0
LINE
  5
221
100
AcDbEntity
  8
0
390
0
  6
Continuous
 62
     1
100
AcDbLine
 10
243.910571
 20
19.016204
 30
0.0
 11
243.917861
 21
18.895118
 31
0.0
  0
LINE
  5
222
100
AcDbEntity
  8
0
390
0
  6
Continuous
 62
     1
100
AcDbLine
 10
243.89002
 20
19.135728
 30
0.0
 11
243.910571
 21
19.016204
 31
0.0
  0
LINE
  5
223
100
AcDbEntity
  8
0
390
0
  6
Continuous
 62
     1
100
AcDbLine
 10
241.380728
 20
15.936793
 30
0.0
 11
241.068729
 21
15.749587
 31
0.0
  0
LINE
  5
224
100
AcDbEntity
  8
0
390
0
  6
Continuous
 62
     1
100
AcDbLine
 10
243.809612
 20
19.362451
 30
0.0
 11
243.856166
 21
19.252203
 31
0.0
  0
LINE
  5
225
100
AcDbEntity
  8
0
390
0
  6
Continuous
 62
     1
100
AcDbLine
 10
243.751595
 20
19.467029
 30
0.0
 11
243.809612
 21
19.362451
 31
0.0
  0
LINE
  5
226
100
AcDbEntity
  8
0
390
0
  6
Continuous
 62
     1
100
AcDbLine
 10
243.682126
 20
19.564523
 30
0.0
 11
243.751595
 21
19.467029
 31
0.0
  0
LINE
  5
227
100
AcDbEntity
  8
0
390
0
  6
Continuous
 62
     1
100
AcDbLine
 10
243.60346
 20
19.65465
 30
0.0
 11
243.682126
 21
19.564523
 31
0.0
  0
LINE
  5
228
100
AcDbEntity
  8
0
390
0
  6
Continuous
 62
     1
100
AcDbLine
 10
243.51675
 20
19.737124
 30
0.0
 11
243.60346
 21
19.65465
 31
0.0
  0
LINE
  5
229
100
AcDbEntity
  8
0
390
0
  6
Continuous
 62
     1
100
AcDbLine
 10
243.393559
 20
19.833908
 30
0.0
 11
243.51675
 21
19.737124
 31
0.0
  0
LINE
  5
22A
100
AcDbEntity
  8
0
390
0
  6
Continuous
 62
     1
100
AcDbLine
 10
243.261859
 20
19.918765
 30
0.0
 11
243.393559
 21
19.833908
 31
0.0
  0
LINE
  5
22B
100
AcDbEntity
  8
0
390
0
  6
Continuous
 62
     1
100
AcDbLine
 10
243.123785
 20
19.992806
 30
0.0
 11
243.261859
 21
19.918765
 31
0.0
  0
LINE
  5
22C
100
AcDbEntity
  8
0
390
0
  6
Continuous
 62
     1
100
AcDbLine
 10
242.970589
 20
20.061425
 30
0.0
 11
243.123785
 21
19.992806
 31
0.0
  0
LINE
  5
22D
100
AcDbEntity
  8
0
390
0
  6
Continuous
 62
     1
100
AcDbLine
 10
242.813367
 20
20.120238
 30
0.0
 11
242.970589
 21
20.061425
 31
0.0
  0
LINE
  5
22E
100
AcDbEntity
  8
0
390
0
  6
Continuous
 62
     1
100
AcDbLine
 10
243.856166
 20
19.252203
 30
0.0
 11
243.89002
 21
19.135728
 31
0.0
  0
LINE
  5
22F
100
AcDbEntity
  8
0
390
0
  6
Continuous
 62
     1
100
AcDbLine
 10
242.49077
 20
20.212865
 30
0.0
 11
242.653171
 21
20.170391
 31
0.0
  0
LINE
  5
230
100
AcDbEntity
  8
0
390
0
  6
Continuous
 62
     1
100
AcDbLine
 10
242.32673
 20
20.248493
 30
0.0
 11
242.49077
 21
20.212865
 31
0.0
  0
LINE
  5
231
100
AcDbEntity
  8
0
390
0
  6
Continuous
 62
     1
100
AcDbLine
 10
242.057991
 20
20.293511
 30
0.0
 11
242.32673
 21
20.248493
 31
0.0
  0
LINE
  5
232
100
AcDbEntity
  8
0
390
0
  6
Continuous
 62
     1
100
AcDbLine
 10
241.787294
 20
20.324718
 30
0.0
 11
242.057991
 21
20.293511
 31
0.0
  0
LINE
  5
233
100
AcDbEntity
  8
0
390
0
  6
Continuous
 62
     1
100
AcDbLine
 10
241.515484
 20
20.343978
 30
0.0
 11
241.787294
 21
20.324718
 31
0.0
  0
LINE
  5
234
100
AcDbEntity
  8
0
390
0
  6
Continuous
 62
     1
100
AcDbLine
 10
237.606088
 20
19.093091
 30
0.0
 11
237.30886
 21
19.034126
 31
0.0
  0
LINE
  5
235
100
AcDbEntity
  8
0
390
0
  6
Continuous
 62
     1
100
AcDbLine
 10
240.970636
 20
20.352153
 30
0.0
 11
241.243131
 21
20.352741
 31
0.0
  0
LINE
  5
236
100
AcDbEntity
  8
0
390
0
  6
Continuous
 62
     1
100
AcDbLine
 10
240.698289
 20
20.343132
 30
0.0
 11
240.970636
 21
20.352153
 31
0.0
  0
LINE
  5
237
100
AcDbEntity
  8
0
390
0
  6
Continuous
 62
     1
100
AcDbLine
 10
240.426306
 20
20.326424
 30
0.0
 11
240.698289
 21
20.343132
 31
0.0
  0
LINE
  5
238
100
AcDbEntity
  8
0
390
0
  6
Continuous
 62
     1
100
AcDbLine
 10
240.000946
 20
20.286177
 30
0.0
 11
240.426306
 21
20.326424
 31
0.0
  0
LINE
  5
239
100
AcDbEntity
  8
0
390
0
  6
Continuous
 62
     1
100
AcDbLine
 10
239.577343
 20
20.230369
 30
0.0
 11
240.000946
 21
20.286177
 31
0.0
  0
LINE
  5
23A
100
AcDbEntity
  8
0
390
0
  6
Continuous
 62
     1
100
AcDbLine
 10
239.155843
 20
20.16042
 30
0.0
 11
239.577343
 21
20.230369
 31
0.0
  0
LINE
  5
23B
100
AcDbEntity
  8
0
390
0
  6
Continuous
 62
     1
100
AcDbLine
 10
238.736714
 20
20.077424
 30
0.0
 11
239.155843
 21
20.16042
 31
0.0
  0
LINE
  5
23C
100
AcDbEntity
  8
0
390
0
  6
Continuous
 62
     1
100
AcDbLine
 10
238.320184
 20
19.982236
 30
0.0
 11
238.736714
 21
20.077424
 31
0.0
  0
LINE
  5
23D
100
AcDbEntity
  8
0
390
0
  6
Continuous
 62
     1
100
AcDbLine
 10
237.913815
 20
19.877537
 30
0.0
 11
238.320184
 21
19.982236
 31
0.0
  0
LINE
  5
23E
100
AcDbEntity
  8
0
390
0
  6
Continuous
 62
     1
100
AcDbLine
 10
237.510337
 20
19.762201
 30
0.0
 11
237.913815
 21
19.877537
 31
0.0
  0
LINE
  5
23F
100
AcDbEntity
  8
0
390
0
  6
Continuous
 62
     1
100
AcDbLine
 10
237.109874
 20
19.636778
 30
0.0
 11
237.510337
 21
19.762201
 31
0.0
  0
LINE
  5
240
100
AcDbEntity
  8
0
390
0
  6
Continuous
 62
     1
100
AcDbLine
 10
236.712702
 20
19.501308
 30
0.0
 11
237.109874
 21
19.636778
 31
0.0
  0
ARC
  5
241
100
AcDbEntity
  8
0
390
0
  6
Continuous
 62
     1
100
AcDbCircle
 10
242.220176
 20
3.934758
 30
0.0
 40
16.512109
210
0.0
220
0.0
230
1.0
100
AcDbArc
 50
109.483874
 51
115.178378
  0
LINE
  5
242
100
AcDbEntity
  8
0
390
0
  6
Continuous
 62
     1
100
AcDbLine
 10
235.131856
 20
18.847867
 30
0.0
 11
235.195301
 21
18.878013
 31
0.0
  0
LINE
  5
243
100
AcDbEntity
  8
0
390
0
  6
Continuous
 62
     1
100
AcDbLine
 10
234.647401
 20
14.760641
 30
0.0
 11
235.131856
 21
18.847867
 31
0.0
  0
ARC
  5
244
100
AcDbEntity
  8
0
390
0
  6
Continuous
 62
     1
100
AcDbCircle
 10
235.699055
 20
20.187909
 30
0.0
 40
5.528219
210
0.0
220
0.0
230
1.0
100
AcDbArc
 50
259.033573
 51
268.934772
  0
LINE
  5
245
100
AcDbEntity
  8
0
390
0
  6
Continuous
 62
     1
100
AcDbLine
 10
242.653171
 20
20.170391
 30
0.0
 11
242.813367
 21
20.120238
 31
0.0
  0
LINE
  5
246
100
AcDbEntity
  8
0
390
0
  6
Continuous
 62
     1
100
AcDbLine
 10
241.243131
 20
20.352741
 30
0.0
 11
241.515484
 21
20.343978
 31
0.0
  0
LINE
  5
247
100
AcDbEntity
  8
0
390
0
  6
Continuous
 62
     1
100
AcDbLine
 10
243.152106
 20
17.35011
 30
0.0
 11
242.989023
 21
17.179153
 31
0.0
  0
LINE
  5
248
100
AcDbEntity
  8
0
390
0
  6
Continuous
 62
     1
100
AcDbLine
 10
243.307193
 20
17.528349
 30
0.0
 11
243.152106
 21
17.35011
 31
0.0
  0
LINE
  5
249
100
AcDbEntity
  8
0
390
0
  6
Continuous
 62
     1
100
AcDbLine
 10
243.452571
 20
17.714585
 30
0.0
 11
243.307193
 21
17.528349
 31
0.0
  0
LINE
  5
24A
100
AcDbEntity
  8
0
390
0
  6
Continuous
 62
     1
100
AcDbLine
 10
243.541235
 20
17.840951
 30
0.0
 11
243.452571
 21
17.714585
 31
0.0
  0
LINE
  5
24B
100
AcDbEntity
  8
0
390
0
  6
Continuous
 62
     1
100
AcDbLine
 10
239.497424
 20
19.210585
 30
0.0
 11
239.207533
 21
19.224067
 31
0.0
  0
LINE
  5
24C
100
AcDbEntity
  8
0
390
0
  6
Continuous
 62
     1
100
AcDbLine
 10
239.685182
 20
19.19441
 30
0.0
 11
239.497424
 21
19.210585
 31
0.0
  0
LINE
  5
24D
100
AcDbEntity
  8
0
390
0
  6
Continuous
 62
     1
100
AcDbLine
 10
239.87228
 20
19.171855
 30
0.0
 11
239.685182
 21
19.19441
 31
0.0
  0
LINE
  5
24E
100
AcDbEntity
  8
0
390
0
  6
Continuous
 62
     1
100
AcDbLine
 10
240.05841
 20
19.142364
 30
0.0
 11
239.87228
 21
19.171855
 31
0.0
  0
LINE
  5
24F
100
AcDbEntity
  8
0
390
0
  6
Continuous
 62
     1
100
AcDbLine
 10
240.243174
 20
19.105265
 30
0.0
 11
240.05841
 21
19.142364
 31
0.0
  0
LINE
  5
250
100
AcDbEntity
  8
0
390
0
  6
Continuous
 62
     1
100
AcDbLine
 10
240.426043
 20
19.059748
 30
0.0
 11
240.243174
 21
19.105265
 31
0.0
  0
LINE
  5
251
100
AcDbEntity
  8
0
390
0
  6
Continuous
 62
     1
100
AcDbLine
 10
240.606307
 20
19.004824
 30
0.0
 11
240.426043
 21
19.059748
 31
0.0
  0
LINE
  5
252
100
AcDbEntity
  8
0
390
0
  6
Continuous
 62
     1
100
AcDbLine
 10
240.782987
 20
18.939292
 30
0.0
 11
240.606307
 21
19.004824
 31
0.0
  0
LINE
  5
253
100
AcDbEntity
  8
0
390
0
  6
Continuous
 62
     1
100
AcDbLine
 10
240.918122
 20
18.879564
 30
0.0
 11
240.782987
 21
18.939292
 31
0.0
  0
LINE
  5
254
100
AcDbEntity
  8
0
390
0
  6
Continuous
 62
     1
100
AcDbLine
 10
241.049313
 20
18.811613
 30
0.0
 11
240.918122
 21
18.879564
 31
0.0
  0
LINE
  5
255
100
AcDbEntity
  8
0
390
0
  6
Continuous
 62
     1
100
AcDbLine
 10
241.175354
 20
18.734536
 30
0.0
 11
241.049313
 21
18.811613
 31
0.0
  0
LINE
  5
256
100
AcDbEntity
  8
0
390
0
  6
Continuous
 62
     1
100
AcDbLine
 10
241.294644
 20
18.647385
 30
0.0
 11
241.175354
 21
18.734536
 31
0.0
  0
LINE
  5
257
100
AcDbEntity
  8
0
390
0
  6
Continuous
 62
     1
100
AcDbLine
 10
241.40509
 20
18.549279
 30
0.0
 11
241.294644
 21
18.647385
 31
0.0
  0
LINE
  5
258
100
AcDbEntity
  8
0
390
0
  6
Continuous
 62
     1
100
AcDbLine
 10
241.483955
 20
18.464096
 30
0.0
 11
241.40509
 21
18.549279
 31
0.0
  0
LINE
  5
259
100
AcDbEntity
  8
0
390
0
  6
Continuous
 62
     1
100
AcDbLine
 10
241.554259
 20
18.371716
 30
0.0
 11
241.483955
 21
18.464096
 31
0.0
  0
LINE
  5
25A
100
AcDbEntity
  8
0
390
0
  6
Continuous
 62
     1
100
AcDbLine
 10
241.614369
 20
18.272421
 30
0.0
 11
241.554259
 21
18.371716
 31
0.0
  0
LINE
  5
25B
100
AcDbEntity
  8
0
390
0
  6
Continuous
 62
     1
100
AcDbLine
 10
241.662963
 20
18.166987
 30
0.0
 11
241.614369
 21
18.272421
 31
0.0
  0
LINE
  5
25C
100
AcDbEntity
  8
0
390
0
  6
Continuous
 62
     1
100
AcDbLine
 10
241.698674
 20
18.05654
 30
0.0
 11
241.662963
 21
18.166987
 31
0.0
  0
LINE
  5
25D
100
AcDbEntity
  8
0
390
0
  6
Continuous
 62
     1
100
AcDbLine
 10
241.721963
 20
17.936664
 30
0.0
 11
241.698674
 21
18.05654
 31
0.0
  0
LINE
  5
25E
100
AcDbEntity
  8
0
390
0
  6
Continuous
 62
     1
100
AcDbLine
 10
241.730029
 20
17.814782
 30
0.0
 11
241.721963
 21
17.936664
 31
0.0
  0
LINE
  5
25F
100
AcDbEntity
  8
0
390
0
  6
Continuous
 62
     1
100
AcDbLine
 10
241.723747
 20
17.692816
 30
0.0
 11
241.730029
 21
17.814782
 31
0.0
  0
LINE
  5
260
100
AcDbEntity
  8
0
390
0
  6
Continuous
 62
     1
100
AcDbLine
 10
241.704121
 20
17.572267
 30
0.0
 11
241.723747
 21
17.692816
 31
0.0
  0
LINE
  5
261
100
AcDbEntity
  8
0
390
0
  6
Continuous
 62
     1
100
AcDbLine
 10
241.672627
 20
17.454252
 30
0.0
 11
241.704121
 21
17.572267
 31
0.0
  0
LINE
  5
262
100
AcDbEntity
  8
0
390
0
  6
Continuous
 62
     1
100
AcDbLine
 10
241.630812
 20
17.339483
 30
0.0
 11
241.672627
 21
17.454252
 31
0.0
  0
LINE
  5
263
100
AcDbEntity
  8
0
390
0
  6
Continuous
 62
     1
100
AcDbLine
 10
241.580133
 20
17.228338
 30
0.0
 11
241.630812
 21
17.339483
 31
0.0
  0
LINE
  5
264
100
AcDbEntity
  8
0
390
0
  6
Continuous
 62
     1
100
AcDbLine
 10
241.521881
 20
17.120966
 30
0.0
 11
241.580133
 21
17.228338
 31
0.0
  0
LINE
  5
265
100
AcDbEntity
  8
0
390
0
  6
Continuous
 62
     1
100
AcDbLine
 10
241.434306
 20
16.983653
 30
0.0
 11
241.521881
 21
17.120966
 31
0.0
  0
LINE
  5
266
100
AcDbEntity
  8
0
390
0
  6
Continuous
 62
     1
100
AcDbLine
 10
241.337328
 20
16.852804
 30
0.0
 11
241.434306
 21
16.983653
 31
0.0
  0
LINE
  5
267
100
AcDbEntity
  8
0
390
0
  6
Continuous
 62
     1
100
AcDbLine
 10
241.232599
 20
16.728066
 30
0.0
 11
241.337328
 21
16.852804
 31
0.0
  0
LINE
  5
268
100
AcDbEntity
  8
0
390
0
  6
Continuous
 62
     1
100
AcDbLine
 10
241.121406
 20
16.609051
 30
0.0
 11
241.232599
 21
16.728066
 31
0.0
  0
LINE
  5
269
100
AcDbEntity
  8
0
390
0
  6
Continuous
 62
     1
100
AcDbLine
 10
241.004752
 20
16.495379
 30
0.0
 11
241.121406
 21
16.609051
 31
0.0
  0
LINE
  5
26A
100
AcDbEntity
  8
0
390
0
  6
Continuous
 62
     1
100
AcDbLine
 10
240.883432
 20
16.3867
 30
0.0
 11
241.004752
 21
16.495379
 31
0.0
  0
LINE
  5
26B
100
AcDbEntity
  8
0
390
0
  6
Continuous
 62
     1
100
AcDbLine
 10
240.694053
 20
16.232361
 30
0.0
 11
240.883432
 21
16.3867
 31
0.0
  0
LINE
  5
26C
100
AcDbEntity
  8
0
390
0
  6
Continuous
 62
     1
100
AcDbLine
 10
240.497225
 20
16.087633
 30
0.0
 11
240.694053
 21
16.232361
 31
0.0
  0
LINE
  5
26D
100
AcDbEntity
  8
0
390
0
  6
Continuous
 62
     1
100
AcDbLine
 10
240.294179
 20
15.95176
 30
0.0
 11
240.497225
 21
16.087633
 31
0.0
  0
LINE
  5
26E
100
AcDbEntity
  8
0
390
0
  6
Continuous
 62
     1
100
AcDbLine
 10
240.085854
 20
15.824123
 30
0.0
 11
240.294179
 21
15.95176
 31
0.0
  0
LINE
  5
26F
100
AcDbEntity
  8
0
390
0
  6
Continuous
 62
     1
100
AcDbLine
 10
239.872984
 20
15.704218
 30
0.0
 11
240.085854
 21
15.824123
 31
0.0
  0
LINE
  5
270
100
AcDbEntity
  8
0
390
0
  6
Continuous
 62
     1
100
AcDbLine
 10
239.656151
 20
15.591634
 30
0.0
 11
239.872984
 21
15.704218
 31
0.0
  0
LINE
  5
271
100
AcDbEntity
  8
0
390
0
  6
Continuous
 62
     1
100
AcDbLine
 10
239.435852
 20
15.485987
 30
0.0
 11
239.656151
 21
15.591634
 31
0.0
  0
LINE
  5
272
100
AcDbEntity
  8
0
390
0
  6
Continuous
 62
     1
100
AcDbLine
 10
239.212422
 20
15.387138
 30
0.0
 11
239.435852
 21
15.485987
 31
0.0
  0
LINE
  5
273
100
AcDbEntity
  8
0
390
0
  6
Continuous
 62
     1
100
AcDbLine
 10
239.130461
 20
15.352826
 30
0.0
 11
239.212422
 21
15.387138
 31
0.0
  0
ARC
  5
274
100
AcDbEntity
  8
0
390
0
  6
Continuous
 62
     1
100
AcDbCircle
 10
239.269445
 20
15.137246
 30
0.0
 40
0.256498
210
0.0
220
0.0
230
1.0
100
AcDbArc
 50
122.809863
 51
180.08436
  0
LINE
  5
275
100
AcDbEntity
  8
0
390
0
  6
Continuous
 62
     1
100
AcDbLine
 10
243.870488
 20
18.535287
 30
0.0
 11
243.824723
 21
18.387869
 31
0.0
  0
LINE
  5
276
100
AcDbEntity
  8
0
390
0
  6
Continuous
 62
     1
100
AcDbLine
 10
234.523661
 20
13.718818
 30
0.0
 11
234.260842
 21
13.708709
 31
0.0
  0
LINE
  5
277
100
AcDbEntity
  8
0
390
0
  6
Continuous
 62
     1
100
AcDbLine
 10
233.997839
 20
13.706355
 30
0.0
 11
233.7349
 21
13.712478
 31
0.0
  0
LINE
  5
278
100
AcDbEntity
  8
0
390
0
  6
Continuous
 62
     1
100
AcDbLine
 10
233.7349
 20
13.712478
 30
0.0
 11
233.472354
 21
13.72807
 31
0.0
  0
LINE
  5
279
100
AcDbEntity
  8
0
390
0
  6
Continuous
 62
     1
100
AcDbLine
 10
233.472354
 20
13.72807
 30
0.0
 11
233.210666
 21
13.75435
 31
0.0
  0
LINE
  5
27A
100
AcDbEntity
  8
0
390
0
  6
Continuous
 62
     1
100
AcDbLine
 10
232.950503
 20
13.792861
 30
0.0
 11
232.777006
 21
13.826581
 31
0.0
  0
LINE
  5
27B
100
AcDbEntity
  8
0
390
0
  6
Continuous
 62
     1
100
AcDbLine
 10
232.777006
 20
13.826581
 30
0.0
 11
232.605054
 21
13.867451
 31
0.0
  0
LINE
  5
27C
100
AcDbEntity
  8
0
390
0
  6
Continuous
 62
     1
100
AcDbLine
 10
232.605054
 20
13.867451
 30
0.0
 11
232.435218
 21
13.916359
 31
0.0
  0
LINE
  5
27D
100
AcDbEntity
  8
0
390
0
  6
Continuous
 62
     1
100
AcDbLine
 10
232.268274
 20
13.974365
 30
0.0
 11
232.105304
 21
14.042727
 31
0.0
  0
LINE
  5
27E
100
AcDbEntity
  8
0
390
0
  6
Continuous
 62
     1
100
AcDbLine
 10
232.105304
 20
14.042727
 30
0.0
 11
231.994377
 21
14.097514
 31
0.0
  0
LINE
  5
27F
100
AcDbEntity
  8
0
390
0
  6
Continuous
 62
     1
100
AcDbLine
 10
231.994377
 20
14.097514
 30
0.0
 11
231.886813
 21
14.158636
 31
0.0
  0
LINE
  5
280
100
AcDbEntity
  8
0
390
0
  6
Continuous
 62
     1
100
AcDbLine
 10
231.886813
 20
14.158636
 30
0.0
 11
231.783477
 21
14.226658
 31
0.0
  0
LINE
  5
281
100
AcDbEntity
  8
0
390
0
  6
Continuous
 62
     1
100
AcDbLine
 10
231.783477
 20
14.226658
 30
0.0
 11
231.685449
 21
14.302121
 31
0.0
  0
LINE
  5
282
100
AcDbEntity
  8
0
390
0
  6
Continuous
 62
     1
100
AcDbLine
 10
231.685449
 20
14.302121
 30
0.0
 11
231.592447
 21
14.387059
 31
0.0
  0
LINE
  5
283
100
AcDbEntity
  8
0
390
0
  6
Continuous
 62
     1
100
AcDbLine
 10
231.592447
 20
14.387059
 30
0.0
 11
231.507917
 21
14.480424
 31
0.0
  0
LINE
  5
284
100
AcDbEntity
  8
0
390
0
  6
Continuous
 62
     1
100
AcDbLine
 10
231.507917
 20
14.480424
 30
0.0
 11
231.433603
 21
14.5821
 31
0.0
  0
LINE
  5
285
100
AcDbEntity
  8
0
390
0
  6
Continuous
 62
     1
100
AcDbLine
 10
231.433603
 20
14.5821
 30
0.0
 11
231.371141
 21
14.691467
 31
0.0
  0
LINE
  5
286
100
AcDbEntity
  8
0
390
0
  6
Continuous
 62
     1
100
AcDbLine
 10
231.371141
 20
14.691467
 30
0.0
 11
231.322124
 21
14.807462
 31
0.0
  0
LINE
  5
287
100
AcDbEntity
  8
0
390
0
  6
Continuous
 62
     1
100
AcDbLine
 10
231.322124
 20
14.807462
 30
0.0
 11
231.290633
 21
14.913436
 31
0.0
  0
LINE
  5
288
100
AcDbEntity
  8
0
390
0
  6
Continuous
 62
     1
100
AcDbLine
 10
231.270398
 20
15.022134
 30
0.0
 11
231.261081
 21
15.132292
 31
0.0
  0
LINE
  5
289
100
AcDbEntity
  8
0
390
0
  6
Continuous
 62
     1
100
AcDbLine
 10
231.261081
 20
15.132292
 30
0.0
 11
231.262264
 21
15.242847
 31
0.0
  0
LINE
  5
28A
100
AcDbEntity
  8
0
390
0
  6
Continuous
 62
     1
100
AcDbLine
 10
231.262264
 20
15.242847
 30
0.0
 11
231.273104
 21
15.352875
 31
0.0
  0
LINE
  5
28B
100
AcDbEntity
  8
0
390
0
  6
Continuous
 62
     1
100
AcDbLine
 10
231.273104
 20
15.352875
 30
0.0
 11
231.299417
 21
15.491088
 31
0.0
  0
LINE
  5
28C
100
AcDbEntity
  8
0
390
0
  6
Continuous
 62
     1
100
AcDbLine
 10
231.337928
 20
15.626417
 30
0.0
 11
231.386827
 21
15.758355
 31
0.0
  0
LINE
  5
28D
100
AcDbEntity
  8
0
390
0
  6
Continuous
 62
     1
100
AcDbLine
 10
231.386827
 20
15.758355
 30
0.0
 11
231.444534
 21
15.886688
 31
0.0
  0
LINE
  5
28E
100
AcDbEntity
  8
0
390
0
  6
Continuous
 62
     1
100
AcDbLine
 10
231.509725
 20
16.011388
 30
0.0
 11
231.618286
 21
16.190417
 31
0.0
  0
LINE
  5
28F
100
AcDbEntity
  8
0
390
0
  6
Continuous
 62
     1
100
AcDbLine
 10
231.738206
 20
16.362054
 30
0.0
 11
231.867372
 21
16.526853
 31
0.0
  0
LINE
  5
290
100
AcDbEntity
  8
0
390
0
  6
Continuous
 62
     1
100
AcDbLine
 10
231.867372
 20
16.526853
 30
0.0
 11
232.004192
 21
16.685359
 31
0.0
  0
LINE
  5
291
100
AcDbEntity
  8
0
390
0
  6
Continuous
 62
     1
100
AcDbLine
 10
232.004192
 20
16.685359
 30
0.0
 11
232.147451
 21
16.838074
 31
0.0
  0
LINE
  5
292
100
AcDbEntity
  8
0
390
0
  6
Continuous
 62
     1
100
AcDbLine
 10
232.147451
 20
16.838074
 30
0.0
 11
232.296205
 21
16.985443
 31
0.0
  0
LINE
  5
293
100
AcDbEntity
  8
0
390
0
  6
Continuous
 62
     1
100
AcDbLine
 10
232.296205
 20
16.985443
 30
0.0
 11
232.528052
 21
17.197318
 31
0.0
  0
LINE
  5
294
100
AcDbEntity
  8
0
390
0
  6
Continuous
 62
     1
100
AcDbLine
 10
232.528052
 20
17.197318
 30
0.0
 11
232.768701
 21
17.399147
 31
0.0
  0
LINE
  5
295
100
AcDbEntity
  8
0
390
0
  6
Continuous
 62
     1
100
AcDbLine
 10
232.768701
 20
17.399147
 30
0.0
 11
233.016738
 21
17.591831
 31
0.0
  0
LINE
  5
296
100
AcDbEntity
  8
0
390
0
  6
Continuous
 62
     1
100
AcDbLine
 10
233.271091
 20
17.7761
 30
0.0
 11
233.530934
 21
17.952546
 31
0.0
  0
LINE
  5
297
100
AcDbEntity
  8
0
390
0
  6
Continuous
 62
     1
100
AcDbLine
 10
233.530934
 20
17.952546
 30
0.0
 11
233.795612
 21
18.121653
 31
0.0
  0
LINE
  5
298
100
AcDbEntity
  8
0
390
0
  6
Continuous
 62
     1
100
AcDbLine
 10
233.795612
 20
18.121653
 30
0.0
 11
234.064567
 21
18.28388
 31
0.0
  0
LINE
  5
299
100
AcDbEntity
  8
0
390
0
  6
Continuous
 62
     1
100
AcDbLine
 10
234.064567
 20
18.28388
 30
0.0
 11
234.337446
 21
18.43941
 31
0.0
  0
LINE
  5
29A
100
AcDbEntity
  8
0
390
0
  6
Continuous
 62
     1
100
AcDbLine
 10
234.337446
 20
18.43941
 30
0.0
 11
234.377119
 21
18.461121
 31
0.0
  0
ARC
  5
29B
100
AcDbEntity
  8
0
390
0
  6
Continuous
 62
     1
100
AcDbCircle
 10
234.480432
 20
18.227246
 30
0.0
 40
0.255678
210
0.0
220
0.0
230
1.0
100
AcDbArc
 50
68.62417
 51
113.833094
  0
LINE
  5
29C
100
AcDbEntity
  8
0
390
0
  6
Continuous
 62
     1
100
AcDbLine
 10
238.590028
 20
14.603155
 30
0.0
 11
238.465514
 21
14.558251
 31
0.0
  0
LINE
  5
29D
100
AcDbEntity
  8
0
390
0
  6
Continuous
 62
     1
100
AcDbLine
 10
238.673945
 20
14.633849
 30
0.0
 11
238.590028
 21
14.603155
 31
0.0
  0
ARC
  5
29E
100
AcDbEntity
  8
0
390
0
  6
Continuous
 62
     1
100
AcDbCircle
 10
238.541473
 20
14.862021
 30
0.0
 40
0.26384
210
0.0
220
0.0
230
1.0
100
AcDbArc
 50
300.138399
 51
0.079984
  0
ARC
  5
29F
100
AcDbEntity
  8
0
390
0
  6
Continuous
 62
     1
100
AcDbCircle
 10
238.543268
 20
14.863892
 30
0.0
 40
0.26205
210
0.0
220
0.0
230
1.0
100
AcDbArc
 50
359.671456
 51
89.80429
  0
LINE
  5
2A0
100
AcDbEntity
  8
0
390
0
  6
Continuous
 62
     1
100
AcDbLine
 10
238.510471
 20
15.12354
 30
0.0
 11
238.544163
 21
15.12594
 31
0.0
  0
LINE
  5
2A1
100
AcDbEntity
  8
0
390
0
  6
Continuous
 62
     1
100
AcDbLine
 10
238.419549
 20
15.094005
 30
0.0
 11
238.510471
 21
15.12354
 31
0.0
  0
LINE
  5
2A2
100
AcDbEntity
  8
0
390
0
  6
Continuous
 62
     1
100
AcDbLine
 10
237.917947
 20
14.949259
 30
0.0
 11
238.419549
 21
15.094005
 31
0.0
  0
ARC
  5
2A3
100
AcDbEntity
  8
0
390
0
  6
Continuous
 62
     1
100
AcDbCircle
 10
235.718073
 20
23.163194
 30
0.0
 40
8.503421
210
0.0
220
0.0
230
1.0
100
AcDbArc
 50
269.179352
 51
284.993215
  0
ARC
  5
2A4
100
AcDbEntity
  8
0
390
0
  6
Continuous
 62
     1
100
AcDbCircle
 10
235.692533
 20
20.12602
 30
0.0
 40
5.466222
210
0.0
220
0.0
230
1.0
100
AcDbArc
 50
258.977281
 51
268.991063
  0
LINE
  5
2A5
100
AcDbEntity
  8
0
390
0
  6
Continuous
 62
     1
100
AcDbLine
 10
234.49314
 20
14.794761
 30
0.0
 11
234.647401
 21
14.760641
 31
0.0
  0
LINE
  5
2A6
100
AcDbEntity
  8
0
390
0
  6
Continuous
 62
     1
100
AcDbLine
 10
234.340371
 20
14.835029
 30
0.0
 11
234.49314
 21
14.794761
 31
0.0
  0
LINE
  5
2A7
100
AcDbEntity
  8
0
390
0
  6
Continuous
 62
     1
100
AcDbLine
 10
234.189547
 20
14.882055
 30
0.0
 11
234.340371
 21
14.835029
 31
0.0
  0
LINE
  5
2A8
100
AcDbEntity
  8
0
390
0
  6
Continuous
 62
     1
100
AcDbLine
 10
234.041267
 20
14.936564
 30
0.0
 11
234.189547
 21
14.882055
 31
0.0
  0
LINE
  5
2A9
100
AcDbEntity
  8
0
390
0
  6
Continuous
 62
     1
100
AcDbLine
 10
233.896326
 20
14.999404
 30
0.0
 11
234.041267
 21
14.936564
 31
0.0
  0
LINE
  5
2AA
100
AcDbEntity
  8
0
390
0
  6
Continuous
 62
     1
100
AcDbLine
 10
233.755796
 20
15.071554
 30
0.0
 11
233.896326
 21
14.999404
 31
0.0
  0
LINE
  5
2AB
100
AcDbEntity
  8
0
390
0
  6
Continuous
 62
     1
100
AcDbLine
 10
233.210666
 20
13.75435
 30
0.0
 11
232.950503
 21
13.792861
 31
0.0
  0
LINE
  5
2AC
100
AcDbEntity
  8
0
390
0
  6
Continuous
 62
     1
100
AcDbLine
 10
233.520689
 20
15.227033
 30
0.0
 11
233.621128
 21
15.154111
 31
0.0
  0
LINE
  5
2AD
100
AcDbEntity
  8
0
390
0
  6
Continuous
 62
     1
100
AcDbLine
 10
233.426302
 20
15.307623
 30
0.0
 11
233.520689
 21
15.227033
 31
0.0
  0
LINE
  5
2AE
100
AcDbEntity
  8
0
390
0
  6
Continuous
 62
     1
100
AcDbLine
 10
231.299417
 20
15.491088
 30
0.0
 11
231.337928
 21
15.626417
 31
0.0
  0
LINE
  5
2AF
100
AcDbEntity
  8
0
390
0
  6
Continuous
 62
     1
100
AcDbLine
 10
233.261958
 20
15.493198
 30
0.0
 11
233.339471
 21
15.396291
 31
0.0
  0
LINE
  5
2B0
100
AcDbEntity
  8
0
390
0
  6
Continuous
 62
     1
100
AcDbLine
 10
233.195673
 20
15.598092
 30
0.0
 11
233.261958
 21
15.493198
 31
0.0
  0
LINE
  5
2B1
100
AcDbEntity
  8
0
390
0
  6
Continuous
 62
     1
100
AcDbLine
 10
233.142459
 20
15.710175
 30
0.0
 11
233.195673
 21
15.598092
 31
0.0
  0
LINE
  5
2B2
100
AcDbEntity
  8
0
390
0
  6
Continuous
 62
     1
100
AcDbLine
 10
233.103722
 20
15.828045
 30
0.0
 11
233.142459
 21
15.710175
 31
0.0
  0
LINE
  5
2B3
100
AcDbEntity
  8
0
390
0
  6
Continuous
 62
     1
100
AcDbLine
 10
231.290633
 20
14.913436
 30
0.0
 11
231.270398
 21
15.022134
 31
0.0
  0
LINE
  5
2B4
100
AcDbEntity
  8
0
390
0
  6
Continuous
 62
     1
100
AcDbLine
 10
233.072356
 20
16.075261
 30
0.0
 11
233.080178
 21
15.950651
 31
0.0
  0
LINE
  5
2B5
100
AcDbEntity
  8
0
390
0
  6
Continuous
 62
     1
100
AcDbLine
 10
233.079601
 20
16.19991
 30
0.0
 11
233.072356
 21
16.075261
 31
0.0
  0
LINE
  5
2B6
100
AcDbEntity
  8
0
390
0
  6
Continuous
 62
     1
100
AcDbLine
 10
233.100683
 20
16.322986
 30
0.0
 11
233.079601
 21
16.19991
 31
0.0
  0
LINE
  5
2B7
100
AcDbEntity
  8
0
390
0
  6
Continuous
 62
     1
100
AcDbLine
 10
233.134023
 20
16.44333
 30
0.0
 11
233.100683
 21
16.322986
 31
0.0
  0
LINE
  5
2B8
100
AcDbEntity
  8
0
390
0
  6
Continuous
 62
     1
100
AcDbLine
 10
233.177974
 20
16.560225
 30
0.0
 11
233.134023
 21
16.44333
 31
0.0
  0
LINE
  5
2B9
100
AcDbEntity
  8
0
390
0
  6
Continuous
 62
     1
100
AcDbLine
 10
233.230998
 20
16.673301
 30
0.0
 11
233.177974
 21
16.560225
 31
0.0
  0
LINE
  5
2BA
100
AcDbEntity
  8
0
390
0
  6
Continuous
 62
     1
100
AcDbLine
 10
233.316276
 20
16.822332
 30
0.0
 11
233.230998
 21
16.673301
 31
0.0
  0
LINE
  5
2BB
100
AcDbEntity
  8
0
390
0
  6
Continuous
 62
     1
100
AcDbLine
 10
233.413307
 20
16.964009
 30
0.0
 11
233.316276
 21
16.822332
 31
0.0
  0
LINE
  5
2BC
100
AcDbEntity
  8
0
390
0
  6
Continuous
 62
     1
100
AcDbLine
 10
233.51986
 20
17.098681
 30
0.0
 11
233.413307
 21
16.964009
 31
0.0
  0
LINE
  5
2BD
100
AcDbEntity
  8
0
390
0
  6
Continuous
 62
     1
100
AcDbLine
 10
233.63423
 20
17.226789
 30
0.0
 11
233.51986
 21
17.098681
 31
0.0
  0
LINE
  5
2BE
100
AcDbEntity
  8
0
390
0
  6
Continuous
 62
     1
100
AcDbLine
 10
233.778775
 20
17.371366
 30
0.0
 11
233.63423
 21
17.226789
 31
0.0
  0
LINE
  5
2BF
100
AcDbEntity
  8
0
390
0
  6
Continuous
 62
     1
100
AcDbLine
 10
233.930865
 20
17.507992
 30
0.0
 11
233.778775
 21
17.371366
 31
0.0
  0
LINE
  5
2C0
100
AcDbEntity
  8
0
390
0
  6
Continuous
 62
     1
100
AcDbLine
 10
234.089234
 20
17.637294
 30
0.0
 11
233.930865
 21
17.507992
 31
0.0
  0
LINE
  5
2C1
100
AcDbEntity
  8
0
390
0
  6
Continuous
 62
     1
100
AcDbLine
 10
234.25291
 20
17.759813
 30
0.0
 11
234.089234
 21
17.637294
 31
0.0
  0
LINE
  5
2C2
100
AcDbEntity
  8
0
390
0
  6
Continuous
 62
     1
100
AcDbLine
 10
234.421132
 20
17.876017
 30
0.0
 11
234.25291
 21
17.759813
 31
0.0
  0
LINE
  5
2C3
100
AcDbEntity
  8
0
390
0
  6
Continuous
 62
     1
100
AcDbLine
 10
234.593321
 20
17.986256
 30
0.0
 11
234.421132
 21
17.876017
 31
0.0
  0
ARC
  5
2C4
100
AcDbEntity
  8
0
390
0
  6
Continuous
 62
     1
100
AcDbCircle
 10
234.478013
 20
18.221097
 30
0.0
 40
0.261656
210
0.0
220
0.0
230
0.9999999999999999
100
AcDbArc
 50
296.151344
 51
0.057322
  0
ARC
  5
2C5
100
AcDbEntity
  8
0
390
0
  6
Continuous
 62
     1
100
AcDbCircle
 10
234.47961
 20
18.222861
 30
0.0
 40
0.260062
210
0.0
220
0.0
230
1.0
100
AcDbArc
 50
359.669032
 51
68.807725
  0
LINE
  5
2C6
100
AcDbEntity
  8
0
390
0
  6
Continuous
 62
     1
100
AcDbLine
 10
234.260842
 20
13.708709
 30
0.0
 11
233.997839
 21
13.706355
 31
0.0
  0
ARC
  5
2C7
100
AcDbEntity
  8
0
390
0
  6
Continuous
 62
     1
100
AcDbCircle
 10
233.202395
 20
29.25227
 30
0.0
 40
15.608158
210
0.0
220
0.0
230
1.0
100
AcDbArc
 50
278.822509
 51
289.706559
  0
LINE
  5
2C8
100
AcDbEntity
  8
0
390
0
  6
Continuous
 62
     1
100
AcDbLine
 10
233.016738
 20
17.591831
 30
0.0
 11
233.271091
 21
17.7761
 31
0.0
  0
LINE
  5
2C9
100
AcDbEntity
  8
0
390
0
  6
Continuous
 62
     1
100
AcDbLine
 10
231.618286
 20
16.190417
 30
0.0
 11
231.738206
 21
16.362054
 31
0.0
  0
ARC
  5
2CA
100
AcDbEntity
  8
0
390
0
  6
Continuous
 62
     1
100
AcDbCircle
 10
233.912072
 20
24.970534
 30
0.0
 40
11.268325
210
0.0
220
0.0
230
1.0
100
AcDbArc
 50
273.111263
 51
278.595873
  0
LINE
  5
2CB
100
AcDbEntity
  8
0
390
0
  6
Continuous
 62
     1
100
AcDbLine
 10
233.080178
 20
15.950651
 30
0.0
 11
233.103722
 21
15.828045
 31
0.0
  0
LINE
  5
2CC
100
AcDbEntity
  8
0
390
0
  6
Continuous
 62
     1
100
AcDbLine
 10
232.435218
 20
13.916359
 30
0.0
 11
232.268274
 21
13.974365
 31
0.0
  0
LINE
  5
2CD
100
AcDbEntity
  8
0
390
0
  6
Continuous
 62
     1
100
AcDbLine
 10
233.339471
 20
15.396291
 30
0.0
 11
233.426302
 21
15.307623
 31
0.0
  0
LINE
  5
2CE
100
AcDbEntity
  8
0
390
0
  6
Continuous
 62
     1
100
AcDbLine
 10
233.621128
 20
15.154111
 30
0.0
 11
233.755796
 21
15.071554
 31
0.0
  0
LINE
  5
2CF
100
AcDbEntity
  8
0
390
0
  6
Continuous
 62
     1
100
AcDbLine
 10
231.444534
 20
15.886688
 30
0.0
 11
231.509725
 21
16.011388
 31
0.0
  0
ENDBLK
  5
2D0
100
AcDbEntity
  8
0
390
0
100
AcDbBlockEnd
  0
BLOCK
  5
2E5
100
AcDbEntity
  8
0
390
0
100
AcDbBlockBegin
  2
AID1266
 70
     0
 10
0.0
 20
0.0
 30
0.0
  3
#driven cutting polygon
  1

  0
LINE
  5
2E6
100
AcDbEntity
  8
0
390
0
  6
CENTER
 62
     1
100
AcDbLine
 10
43.918937
 20
164.331299
 30
0.0
 11
128.918937
 21
164.331299
 31
0.0
  0
LINE
  5
2E7
100
AcDbEntity
  8
0
390
0
  6
Continuous
 62
     7
100
AcDbLine
 10
43.918937
 20
164.331299
 30
0.0
 11
38.918937
 21
164.331299
 31
0.0
  0
LINE
  5
2E8
100
AcDbEntity
  8
0
390
0
  6
Continuous
 62
     7
100
AcDbLine
 10
41.418937
 20
154.331299
 30
0.0
 11
41.418937
 21
164.331299
 31
0.0
  0
POLYLINE
  5
2E9
100
AcDbEntity
  8
0
390
0
  6
Continuous
 62
     7
100
AcDb2dPolyline
 66
     1
 10
0.0
 20
0.0
 30
0.0
 40
0.1
 41
0.1
  0
VERTEX
  5
2EA
100
AcDbEntity
  8
0
390
0
 62
     7
100
AcDbVertex
100
AcDb2dVertex
 10
42.668937
 20
160.331299
 30
0.0
  0
VERTEX
  5
2EB
100
AcDbEntity
  8
0
390
0
 62
     7
100
AcDbVertex
100
AcDb2dVertex
 10
41.418937
 20
164.331299
 30
0.0
  0
VERTEX
  5
2EC
100
AcDbEntity
  8
0
390
0
 62
     7
100
AcDbVertex
100
AcDb2dVertex
 10
40.168937
 20
160.331299
 30
0.0
  0
SEQEND
  5
2ED
100
AcDbEntity
  8
0
390
0
  0
MTEXT
  5
2EE
100
AcDbEntity
  8
0
390
0
 62
     7
100
AcDbMText
 10
38.918937
 20
159.081299
 30
0.0
 40
5.0
 41
7.090909
 71
     3
 72
     1
  1
A
210
0.0
220
0.0
230
1.0
 73
     1
 44
1.0
  0
LINE
  5
2EF
100
AcDbEntity
  8
0
390
0
  6
Continuous
 62
     7
100
AcDbLine
 10
128.918937
 20
164.331299
 30
0.0
 11
133.918937
 21
164.331299
 31
0.0
  0
LINE
  5
2F0
100
AcDbEntity
  8
0
390
0
  6
Continuous
 62
     7
100
AcDbLine
 10
131.418937
 20
154.331299
 30
0.0
 11
131.418937
 21
164.331299
 31
0.0
  0
POLYLINE
  5
2F1
100
AcDbEntity
  8
0
390
0
  6
Continuous
 62
     7
100
AcDb2dPolyline
 66
     1
 10
0.0
 20
0.0
 30
0.0
 40
0.1
 41
0.1
  0
VERTEX
  5
2F2
100
AcDbEntity
  8
0
390
0
 62
     7
100
AcDbVertex
100
AcDb2dVertex
 10
130.168937
 20
160.331299
 30
0.0
  0
VERTEX
  5
2F3
100
AcDbEntity
  8
0
390
0
 62
     7
100
AcDbVertex
100
AcDb2dVertex
 10
131.418937
 20
164.331299
 30
0.0
  0
VERTEX
  5
2F4
100
AcDbEntity
  8
0
390
0
 62
     7
100
AcDbVertex
100
AcDb2dVertex
 10
132.668937
 20
160.331299
 30
0.0
  0
SEQEND
  5
2F5
100
AcDbEntity
  8
0
390
0
  0
MTEXT
  5
2F6
100
AcDbEntity
  8
0
390
0
 62
     7
100
AcDbMText
 10
133.918937
 20
159.081299
 30
0.0
 40
5.0
 41
7.090909
 71
     1
 72
     1
  1
A
210
0.0
220
0.0
230
1.0
 73
     1
 44
1.0
  0
ENDBLK
  5
2F7
100
AcDbEntity
  8
0
390
0
100
AcDbBlockEnd
  0
BLOCK
  5
30E
100
AcDbEntity
  8
0
390
0
100
AcDbBlockBegin
  2
AID1326
 70
     0
 10
0.0
 20
0.0
 30
0.0
  3
#draft cross section view
  1

  0
MTEXT
  5
30F
100
AcDbEntity
  8
0
390
0
 62
     7
100
AcDbMText
 10
53.565691
 20
121.368849
 30
0.0
 40
3.0
 41
29.209091
 71
     5
 72
     1
  1
ＳＥＣ A-A
210
0.0
220
0.0
230
1.0
 73
     1
 44
1.0
  0
ENDBLK
  5
310
100
AcDbEntity
  8
0
390
0
100
AcDbBlockEnd
  0
BLOCK
  5
32A
100
AcDbEntity
  8
0
390
0
100
AcDbBlockBegin
  2
AID1378
 70
     0
 10
0.0
 20
0.0
 30
0.0
  3
DNote#note referencing elements
  1

  0
MTEXT
  5
32B
100
AcDbEntity
  8
0
390
0
 62
     7
100
AcDbMText
 10
187.392631
 20
121.813
 30
0.0
 40
3.5
 41
28.572727
 71
     7
 72
     1
  1
1-1217C
210
0.0
220
0.0
230
1.0
 73
     1
 44
1.0
  0
MTEXT
  5
32C
100
AcDbEntity
  8
0
390
0
 62
     7
100
AcDbMText
 10
187.392631
 20
116.563
 30
0.0
 40
3.5
 41
30.831818
 71
     7
 72
     1
  1
　MC35-12
210
0.0
220
0.0
230
1.0
 73
     1
 44
1.0
  0
LINE
  5
32D
100
AcDbEntity
  8
0
390
0
  6
Continuous
 62
     2
100
AcDbLine
 10
187.822176
 20
115.578909
 30
0.0
 11
205.799449
 21
115.578909
 31
0.0
  0
HATCH
  5
32E
100
AcDbEntity
  8
0
390
0
 62
     2
100
AcDbHatch
 10
165.9554793264254
 20
152.97361454509766
 30
0.0
210
0.0
220
0.0
230
1.0
  2
SOLID
 70
     1
 71
     0
 91
        1
 92
        1
 93
       72
 72
     1
 10
165.51379188386727
 20
153.72895367627416
 11
165.4496404949312
 21
153.68758378571846
 72
     1
 10
165.4496404949312
 20
153.68758378571846
 11
165.3893388449367
 21
153.64078015813521
 72
     1
 10
165.3893388449367
 20
153.64078015813521
 11
165.33334586585124
 21
153.58889899739111
 72
     1
 10
165.33334586585124
 20
153.58889899739111
 11
165.28208769805528
 21
153.53233515044619
 72
     1
 10
165.28208769805528
 20
153.53233515044619
 11
165.23595444715613
 21
153.47151910232981
 72
     1
 10
165.23595444715613
 20
153.47151910232981
 11
165.19529721504924
 21
153.40691369988994
 72
     1
 10
165.19529721504924
 20
153.40691369988994
 11
165.16042542782043
 21
153.33901062924886
 72
     1
 10
165.16042542782043
 20
153.33901062924886
 11
165.13160448082667
 21
153.26832667377525
 72
     1
 10
165.13160448082667
 20
153.26832667377525
 11
165.10905371887716
 21
153.19539978105033
 72
     1
 10
165.10905371887716
 20
153.19539978105033
 11
165.09294476688683
 21
153.12078496876222
 72
     1
 10
165.09294476688683
 20
153.12078496876222
 11
165.0834002237072
 21
153.04505010068613
 72
     1
 10
165.0834002237072
 20
153.04505010068613
 11
165.08049272907502
 21
152.96877156489799
 72
     1
 10
165.08049272907502
 20
152.96877156489799
 11
165.08424441078
 21
152.89252988711345
 72
     1
 10
165.08424441078
 20
152.89252988711345
 11
165.09462671625914
 21
152.81690531253648
 72
     1
 10
165.09462671625914
 20
152.81690531253648
 11
165.11156062989861
 21
152.74247338984287
 72
     1
 10
165.11156062989861
 20
152.74247338984287
 11
165.13491727439072
 21
152.66980059090758
 72
     1
 10
165.13491727439072
 20
152.66980059090758
 11
165.1645188915677
 21
152.59943999961163
 72
     1
 10
165.1645188915677
 20
152.59943999961163
 11
165.20014019524893
 21
152.53192710253956
 72
     1
 10
165.20014019524893
 20
152.53192710253956
 11
165.24151008580463
 21
152.46777571360349
 72
     1
 10
165.24151008580463
 20
152.46777571360349
 11
165.28831371338788
 21
152.40747406360896
 72
     1
 10
165.28831371338788
 20
152.40747406360896
 11
165.34019487413195
 21
152.3514810845235
 72
     1
 10
165.34019487413195
 20
152.3514810845235
 11
165.39675872107691
 21
152.30022291672753
 72
     1
 10
165.39675872107691
 20
152.30022291672753
 11
165.45757476919326
 21
152.25408966582839
 72
     1
 10
165.45757476919326
 20
152.25408966582839
 11
165.52218017163315
 21
152.21343243372152
 72
     1
 10
165.52218017163315
 20
152.21343243372152
 11
165.5900832422742
 21
152.17856064649268
 72
     1
 10
165.5900832422742
 20
152.17856064649268
 11
165.66076719774784
 21
152.14973969949892
 72
     1
 10
165.66076719774784
 20
152.14973969949892
 11
165.73369409047277
 21
152.12718893754942
 72
     1
 10
165.73369409047277
 20
152.12718893754942
 11
165.80830890276084
 21
152.11107998555909
 72
     1
 10
165.80830890276084
 20
152.11107998555909
 11
165.88404377083697
 21
152.10153544237949
 72
     1
 10
165.88404377083697
 20
152.10153544237949
 11
165.96032230662507
 21
152.09862794774727
 72
     1
 10
165.96032230662507
 20
152.09862794774727
 11
166.03656398440961
 21
152.10237962945229
 72
     1
 10
166.03656398440961
 20
152.10237962945229
 11
166.11218855898659
 21
152.1127619349314
 72
     1
 10
166.11218855898659
 20
152.1127619349314
 11
166.18662048168017
 21
152.12969584857086
 72
     1
 10
166.18662048168017
 20
152.12969584857086
 11
166.25929328061548
 21
152.153052493063
 72
     1
 10
166.25929328061548
 20
152.153052493063
 11
166.32965387191146
 21
152.18265411023995
 72
     1
 10
166.32965387191146
 20
152.18265411023995
 11
166.39716676898354
 21
152.21827541392119
 72
     1
 10
166.39716676898354
 20
152.21827541392119
 11
166.46131815791958
 21
152.25964530447689
 72
     1
 10
166.46131815791958
 20
152.25964530447689
 11
166.52161980791411
 21
152.30644893206014
 72
     1
 10
166.52161980791411
 20
152.30644893206014
 11
166.57761278699957
 21
152.35833009280421
 72
     1
 10
166.57761278699957
 20
152.35833009280421
 11
166.62887095479553
 21
152.41489393974916
 72
     1
 10
166.62887095479553
 20
152.41489393974916
 11
166.67500420569468
 21
152.47570998786551
 72
     1
 10
166.67500420569468
 20
152.47570998786551
 11
166.71566143780157
 21
152.54031539030541
 72
     1
 10
166.71566143780157
 20
152.54031539030541
 11
166.75053322503038
 21
152.60821846094646
 72
     1
 10
166.75053322503038
 20
152.60821846094646
 11
166.77935417202414
 21
152.6789024164201
 72
     1
 10
166.77935417202414
 20
152.6789024164201
 11
166.80190493397365
 21
152.75182930914502
 72
     1
 10
166.80190493397365
 20
152.75182930914502
 11
166.81801388596398
 21
152.82644412143313
 72
     1
 10
166.81801388596398
 20
152.82644412143313
 11
166.82755842914361
 21
152.90217898950922
 72
     1
 10
166.82755842914361
 20
152.90217898950922
 11
166.83046592377579
 21
152.97845752529736
 72
     1
 10
166.83046592377579
 20
152.97845752529736
 11
166.82671424207081
 21
153.05469920308187
 72
     1
 10
166.82671424207081
 20
153.05469920308187
 11
166.81633193659167
 21
153.13032377765887
 72
     1
 10
166.81633193659167
 20
153.13032377765887
 11
166.7993980229522
 21
153.20475570035248
 72
     1
 10
166.7993980229522
 20
153.20475570035248
 11
166.77604137846009
 21
153.27742849928774
 72
     1
 10
166.77604137846009
 20
153.27742849928774
 11
166.74643976128311
 21
153.34778909058372
 72
     1
 10
166.74643976128311
 20
153.34778909058372
 11
166.71081845760187
 21
153.41530198765579
 72
     1
 10
166.71081845760187
 20
153.41530198765579
 11
166.66944856704617
 21
153.47945337659186
 72
     1
 10
166.66944856704617
 20
153.47945337659186
 11
166.62264493946293
 21
153.53975502658636
 72
     1
 10
166.62264493946293
 20
153.53975502658636
 11
166.57076377871886
 21
153.59574800567182
 72
     1
 10
166.57076377871886
 20
153.59574800567182
 11
166.5141999317739
 21
153.64700617346779
 72
     1
 10
166.5141999317739
 20
153.64700617346779
 11
166.45338388365755
 21
153.69313942436693
 72
     1
 10
166.45338388365755
 20
153.69313942436693
 11
166.38877848121766
 21
153.73379665647383
 72
     1
 10
166.38877848121766
 20
153.73379665647383
 11
166.3208754105766
 21
153.76866844370267
 72
     1
 10
166.3208754105766
 20
153.76866844370267
 11
166.25019145510296
 21
153.7974893906964
 72
     1
 10
166.25019145510296
 20
153.7974893906964
 11
166.17726456237804
 21
153.8200401526459
 72
     1
 10
166.17726456237804
 20
153.8200401526459
 11
166.10264975008997
 21
153.83614910463626
 72
     1
 10
166.10264975008997
 20
153.83614910463626
 11
166.02691488201384
 21
153.84569364781586
 72
     1
 10
166.02691488201384
 20
153.84569364781586
 11
165.95063634622574
 21
153.84860114244805
 72
     1
 10
165.95063634622574
 20
153.84860114244805
 11
165.8743946684412
 21
153.84484946074306
 72
     1
 10
165.8743946684412
 20
153.84484946074306
 11
165.79877009386419
 21
153.83446715526395
 72
     1
 10
165.79877009386419
 20
153.83446715526395
 11
165.72433817117061
 21
153.81753324162449
 72
     1
 10
165.72433817117061
 20
153.81753324162449
 11
165.65166537223533
 21
153.79417659713235
 72
     1
 10
165.65166537223533
 20
153.79417659713235
 11
165.58130478093935
 21
153.76457497995537
 72
     1
 10
165.58130478093935
 20
153.76457497995537
 11
165.51379188386727
 21
153.72895367627416
 97
        0
 75
     0
 76
     1
 98
        1
 10
0.0
 20
0.0
  0
LINE
  5
32F
100
AcDbEntity
  8
0
390
0
  6
Continuous
 62
    11
100
AcDbLine
 10
165.955479
 20
152.973615
 30
0.0
 11
187.822176
 21
115.578909
 31
0.0
  0
ENDBLK
  5
330
100
AcDbEntity
  8
0
390
0
100
AcDbBlockEnd
  0
BLOCK
  5
334
100
AcDbEntity
  8
0
390
0
100
AcDbBlockBegin
  2
AID1392
 70
     0
 10
0.0
 20
0.0
 30
0.0
  3
DNote#note referencing elements
  1

  0
MTEXT
  5
335
100
AcDbEntity
  8
0
390
0
 62
     7
100
AcDbMText
 10
215.082774
 20
139.409689
 30
0.0
 40
3.5
 41
28.35
 71
     7
 72
     1
  1
1-1217D
210
0.0
220
0.0
230
1.0
 73
     1
 44
1.0
  0
MTEXT
  5
336
100
AcDbEntity
  8
0
390
0
 62
     7
100
AcDbMText
 10
215.082774
 20
134.159689
 30
0.0
 40
3.5
 41
30.704545
 71
     7
 72
     1
  1
　MD60-12
210
0.0
220
0.0
230
1.0
 73
     1
 44
1.0
  0
LINE
  5
337
100
AcDbEntity
  8
0
390
0
  6
Continuous
 62
     2
100
AcDbLine
 10
215.51232
 20
133.175598
 30
0.0
 11
233.425956
 21
133.175598
 31
0.0
  0
HATCH
  5
338
100
AcDbEntity
  8
0
390
0
 62
     2
100
AcDbHatch
 10
194.48141363446385
 20
150.47595209416343
 30
0.0
210
0.0
220
0.0
230
1.0
  2
SOLID
 70
     1
 71
     0
 91
        1
 92
        1
 93
       72
 72
     1
 10
193.80567179465623
 20
151.03182794894883
 11
193.75979542336944
 21
150.97081789154379
 72
     1
 10
193.75979542336944
 20
150.97081789154379
 11
193.71941100239405
 21
150.90604160661249
 72
     1
 10
193.71941100239405
 20
150.90604160661249
 11
193.68482588155851
 21
150.83799208079634
 72
     1
 10
193.68482588155851
 20
150.83799208079634
 11
193.65630327451535
 21
150.76718721207618
 72
     1
 10
193.65630327451535
 20
150.76718721207618
 11
193.63406025552675
 21
150.69416586825616
 72
     1
 10
193.63406025552675
 20
150.69416586825616
 11
193.61826610739774
 21
150.61948378585419
 72
     1
 10
193.61826610739774
 20
150.61948378585419
 11
193.60904103313246
 21
150.54370934061166
 72
     1
 10
193.60904103313246
 20
150.54370934061166
 11
193.60645524111627
 21
150.46741922181067
 72
     1
 10
193.60645524111627
 20
150.46741922181067
 11
193.61052841078779
 21
150.39119404332064
 72
     1
 10
193.61052841078779
 20
150.39119404332064
 11
193.62122954286636
 21
150.31561392477579
 72
     1
 10
193.62122954286636
 20
150.31561392477579
 11
193.63847719527536
 21
150.24125407651482
 72
     1
 10
193.63847719527536
 20
150.24125407651482
 11
193.66214010296548
 21
150.1686804218827
 72
     1
 10
193.66214010296548
 20
150.1686804218827
 11
193.69203817692124
 21
150.09844529021234
 72
     1
 10
193.69203817692124
 20
150.09844529021234
 11
193.72794387474681
 21
150.03108321326488
 72
     1
 10
193.72794387474681
 20
150.03108321326488
 11
193.7695839324013
 21
149.96710685712029
 72
     1
 10
193.7695839324013
 20
149.96710685712029
 11
193.81664144390302
 21
149.90700312047869
 72
     1
 10
193.81664144390302
 20
149.90700312047869
 11
193.86875827317533
 21
149.85122942906762
 72
     1
 10
193.86875827317533
 20
149.85122942906762
 11
193.92553777967845
 21
149.80021025435579
 72
     1
 10
193.92553777967845
 20
149.80021025435579
 11
193.98654783708349
 21
149.75433388306899
 72
     1
 10
193.98654783708349
 20
149.75433388306899
 11
194.05132412201479
 21
149.71394946209364
 72
     1
 10
194.05132412201479
 20
149.71394946209364
 11
194.11937364783094
 21
149.67936434125806
 72
     1
 10
194.11937364783094
 20
149.67936434125806
 11
194.1901785165511
 21
149.65084173421491
 72
     1
 10
194.1901785165511
 20
149.65084173421491
 11
194.26319986037115
 21
149.6285987152263
 72
     1
 10
194.26319986037115
 20
149.6285987152263
 11
194.33788194277309
 21
149.6128045670973
 72
     1
 10
194.33788194277309
 20
149.6128045670973
 11
194.41365638801562
 21
149.60357949283201
 72
     1
 10
194.41365638801562
 20
149.60357949283201
 11
194.48994650681661
 21
149.60099370081585
 72
     1
 10
194.48994650681661
 20
149.60099370081585
 11
194.56617168530664
 21
149.60506687048735
 72
     1
 10
194.56617168530664
 20
149.60506687048735
 11
194.64175180385149
 21
149.61576800256594
 72
     1
 10
194.64175180385149
 20
149.61576800256594
 11
194.71611165211246
 21
149.63301565497491
 72
     1
 10
194.71611165211246
 20
149.63301565497491
 11
194.78868530674458
 21
149.65667856266504
 72
     1
 10
194.78868530674458
 20
149.65667856266504
 11
194.85892043841494
 21
149.6865766366208
 72
     1
 10
194.85892043841494
 20
149.6865766366208
 11
194.9262825153624
 21
149.72248233444637
 72
     1
 10
194.9262825153624
 20
149.72248233444637
 11
194.990258871507
 21
149.76412239210086
 72
     1
 10
194.990258871507
 20
149.76412239210086
 11
195.05036260814859
 21
149.81117990360258
 72
     1
 10
195.05036260814859
 20
149.81117990360258
 11
195.10613629955967
 21
149.86329673287489
 72
     1
 10
195.10613629955967
 20
149.86329673287489
 11
195.15715547427149
 21
149.92007623937801
 72
     1
 10
195.15715547427149
 20
149.92007623937801
 11
195.20303184555829
 21
149.98108629678305
 72
     1
 10
195.20303184555829
 20
149.98108629678305
 11
195.24341626653367
 21
150.04586258171435
 72
     1
 10
195.24341626653367
 20
150.04586258171435
 11
195.27800138736922
 21
150.1139121075305
 72
     1
 10
195.27800138736922
 20
150.1139121075305
 11
195.30652399441237
 21
150.18471697625066
 72
     1
 10
195.30652399441237
 20
150.18471697625066
 11
195.32876701340098
 21
150.2577383200707
 72
     1
 10
195.32876701340098
 20
150.2577383200707
 11
195.34456116152998
 21
150.33242040247265
 72
     1
 10
195.34456116152998
 20
150.33242040247265
 11
195.35378623579527
 21
150.40819484771521
 72
     1
 10
195.35378623579527
 20
150.40819484771521
 11
195.35637202781146
 21
150.48448496651616
 72
     1
 10
195.35637202781146
 20
150.48448496651616
 11
195.35229885813993
 21
150.56071014500623
 72
     1
 10
195.35229885813993
 20
150.56071014500623
 11
195.34159772606137
 21
150.63629026355105
 72
     1
 10
195.34159772606137
 20
150.63629026355105
 11
195.32435007365237
 21
150.71065011181204
 72
     1
 10
195.32435007365237
 20
150.71065011181204
 11
195.30068716596224
 21
150.78322376644414
 72
     1
 10
195.30068716596224
 20
150.78322376644414
 11
195.27078909200648
 21
150.8534588981145
 72
     1
 10
195.27078909200648
 20
150.8534588981145
 11
195.23488339418091
 21
150.92082097506196
 72
     1
 10
195.23488339418091
 20
150.92082097506196
 11
195.19324333652642
 21
150.98479733120658
 72
     1
 10
195.19324333652642
 20
150.98479733120658
 11
195.1461858250247
 21
151.04490106784814
 72
     1
 10
195.1461858250247
 20
151.04490106784814
 11
195.09406899575239
 21
151.10067475925922
 72
     1
 10
195.09406899575239
 20
151.10067475925922
 11
195.03728948924928
 21
151.15169393397105
 72
     1
 10
195.03728948924928
 20
151.15169393397105
 11
194.97627943184423
 21
151.19757030525784
 72
     1
 10
194.97627943184423
 20
151.19757030525784
 11
194.91150314691293
 21
151.23795472623323
 72
     1
 10
194.91150314691293
 20
151.23795472623323
 11
194.84345362109678
 21
151.2725398470688
 72
     1
 10
194.84345362109678
 20
151.2725398470688
 11
194.77264875237663
 21
151.30106245411193
 72
     1
 10
194.77264875237663
 20
151.30106245411193
 11
194.69962740855658
 21
151.32330547310056
 72
     1
 10
194.69962740855658
 20
151.32330547310056
 11
194.62494532615463
 21
151.33909962122954
 72
     1
 10
194.62494532615463
 20
151.33909962122954
 11
194.5491708809121
 21
151.34832469549482
 72
     1
 10
194.5491708809121
 20
151.34832469549482
 11
194.47288076211112
 21
151.35091048751102
 72
     1
 10
194.47288076211112
 20
151.35091048751102
 11
194.39665558362108
 21
151.34683731783949
 72
     1
 10
194.39665558362108
 20
151.34683731783949
 11
194.32107546507623
 21
151.33613618576092
 72
     1
 10
194.32107546507623
 20
151.33613618576092
 11
194.24671561681527
 21
151.31888853335192
 72
     1
 10
194.24671561681527
 20
151.31888853335192
 11
194.17414196218317
 21
151.2952256256618
 72
     1
 10
194.17414196218317
 20
151.2952256256618
 11
194.10390683051278
 21
151.26532755170604
 72
     1
 10
194.10390683051278
 20
151.26532755170604
 11
194.03654475356532
 21
151.22942185388047
 72
     1
 10
194.03654475356532
 20
151.22942185388047
 11
193.97256839742073
 21
151.18778179622601
 72
     1
 10
193.97256839742073
 20
151.18778179622601
 11
193.91246466077914
 21
151.14072428472429
 72
     1
 10
193.91246466077914
 20
151.14072428472429
 11
193.85669096936806
 21
151.08860745545198
 72
     1
 10
193.85669096936806
 20
151.08860745545198
 11
193.80567179465623
 21
151.03182794894883
 97
        0
 75
     0
 76
     1
 98
        1
 10
0.0
 20
0.0
  0
LINE
  5
339
100
AcDbEntity
  8
0
390
0
  6
Continuous
 62
    11
100
AcDbLine
 10
194.481414
 20
150.475952
 30
0.0
 11
215.51232
 21
133.175598
 31
0.0
  0
ENDBLK
  5
33A
100
AcDbEntity
  8
0
390
0
100
AcDbBlockEnd
  0
BLOCK
  5
33F
100
AcDbEntity
  8
0
390
0
100
AcDbBlockBegin
  2
*D16
 70
     1
 10
0.0
 20
0.0
 30
0.0
  3
DI16
  1

  0
MTEXT
  5
340
100
AcDbEntity
  8
0
390
0
 62
     7
100
AcDbMText
 10
149.852181
 20
178.889999
 30
0.0
 40
3.5
 41
28.445455
 71
     7
 72
     1
  1
\A1;90%%d
210
0.0
220
0.0
230
1.0
 11
0.707107
 21
0.707107
 31
0.0
 73
     1
 44
1.0
  0
ARC
  5
341
100
AcDbEntity
  8
0
390
0
  6
Continuous
 62
     7
100
AcDbCircle
 10
168.314432
 20
164.331299
 30
0.0
 40
21.615248
210
0.0
220
0.0
230
1.0
100
AcDbArc
 50
90.0
 51
180.0
  0
LINE
  5
342
100
AcDbEntity
  8
0
390
0
  6
Continuous
 62
     7
100
AcDbLine
 10
168.314432
 20
184.881299
 30
0.0
 11
168.314432
 21
186.996547
 31
0.0
  0
LINE
  5
343
100
AcDbEntity
  8
0
390
0
  6
Continuous
 62
     7
100
AcDbLine
 10
147.764432
 20
164.331299
 30
0.0
 11
145.649184
 21
164.331299
 31
0.0
  0
POLYLINE
  5
344
100
AcDbEntity
  8
0
390
0
  6
Continuous
 62
     7
100
AcDb2dPolyline
 66
     1
 10
0.0
 20
0.0
 30
0.0
 40
0.1
 41
0.1
  0
VERTEX
  5
345
100
AcDbEntity
  8
0
390
0
 62
     7
100
AcDbVertex
100
AcDb2dVertex
 10
165.689432
 20
186.471547
 30
0.0
  0
VERTEX
  5
346
100
AcDbEntity
  8
0
390
0
 62
     7
100
AcDbVertex
100
AcDb2dVertex
 10
168.314432
 20
185.946547
 30
0.0
  0
VERTEX
  5
347
100
AcDbEntity
  8
0
390
0
 62
     7
100
AcDbVertex
100
AcDb2dVertex
 10
165.689432
 20
185.421547
 30
0.0
  0
SEQEND
  5
348
100
AcDbEntity
  8
0
390
0
  0
POLYLINE
  5
349
100
AcDbEntity
  8
0
390
0
  6
Continuous
 62
     7
100
AcDb2dPolyline
 66
     1
 10
0.0
 20
0.0
 30
0.0
 40
0.1
 41
0.1
  0
VERTEX
  5
34A
100
AcDbEntity
  8
0
390
0
 62
     7
100
AcDbVertex
100
AcDb2dVertex
 10
147.224184
 20
166.956299
 30
0.0
  0
VERTEX
  5
34B
100
AcDbEntity
  8
0
390
0
 62
     7
100
AcDbVertex
100
AcDb2dVertex
 10
146.699184
 20
164.331299
 30
0.0
  0
VERTEX
  5
34C
100
AcDbEntity
  8
0
390
0
 62
     7
100
AcDbVertex
100
AcDb2dVertex
 10
146.174184
 20
166.956299
 30
0.0
  0
SEQEND
  5
34D
100
AcDbEntity
  8
0
390
0
  0
ENDBLK
  5
34E
100
AcDbEntity
  8
0
390
0
100
AcDbBlockEnd
  0
BLOCK
  5
351
100
AcDbEntity
  8
0
390
0
100
AcDbBlockBegin
  2
*D17
 70
     1
 10
0.0
 20
0.0
 30
0.0
  3
DI17
  1

  0
MTEXT
  5
352
100
AcDbEntity
  8
0
390
0
 62
     7
100
AcDbMText
 10
58.887518
 20
187.959166
 30
0.0
 40
3.5
 41
28.445455
 71
     7
 72
     1
  1
\A1;90%%d
210
0.0
220
0.0
230
1.0
 11
0.707107
 21
0.707107
 31
0.0
 73
     1
 44
1.0
  0
ARC
  5
353
100
AcDbEntity
  8
0
390
0
  6
Continuous
 62
     7
100
AcDbCircle
 10
86.418937
 20
164.331299
 30
0.0
 40
34.440988
210
0.0
220
0.0
230
1.0
100
AcDbArc
 50
90.0
 51
180.0
  0
LINE
  5
354
100
AcDbEntity
  8
0
390
0
  6
Continuous
 62
     7
100
AcDbLine
 10
86.418937
 20
197.381299
 30
0.0
 11
86.418937
 21
199.822286
 31
0.0
  0
POLYLINE
  5
355
100
AcDbEntity
  8
0
390
0
  6
Continuous
 62
     7
100
AcDb2dPolyline
 66
     1
 10
0.0
 20
0.0
 30
0.0
 40
0.1
 41
0.1
  0
VERTEX
  5
356
100
AcDbEntity
  8
0
390
0
 62
     7
100
AcDbVertex
100
AcDb2dVertex
 10
52.502949
 20
166.956299
 30
0.0
  0
VERTEX
  5
357
100
AcDbEntity
  8
0
390
0
 62
     7
100
AcDbVertex
100
AcDb2dVertex
 10
51.977949
 20
164.331299
 30
0.0
  0
VERTEX
  5
358
100
AcDbEntity
  8
0
390
0
 62
     7
100
AcDbVertex
100
AcDb2dVertex
 10
51.452949
 20
166.956299
 30
0.0
  0
SEQEND
  5
359
100
AcDbEntity
  8
0
390
0
  0
POLYLINE
  5
35A
100
AcDbEntity
  8
0
390
0
  6
Continuous
 62
     7
100
AcDb2dPolyline
 66
     1
 10
0.0
 20
0.0
 30
0.0
 40
0.1
 41
0.1
  0
VERTEX
  5
35B
100
AcDbEntity
  8
0
390
0
 62
     7
100
AcDbVertex
100
AcDb2dVertex
 10
83.793937
 20
199.297286
 30
0.0
  0
VERTEX
  5
35C
100
AcDbEntity
  8
0
390
0
 62
     7
100
AcDbVertex
100
AcDb2dVertex
 10
86.418937
 20
198.772286
 30
0.0
  0
VERTEX
  5
35D
100
AcDbEntity
  8
0
390
0
 62
     7
100
AcDbVertex
100
AcDb2dVertex
 10
83.793937
 20
198.247286
 30
0.0
  0
SEQEND
  5
35E
100
AcDbEntity
  8
0
390
0
  0
ENDBLK
  5
35F
100
AcDbEntity
  8
0
390
0
100
AcDbBlockEnd
  0
BLOCK
  5
376
100
AcDbEntity
  8
0
390
0
100
AcDbBlockBegin
  2
*D18
 70
     1
 10
0.0
 20
0.0
 30
0.0
  3
DI18
  1

  0
MTEXT
  5
377
100
AcDbEntity
  8
0
390
0
 62
     7
100
AcDbMText
 10
128.112054
 20
58.562338
 30
0.0
 40
3.5
 41
90.840909
 71
     7
 72
     1
  1
\A1;%%c15.0H8\S+0.027^   0;
210
0.0
220
0.0
230
1.0
 73
     1
 44
1.0
  0
MTEXT
  5
378
100
AcDbEntity
  8
0
390
0
 62
     7
100
AcDbMText
 10
135.780236
 20
58.562338
 30
0.0
 40
3.5
 41
8.336364
 71
     7
 72
     1
  1
H8
210
0.0
220
0.0
230
1.0
 73
     1
 44
1.0
  0
LINE
  5
379
100
AcDbEntity
  8
0
390
0
  6
Continuous
 62
     7
100
AcDbLine
 10
78.918937
 20
56.494156
 30
0.0
 11
149.557509
 21
56.494156
 31
0.0
  0
LINE
  5
37A
100
AcDbEntity
  8
0
390
0
  6
Continuous
 62
     7
100
AcDbLine
 10
78.918937
 20
58.515201
 30
0.0
 11
78.918937
 21
55.444156
 31
0.0
  0
LINE
  5
37B
100
AcDbEntity
  8
0
390
0
  6
Continuous
 62
     7
100
AcDbLine
 10
93.918937
 20
58.515201
 30
0.0
 11
93.918937
 21
55.444156
 31
0.0
  0
POLYLINE
  5
37C
100
AcDbEntity
  8
0
390
0
  6
Continuous
 62
     7
100
AcDb2dPolyline
 66
     1
 10
0.0
 20
0.0
 30
0.0
 40
0.1
 41
0.1
  0
VERTEX
  5
37D
100
AcDbEntity
  8
0
390
0
 62
     7
100
AcDbVertex
100
AcDb2dVertex
 10
81.543937
 20
55.969156
 30
0.0
  0
VERTEX
  5
37E
100
AcDbEntity
  8
0
390
0
 62
     7
100
AcDbVertex
100
AcDb2dVertex
 10
78.918937
 20
56.494156
 30
0.0
  0
VERTEX
  5
37F
100
AcDbEntity
  8
0
390
0
 62
     7
100
AcDbVertex
100
AcDb2dVertex
 10
81.543937
 20
57.019156
 30
0.0
  0
SEQEND
  5
380
100
AcDbEntity
  8
0
390
0
  0
POLYLINE
  5
381
100
AcDbEntity
  8
0
390
0
  6
Continuous
 62
     7
100
AcDb2dPolyline
 66
     1
 10
0.0
 20
0.0
 30
0.0
 40
0.1
 41
0.1
  0
VERTEX
  5
382
100
AcDbEntity
  8
0
390
0
 62
     7
100
AcDbVertex
100
AcDb2dVertex
 10
91.293937
 20
57.019156
 30
0.0
  0
VERTEX
  5
383
100
AcDbEntity
  8
0
390
0
 62
     7
100
AcDbVertex
100
AcDb2dVertex
 10
93.918937
 20
56.494156
 30
0.0
  0
VERTEX
  5
384
100
AcDbEntity
  8
0
390
0
 62
     7
100
AcDbVertex
100
AcDb2dVertex
 10
91.293937
 20
55.969156
 30
0.0
  0
SEQEND
  5
385
100
AcDbEntity
  8
0
390
0
  0
ENDBLK
  5
386
100
AcDbEntity
  8
0
390
0
100
AcDbBlockEnd
  0
BLOCK
  5
389
100
AcDbEntity
  8
0
390
0
100
AcDbBlockBegin
  2
*D19
 70
     1
 10
0.0
 20
0.0
 30
0.0
  3
DI19
  1

  0
MTEXT
  5
38A
100
AcDbEntity
  8
0
390
0
 62
     7
100
AcDbMText
 10
84.963255
 20
50.963224
 30
0.0
 40
3.5
 41
36.622727
 71
     7
 72
     1
  1
\A1;%%c30.0
210
0.0
220
0.0
230
1.0
 73
     1
 44
1.0
  0
LINE
  5
38B
100
AcDbEntity
  8
0
390
0
  6
Continuous
 62
     7
100
AcDbLine
 10
71.418937
 20
49.229133
 30
0.0
 11
101.418937
 21
49.229133
 31
0.0
  0
LINE
  5
38C
100
AcDbEntity
  8
0
390
0
  6
Continuous
 62
     7
100
AcDbLine
 10
71.418937
 20
58.515201
 30
0.0
 11
71.418937
 21
48.179133
 31
0.0
  0
LINE
  5
38D
100
AcDbEntity
  8
0
390
0
  6
Continuous
 62
     7
100
AcDbLine
 10
101.418937
 20
58.515201
 30
0.0
 11
101.418937
 21
48.179133
 31
0.0
  0
POLYLINE
  5
38E
100
AcDbEntity
  8
0
390
0
  6
Continuous
 62
     7
100
AcDb2dPolyline
 66
     1
 10
0.0
 20
0.0
 30
0.0
 40
0.1
 41
0.1
  0
VERTEX
  5
38F
100
AcDbEntity
  8
0
390
0
 62
     7
100
AcDbVertex
100
AcDb2dVertex
 10
74.043937
 20
48.704133
 30
0.0
  0
VERTEX
  5
390
100
AcDbEntity
  8
0
390
0
 62
     7
100
AcDbVertex
100
AcDb2dVertex
 10
71.418937
 20
49.229133
 30
0.0
  0
VERTEX
  5
391
100
AcDbEntity
  8
0
390
0
 62
     7
100
AcDbVertex
100
AcDb2dVertex
 10
74.043937
 20
49.754133
 30
0.0
  0
SEQEND
  5
392
100
AcDbEntity
  8
0
390
0
  0
POLYLINE
  5
393
100
AcDbEntity
  8
0
390
0
  6
Continuous
 62
     7
100
AcDb2dPolyline
 66
     1
 10
0.0
 20
0.0
 30
0.0
 40
0.1
 41
0.1
  0
VERTEX
  5
394
100
AcDbEntity
  8
0
390
0
 62
     7
100
AcDbVertex
100
AcDb2dVertex
 10
98.793937
 20
49.754133
 30
0.0
  0
VERTEX
  5
395
100
AcDbEntity
  8
0
390
0
 62
     7
100
AcDbVertex
100
AcDb2dVertex
 10
101.418937
 20
49.229133
 30
0.0
  0
VERTEX
  5
396
100
AcDbEntity
  8
0
390
0
 62
     7
100
AcDbVertex
100
AcDb2dVertex
 10
98.793937
 20
48.704133
 30
0.0
  0
SEQEND
  5
397
100
AcDbEntity
  8
0
390
0
  0
ENDBLK
  5
398
100
AcDbEntity
  8
0
390
0
100
AcDbBlockEnd
  0
BLOCK
  5
39B
100
AcDbEntity
  8
0
390
0
100
AcDbBlockBegin
  2
*D20
 70
     1
 10
0.0
 20
0.0
 30
0.0
  3
DI20
  1

  0
MTEXT
  5
39C
100
AcDbEntity
  8
0
390
0
 62
     7
100
AcDbMText
 10
122.918326
 20
68.208382
 30
0.0
 40
3.5
 41
25.104545
 71
     7
 72
     1
  1
\A1;AG
210
0.0
220
0.0
230
1.0
 11
0.0
 21
1.0
 31
0.0
 73
     1
 44
1.0
  0
LINE
  5
39D
100
AcDbEntity
  8
0
390
0
  6
Continuous
 62
     7
100
AcDbLine
 10
124.652416
 20
67.38111
 30
0.0
 11
124.652416
 21
85.815201
 31
0.0
  0
LINE
  5
39E
100
AcDbEntity
  8
0
390
0
  6
Continuous
 62
     7
100
AcDbLine
 10
117.468937
 20
78.565201
 30
0.0
 11
125.702416
 21
78.565201
 31
0.0
  0
LINE
  5
39F
100
AcDbEntity
  8
0
390
0
  6
Continuous
 62
     7
100
AcDbLine
 10
117.468937
 20
80.565201
 30
0.0
 11
125.702416
 21
80.565201
 31
0.0
  0
POLYLINE
  5
3A0
100
AcDbEntity
  8
0
390
0
  6
Continuous
 62
     7
100
AcDb2dPolyline
 66
     1
 10
0.0
 20
0.0
 30
0.0
 40
0.1
 41
0.1
  0
VERTEX
  5
3A1
100
AcDbEntity
  8
0
390
0
 62
     7
100
AcDbVertex
100
AcDb2dVertex
 10
125.177416
 20
75.940201
 30
0.0
  0
VERTEX
  5
3A2
100
AcDbEntity
  8
0
390
0
 62
     7
100
AcDbVertex
100
AcDb2dVertex
 10
124.652416
 20
78.565201
 30
0.0
  0
VERTEX
  5
3A3
100
AcDbEntity
  8
0
390
0
 62
     7
100
AcDbVertex
100
AcDb2dVertex
 10
124.127416
 20
75.940201
 30
0.0
  0
SEQEND
  5
3A4
100
AcDbEntity
  8
0
390
0
  0
POLYLINE
  5
3A5
100
AcDbEntity
  8
0
390
0
  6
Continuous
 62
     7
100
AcDb2dPolyline
 66
     1
 10
0.0
 20
0.0
 30
0.0
 40
0.1
 41
0.1
  0
VERTEX
  5
3A6
100
AcDbEntity
  8
0
390
0
 62
     7
100
AcDbVertex
100
AcDb2dVertex
 10
124.127416
 20
83.190201
 30
0.0
  0
VERTEX
  5
3A7
100
AcDbEntity
  8
0
390
0
 62
     7
100
AcDbVertex
100
AcDb2dVertex
 10
124.652416
 20
80.565201
 30
0.0
  0
VERTEX
  5
3A8
100
AcDbEntity
  8
0
390
0
 62
     7
100
AcDbVertex
100
AcDb2dVertex
 10
125.177416
 20
83.190201
 30
0.0
  0
SEQEND
  5
3A9
100
AcDbEntity
  8
0
390
0
  0
ENDBLK
  5
3AA
100
AcDbEntity
  8
0
390
0
100
AcDbBlockEnd
  0
BLOCK
  5
3AD
100
AcDbEntity
  8
0
390
0
100
AcDbBlockBegin
  2
*D21
 70
     1
 10
0.0
 20
0.0
 30
0.0
  3
DI21
  1

  0
MTEXT
  5
3AE
100
AcDbEntity
  8
0
390
0
 62
     7
100
AcDbMText
 10
30.552159
 20
65.453837
 30
0.0
 40
3.5
 41
28.477273
 71
     7
 72
     1
  1
\A1;19.0
210
0.0
220
0.0
230
1.0
 11
0.0
 21
1.0
 31
0.0
 73
     1
 44
1.0
  0
LINE
  5
3AF
100
AcDbEntity
  8
0
390
0
  6
Continuous
 62
     7
100
AcDbLine
 10
32.28625
 20
78.565201
 30
0.0
 11
32.28625
 21
59.565201
 31
0.0
  0
LINE
  5
3B0
100
AcDbEntity
  8
0
390
0
  6
Continuous
 62
     7
100
AcDbLine
 10
55.368937
 20
78.565201
 30
0.0
 11
31.23625
 21
78.565201
 31
0.0
  0
LINE
  5
3B1
100
AcDbEntity
  8
0
390
0
  6
Continuous
 62
     7
100
AcDbLine
 10
70.368937
 20
59.565201
 30
0.0
 11
31.23625
 21
59.565201
 31
0.0
  0
POLYLINE
  5
3B2
100
AcDbEntity
  8
0
390
0
  6
Continuous
 62
     7
100
AcDb2dPolyline
 66
     1
 10
0.0
 20
0.0
 30
0.0
 40
0.1
 41
0.1
  0
VERTEX
  5
3B3
100
AcDbEntity
  8
0
390
0
 62
     7
100
AcDbVertex
100
AcDb2dVertex
 10
31.76125
 20
75.940201
 30
0.0
  0
VERTEX
  5
3B4
100
AcDbEntity
  8
0
390
0
 62
     7
100
AcDbVertex
100
AcDb2dVertex
 10
32.28625
 20
78.565201
 30
0.0
  0
VERTEX
  5
3B5
100
AcDbEntity
  8
0
390
0
 62
     7
100
AcDbVertex
100
AcDb2dVertex
 10
32.81125
 20
75.940201
 30
0.0
  0
SEQEND
  5
3B6
100
AcDbEntity
  8
0
390
0
  0
POLYLINE
  5
3B7
100
AcDbEntity
  8
0
390
0
  6
Continuous
 62
     7
100
AcDb2dPolyline
 66
     1
 10
0.0
 20
0.0
 30
0.0
 40
0.1
 41
0.1
  0
VERTEX
  5
3B8
100
AcDbEntity
  8
0
390
0
 62
     7
100
AcDbVertex
100
AcDb2dVertex
 10
32.81125
 20
62.190201
 30
0.0
  0
VERTEX
  5
3B9
100
AcDbEntity
  8
0
390
0
 62
     7
100
AcDbVertex
100
AcDb2dVertex
 10
32.28625
 20
59.565201
 30
0.0
  0
VERTEX
  5
3BA
100
AcDbEntity
  8
0
390
0
 62
     7
100
AcDbVertex
100
AcDb2dVertex
 10
31.76125
 20
62.190201
 30
0.0
  0
SEQEND
  5
3BB
100
AcDbEntity
  8
0
390
0
  0
ENDBLK
  5
3BC
100
AcDbEntity
  8
0
390
0
100
AcDbBlockEnd
  0
BLOCK
  5
3BF
100
AcDbEntity
  8
0
390
0
100
AcDbBlockBegin
  2
*D22
 70
     1
 10
0.0
 20
0.0
 30
0.0
  3
DI22
  1

  0
MTEXT
  5
3C0
100
AcDbEntity
  8
0
390
0
 62
     7
100
AcDbMText
 10
48.688167
 20
83.672019
 30
0.0
 40
3.5
 41
24.404545
 71
     7
 72
     1
  1
\A1;4.0
210
0.0
220
0.0
230
1.0
 11
0.0
 21
1.0
 31
0.0
 73
     1
 44
1.0
  0
LINE
  5
3C1
100
AcDbEntity
  8
0
390
0
  6
Continuous
 62
     7
100
AcDbLine
 10
50.406349
 20
89.303837
 30
0.0
 11
50.406349
 21
69.315201
 31
0.0
  0
LINE
  5
3C2
100
AcDbEntity
  8
0
390
0
  6
Continuous
 62
     7
100
AcDbLine
 10
55.368937
 20
78.565201
 30
0.0
 11
49.356349
 21
78.565201
 31
0.0
  0
LINE
  5
3C3
100
AcDbEntity
  8
0
390
0
  6
Continuous
 62
     7
100
AcDbLine
 10
55.368937
 20
74.565201
 30
0.0
 11
49.356349
 21
74.565201
 31
0.0
  0
POLYLINE
  5
3C4
100
AcDbEntity
  8
0
390
0
  6
Continuous
 62
     7
100
AcDb2dPolyline
 66
     1
 10
0.0
 20
0.0
 30
0.0
 40
0.1
 41
0.1
  0
VERTEX
  5
3C5
100
AcDbEntity
  8
0
390
0
 62
     7
100
AcDbVertex
100
AcDb2dVertex
 10
49.881349
 20
81.190201
 30
0.0
  0
VERTEX
  5
3C6
100
AcDbEntity
  8
0
390
0
 62
     7
100
AcDbVertex
100
AcDb2dVertex
 10
50.406349
 20
78.565201
 30
0.0
  0
VERTEX
  5
3C7
100
AcDbEntity
  8
0
390
0
 62
     7
100
AcDbVertex
100
AcDb2dVertex
 10
50.931349
 20
81.190201
 30
0.0
  0
SEQEND
  5
3C8
100
AcDbEntity
  8
0
390
0
  0
POLYLINE
  5
3C9
100
AcDbEntity
  8
0
390
0
  6
Continuous
 62
     7
100
AcDb2dPolyline
 66
     1
 10
0.0
 20
0.0
 30
0.0
 40
0.1
 41
0.1
  0
VERTEX
  5
3CA
100
AcDbEntity
  8
0
390
0
 62
     7
100
AcDbVertex
100
AcDb2dVertex
 10
50.931349
 20
71.940201
 30
0.0
  0
VERTEX
  5
3CB
100
AcDbEntity
  8
0
390
0
 62
     7
100
AcDbVertex
100
AcDb2dVertex
 10
50.406349
 20
74.565201
 30
0.0
  0
VERTEX
  5
3CC
100
AcDbEntity
  8
0
390
0
 62
     7
100
AcDbVertex
100
AcDb2dVertex
 10
49.881349
 20
71.940201
 30
0.0
  0
SEQEND
  5
3CD
100
AcDbEntity
  8
0
390
0
  0
ENDBLK
  5
3CE
100
AcDbEntity
  8
0
390
0
100
AcDbBlockEnd
  0
BLOCK
  5
3D1
100
AcDbEntity
  8
0
390
0
100
AcDbBlockBegin
  2
*D23
 70
     1
 10
0.0
 20
0.0
 30
0.0
  3
DI23
  1

  0
MTEXT
  5
3D2
100
AcDbEntity
  8
0
390
0
 62
     7
100
AcDbMText
 10
36.717386
 20
67.953837
 30
0.0
 40
3.5
 41
28.477273
 71
     7
 72
     1
  1
\A1;14.0
210
0.0
220
0.0
230
1.0
 11
0.0
 21
1.0
 31
0.0
 73
     1
 44
1.0
  0
LINE
  5
3D3
100
AcDbEntity
  8
0
390
0
  6
Continuous
 62
     7
100
AcDbLine
 10
38.435567
 20
78.565201
 30
0.0
 11
38.435567
 21
64.565201
 31
0.0
  0
LINE
  5
3D4
100
AcDbEntity
  8
0
390
0
  6
Continuous
 62
     7
100
AcDbLine
 10
55.368937
 20
78.565201
 30
0.0
 11
37.385567
 21
78.565201
 31
0.0
  0
LINE
  5
3D5
100
AcDbEntity
  8
0
390
0
  6
Continuous
 62
     7
100
AcDbLine
 10
66.577241
 20
64.565201
 30
0.0
 11
37.385567
 21
64.565201
 31
0.0
  0
POLYLINE
  5
3D6
100
AcDbEntity
  8
0
390
0
  6
Continuous
 62
     7
100
AcDb2dPolyline
 66
     1
 10
0.0
 20
0.0
 30
0.0
 40
0.1
 41
0.1
  0
VERTEX
  5
3D7
100
AcDbEntity
  8
0
390
0
 62
     7
100
AcDbVertex
100
AcDb2dVertex
 10
37.910567
 20
75.940201
 30
0.0
  0
VERTEX
  5
3D8
100
AcDbEntity
  8
0
390
0
 62
     7
100
AcDbVertex
100
AcDb2dVertex
 10
38.435567
 20
78.565201
 30
0.0
  0
VERTEX
  5
3D9
100
AcDbEntity
  8
0
390
0
 62
     7
100
AcDbVertex
100
AcDb2dVertex
 10
38.960567
 20
75.940201
 30
0.0
  0
SEQEND
  5
3DA
100
AcDbEntity
  8
0
390
0
  0
POLYLINE
  5
3DB
100
AcDbEntity
  8
0
390
0
  6
Continuous
 62
     7
100
AcDb2dPolyline
 66
     1
 10
0.0
 20
0.0
 30
0.0
 40
0.1
 41
0.1
  0
VERTEX
  5
3DC
100
AcDbEntity
  8
0
390
0
 62
     7
100
AcDbVertex
100
AcDb2dVertex
 10
38.960567
 20
67.190201
 30
0.0
  0
VERTEX
  5
3DD
100
AcDbEntity
  8
0
390
0
 62
     7
100
AcDbVertex
100
AcDb2dVertex
 10
38.435567
 20
64.565201
 30
0.0
  0
VERTEX
  5
3DE
100
AcDbEntity
  8
0
390
0
 62
     7
100
AcDbVertex
100
AcDb2dVertex
 10
37.910567
 20
67.190201
 30
0.0
  0
SEQEND
  5
3DF
100
AcDbEntity
  8
0
390
0
  0
ENDBLK
  5
3E0
100
AcDbEntity
  8
0
390
0
100
AcDbBlockEnd
  0
BLOCK
  5
3E3
100
AcDbEntity
  8
0
390
0
100
AcDbBlockBegin
  2
*D24
 70
     1
 10
0.0
 20
0.0
 30
0.0
  3
DI24
  1

  0
MTEXT
  5
3E4
100
AcDbEntity
  8
0
390
0
 62
     7
100
AcDbMText
 10
135.852527
 20
96.609519
 30
0.0
 40
3.5
 41
36.622727
 71
     7
 72
     1
  1
\A1;%%c35.0
210
0.0
220
0.0
230
1.0
 11
0.0
 21
1.0
 31
0.0
 73
     1
 44
1.0
  0
LINE
  5
3E5
100
AcDbEntity
  8
0
390
0
  6
Continuous
 62
     7
100
AcDbLine
 10
137.586618
 20
115.565201
 30
0.0
 11
137.586618
 21
80.565201
 31
0.0
  0
LINE
  5
3E6
100
AcDbEntity
  8
0
390
0
  6
Continuous
 62
     7
100
AcDbLine
 10
117.468937
 20
115.565201
 30
0.0
 11
138.636618
 21
115.565201
 31
0.0
  0
LINE
  5
3E7
100
AcDbEntity
  8
0
390
0
  6
Continuous
 62
     7
100
AcDbLine
 10
117.468937
 20
80.565201
 30
0.0
 11
138.636618
 21
80.565201
 31
0.0
  0
POLYLINE
  5
3E8
100
AcDbEntity
  8
0
390
0
  6
Continuous
 62
     7
100
AcDb2dPolyline
 66
     1
 10
0.0
 20
0.0
 30
0.0
 40
0.1
 41
0.1
  0
VERTEX
  5
3E9
100
AcDbEntity
  8
0
390
0
 62
     7
100
AcDbVertex
100
AcDb2dVertex
 10
137.061618
 20
112.940201
 30
0.0
  0
VERTEX
  5
3EA
100
AcDbEntity
  8
0
390
0
 62
     7
100
AcDbVertex
100
AcDb2dVertex
 10
137.586618
 20
115.565201
 30
0.0
  0
VERTEX
  5
3EB
100
AcDbEntity
  8
0
390
0
 62
     7
100
AcDbVertex
100
AcDb2dVertex
 10
138.111618
 20
112.940201
 30
0.0
  0
SEQEND
  5
3EC
100
AcDbEntity
  8
0
390
0
  0
POLYLINE
  5
3ED
100
AcDbEntity
  8
0
390
0
  6
Continuous
 62
     7
100
AcDb2dPolyline
 66
     1
 10
0.0
 20
0.0
 30
0.0
 40
0.1
 41
0.1
  0
VERTEX
  5
3EE
100
AcDbEntity
  8
0
390
0
 62
     7
100
AcDbVertex
100
AcDb2dVertex
 10
138.111618
 20
83.190201
 30
0.0
  0
VERTEX
  5
3EF
100
AcDbEntity
  8
0
390
0
 62
     7
100
AcDbVertex
100
AcDb2dVertex
 10
137.586618
 20
80.565201
 30
0.0
  0
VERTEX
  5
3F0
100
AcDbEntity
  8
0
390
0
 62
     7
100
AcDbVertex
100
AcDb2dVertex
 10
137.061618
 20
83.190201
 30
0.0
  0
SEQEND
  5
3F1
100
AcDbEntity
  8
0
390
0
  0
ENDBLK
  5
3F2
100
AcDbEntity
  8
0
390
0
100
AcDbBlockEnd
  0
BLOCK
  5
3F5
100
AcDbEntity
  8
0
390
0
100
AcDbBlockBegin
  2
*D25
 70
     1
 10
0.0
 20
0.0
 30
0.0
  3
DI25
  1

  0
MTEXT
  5
3F6
100
AcDbEntity
  8
0
390
0
 62
     7
100
AcDbMText
 10
126.984108
 20
123.383522
 30
0.0
 40
3.5
 41
90.840909
 71
     7
 72
     1
  1
\A1;%%c15.0H8\S+0.027^   0;
210
0.0
220
0.0
230
1.0
 11
0.0
 21
1.0
 31
0.0
 73
     1
 44
1.0
  0
MTEXT
  5
3F7
100
AcDbEntity
  8
0
390
0
 62
     7
100
AcDbMText
 10
126.984108
 20
131.051703
 30
0.0
 40
3.5
 41
8.336364
 71
     7
 72
     1
  1
H8
210
0.0
220
0.0
230
1.0
 11
0.0
 21
1.0
 31
0.0
 73
     1
 44
1.0
  0
LINE
  5
3F8
100
AcDbEntity
  8
0
390
0
  6
Continuous
 62
     7
100
AcDbLine
 10
129.05229
 20
90.565201
 30
0.0
 11
129.05229
 21
144.828976
 31
0.0
  0
LINE
  5
3F9
100
AcDbEntity
  8
0
390
0
  6
Continuous
 62
     7
100
AcDbLine
 10
117.468937
 20
90.565201
 30
0.0
 11
130.10229
 21
90.565201
 31
0.0
  0
LINE
  5
3FA
100
AcDbEntity
  8
0
390
0
  6
Continuous
 62
     7
100
AcDbLine
 10
117.468937
 20
105.565201
 30
0.0
 11
130.10229
 21
105.565201
 31
0.0
  0
POLYLINE
  5
3FB
100
AcDbEntity
  8
0
390
0
  6
Continuous
 62
     7
100
AcDb2dPolyline
 66
     1
 10
0.0
 20
0.0
 30
0.0
 40
0.1
 41
0.1
  0
VERTEX
  5
3FC
100
AcDbEntity
  8
0
390
0
 62
     7
100
AcDbVertex
100
AcDb2dVertex
 10
129.57729
 20
93.190201
 30
0.0
  0
VERTEX
  5
3FD
100
AcDbEntity
  8
0
390
0
 62
     7
100
AcDbVertex
100
AcDb2dVertex
 10
129.05229
 20
90.565201
 30
0.0
  0
VERTEX
  5
3FE
100
AcDbEntity
  8
0
390
0
 62
     7
100
AcDbVertex
100
AcDb2dVertex
 10
128.52729
 20
93.190201
 30
0.0
  0
SEQEND
  5
3FF
100
AcDbEntity
  8
0
390
0
  0
POLYLINE
  5
400
100
AcDbEntity
  8
0
390
0
  6
Continuous
 62
     7
100
AcDb2dPolyline
 66
     1
 10
0.0
 20
0.0
 30
0.0
 40
0.1
 41
0.1
  0
VERTEX
  5
401
100
AcDbEntity
  8
0
390
0
 62
     7
100
AcDbVertex
100
AcDb2dVertex
 10
128.52729
 20
102.940201
 30
0.0
  0
VERTEX
  5
402
100
AcDbEntity
  8
0
390
0
 62
     7
100
AcDbVertex
100
AcDb2dVertex
 10
129.05229
 20
105.565201
 30
0.0
  0
VERTEX
  5
403
100
AcDbEntity
  8
0
390
0
 62
     7
100
AcDbVertex
100
AcDb2dVertex
 10
129.57729
 20
102.940201
 30
0.0
  0
SEQEND
  5
404
100
AcDbEntity
  8
0
390
0
  0
ENDBLK
  5
405
100
AcDbEntity
  8
0
390
0
100
AcDbBlockEnd
  0
BLOCK
  5
595
100
AcDbEntity
  8
0
390
0
100
AcDbBlockBegin
  2
*D26
 70
     1
 10
0.0
 20
0.0
 30
0.0
  3
DI26
  1

  0
MTEXT
  5
596
100
AcDbEntity
  8
0
390
0
 62
     7
100
AcDbMText
 10
125.550755
 20
47.151745
 30
0.0
 40
3.5
 41
36.622727
 71
     7
 72
     1
  1
\A1;%%c60.0
210
0.0
220
0.0
230
1.0
 73
     1
 44
1.0
  0
LINE
  5
597
100
AcDbEntity
  8
0
390
0
  6
Continuous
 62
     7
100
AcDbLine
 10
56.418937
 20
45.417654
 30
0.0
 11
133.218937
 21
45.417654
 31
0.0
  0
LINE
  5
598
100
AcDbEntity
  8
0
390
0
  6
Continuous
 62
     7
100
AcDbLine
 10
56.418937
 20
68.515201
 30
0.0
 11
56.418937
 21
44.367654
 31
0.0
  0
LINE
  5
599
100
AcDbEntity
  8
0
390
0
  6
Continuous
 62
     7
100
AcDbLine
 10
116.418937
 20
68.515201
 30
0.0
 11
116.418937
 21
44.367654
 31
0.0
  0
POLYLINE
  5
59A
100
AcDbEntity
  8
0
390
0
  6
Continuous
 62
     7
100
AcDb2dPolyline
 66
     1
 10
0.0
 20
0.0
 30
0.0
 40
0.1
 41
0.1
  0
VERTEX
  5
59B
100
AcDbEntity
  8
0
390
0
 62
     7
100
AcDbVertex
100
AcDb2dVertex
 10
59.043937
 20
44.892654
 30
0.0
  0
VERTEX
  5
59C
100
AcDbEntity
  8
0
390
0
 62
     7
100
AcDbVertex
100
AcDb2dVertex
 10
56.418937
 20
45.417654
 30
0.0
  0
VERTEX
  5
59D
100
AcDbEntity
  8
0
390
0
 62
     7
100
AcDbVertex
100
AcDb2dVertex
 10
59.043937
 20
45.942654
 30
0.0
  0
SEQEND
  5
59E
100
AcDbEntity
  8
0
390
0
  0
POLYLINE
  5
59F
100
AcDbEntity
  8
0
390
0
  6
Continuous
 62
     7
100
AcDb2dPolyline
 66
     1
 10
0.0
 20
0.0
 30
0.0
 40
0.1
 41
0.1
  0
VERTEX
  5
5A0
100
AcDbEntity
  8
0
390
0
 62
     7
100
AcDbVertex
100
AcDb2dVertex
 10
113.793937
 20
45.942654
 30
0.0
  0
VERTEX
  5
5A1
100
AcDbEntity
  8
0
390
0
 62
     7
100
AcDbVertex
100
AcDb2dVertex
 10
116.418937
 20
45.417654
 30
0.0
  0
VERTEX
  5
5A2
100
AcDbEntity
  8
0
390
0
 62
     7
100
AcDbVertex
100
AcDb2dVertex
 10
113.793937
 20
44.892654
 30
0.0
  0
SEQEND
  5
5A3
100
AcDbEntity
  8
0
390
0
  0
ENDBLK
  5
5A4
100
AcDbEntity
  8
0
390
0
100
AcDbBlockEnd
  0
BLOCK
  5
693
100
AcDbEntity
  8
0
390
0
100
AcDbBlockBegin
  2
*D27
 70
     1
 10
0.0
 20
0.0
 30
0.0
  3
DI27
  1

  0
MTEXT
  5
694
100
AcDbEntity
  8
0
390
0
 62
     7
100
AcDbMText
 10
101.918937
 20
119.63123
 30
0.0
 40
3.5
 41
28.477273
 71
     7
 72
     1
  1
\A1;22.0
210
0.0
220
0.0
230
1.0
 73
     1
 44
1.0
  0
LINE
  5
695
100
AcDbEntity
  8
0
390
0
  6
Continuous
 62
     7
100
AcDbLine
 10
94.418937
 20
117.913048
 30
0.0
 11
116.418937
 21
117.913048
 31
0.0
  0
LINE
  5
696
100
AcDbEntity
  8
0
390
0
  6
Continuous
 62
     7
100
AcDbLine
 10
94.418937
 20
116.615201
 30
0.0
 11
94.418937
 21
118.963048
 31
0.0
  0
LINE
  5
697
100
AcDbEntity
  8
0
390
0
  6
Continuous
 62
     7
100
AcDbLine
 10
116.418937
 20
116.615201
 30
0.0
 11
116.418937
 21
118.963048
 31
0.0
  0
POLYLINE
  5
698
100
AcDbEntity
  8
0
390
0
  6
Continuous
 62
     7
100
AcDb2dPolyline
 66
     1
 10
0.0
 20
0.0
 30
0.0
 40
0.1
 41
0.1
  0
VERTEX
  5
699
100
AcDbEntity
  8
0
390
0
 62
     7
100
AcDbVertex
100
AcDb2dVertex
 10
97.043937
 20
117.388048
 30
0.0
  0
VERTEX
  5
69A
100
AcDbEntity
  8
0
390
0
 62
     7
100
AcDbVertex
100
AcDb2dVertex
 10
94.418937
 20
117.913048
 30
0.0
  0
VERTEX
  5
69B
100
AcDbEntity
  8
0
390
0
 62
     7
100
AcDbVertex
100
AcDb2dVertex
 10
97.043937
 20
118.438048
 30
0.0
  0
SEQEND
  5
69C
100
AcDbEntity
  8
0
390
0
  0
POLYLINE
  5
69D
100
AcDbEntity
  8
0
390
0
  6
Continuous
 62
     7
100
AcDb2dPolyline
 66
     1
 10
0.0
 20
0.0
 30
0.0
 40
0.1
 41
0.1
  0
VERTEX
  5
69E
100
AcDbEntity
  8
0
390
0
 62
     7
100
AcDbVertex
100
AcDb2dVertex
 10
113.793937
 20
118.438048
 30
0.0
  0
VERTEX
  5
69F
100
AcDbEntity
  8
0
390
0
 62
     7
100
AcDbVertex
100
AcDb2dVertex
 10
116.418937
 20
117.913048
 30
0.0
  0
VERTEX
  5
6A0
100
AcDbEntity
  8
0
390
0
 62
     7
100
AcDbVertex
100
AcDb2dVertex
 10
113.793937
 20
117.388048
 30
0.0
  0
SEQEND
  5
6A1
100
AcDbEntity
  8
0
390
0
  0
ENDBLK
  5
6A2
100
AcDbEntity
  8
0
390
0
100
AcDbBlockEnd
  0
BLOCK
  5
6A5
100
AcDbEntity
  8
0
390
0
100
AcDbBlockBegin
  2
*D28
 70
     1
 10
0.0
 20
0.0
 30
0.0
  3
DI28
  1

  0
MTEXT
  5
6A6
100
AcDbEntity
  8
0
390
0
 62
     7
100
AcDbMText
 10
99.418937
 20
124.860052
 30
0.0
 40
3.5
 41
28.477273
 71
     7
 72
     1
  1
\A1;27.0
210
0.0
220
0.0
230
1.0
 73
     1
 44
1.0
  0
LINE
  5
6A7
100
AcDbEntity
  8
0
390
0
  6
Continuous
 62
     7
100
AcDbLine
 10
89.418937
 20
123.14187
 30
0.0
 11
116.418937
 21
123.14187
 31
0.0
  0
LINE
  5
6A8
100
AcDbEntity
  8
0
390
0
  6
Continuous
 62
     7
100
AcDbLine
 10
89.418937
 20
119.589391
 30
0.0
 11
89.418937
 21
124.19187
 31
0.0
  0
LINE
  5
6A9
100
AcDbEntity
  8
0
390
0
  6
Continuous
 62
     7
100
AcDbLine
 10
116.418937
 20
116.615201
 30
0.0
 11
116.418937
 21
124.19187
 31
0.0
  0
POLYLINE
  5
6AA
100
AcDbEntity
  8
0
390
0
  6
Continuous
 62
     7
100
AcDb2dPolyline
 66
     1
 10
0.0
 20
0.0
 30
0.0
 40
0.1
 41
0.1
  0
VERTEX
  5
6AB
100
AcDbEntity
  8
0
390
0
 62
     7
100
AcDbVertex
100
AcDb2dVertex
 10
92.043937
 20
122.61687
 30
0.0
  0
VERTEX
  5
6AC
100
AcDbEntity
  8
0
390
0
 62
     7
100
AcDbVertex
100
AcDb2dVertex
 10
89.418937
 20
123.14187
 30
0.0
  0
VERTEX
  5
6AD
100
AcDbEntity
  8
0
390
0
 62
     7
100
AcDbVertex
100
AcDb2dVertex
 10
92.043937
 20
123.66687
 30
0.0
  0
SEQEND
  5
6AE
100
AcDbEntity
  8
0
390
0
  0
POLYLINE
  5
6AF
100
AcDbEntity
  8
0
390
0
  6
Continuous
 62
     7
100
AcDb2dPolyline
 66
     1
 10
0.0
 20
0.0
 30
0.0
 40
0.1
 41
0.1
  0
VERTEX
  5
6B0
100
AcDbEntity
  8
0
390
0
 62
     7
100
AcDbVertex
100
AcDb2dVertex
 10
113.793937
 20
123.66687
 30
0.0
  0
VERTEX
  5
6B1
100
AcDbEntity
  8
0
390
0
 62
     7
100
AcDbVertex
100
AcDb2dVertex
 10
116.418937
 20
123.14187
 30
0.0
  0
VERTEX
  5
6B2
100
AcDbEntity
  8
0
390
0
 62
     7
100
AcDbVertex
100
AcDb2dVertex
 10
113.793937
 20
122.61687
 30
0.0
  0
SEQEND
  5
6B3
100
AcDbEntity
  8
0
390
0
  0
ENDBLK
  5
6B4
100
AcDbEntity
  8
0
390
0
100
AcDbBlockEnd
  0
BLOCK
  5
6B7
100
AcDbEntity
  8
0
390
0
100
AcDbBlockBegin
  2
*D29
 70
     1
 10
0.0
 20
0.0
 30
0.0
  3
DI29
  1

  0
MTEXT
  5
6B8
100
AcDbEntity
  8
0
390
0
 62
     7
100
AcDbMText
 10
96.918937
 20
130.475009
 30
0.0
 40
3.5
 41
28.477273
 71
     7
 72
     1
  1
\A1;32.0
210
0.0
220
0.0
230
1.0
 73
     1
 44
1.0
  0
LINE
  5
6B9
100
AcDbEntity
  8
0
390
0
  6
Continuous
 62
     7
100
AcDbLine
 10
84.418937
 20
128.740918
 30
0.0
 11
116.418937
 21
128.740918
 31
0.0
  0
LINE
  5
6BA
100
AcDbEntity
  8
0
390
0
  6
Continuous
 62
     7
100
AcDbLine
 10
84.418937
 20
113.215201
 30
0.0
 11
84.418937
 21
129.790918
 31
0.0
  0
LINE
  5
6BB
100
AcDbEntity
  8
0
390
0
  6
Continuous
 62
     7
100
AcDbLine
 10
116.418937
 20
116.615201
 30
0.0
 11
116.418937
 21
129.790918
 31
0.0
  0
POLYLINE
  5
6BC
100
AcDbEntity
  8
0
390
0
  6
Continuous
 62
     7
100
AcDb2dPolyline
 66
     1
 10
0.0
 20
0.0
 30
0.0
 40
0.1
 41
0.1
  0
VERTEX
  5
6BD
100
AcDbEntity
  8
0
390
0
 62
     7
100
AcDbVertex
100
AcDb2dVertex
 10
87.043937
 20
128.215918
 30
0.0
  0
VERTEX
  5
6BE
100
AcDbEntity
  8
0
390
0
 62
     7
100
AcDbVertex
100
AcDb2dVertex
 10
84.418937
 20
128.740918
 30
0.0
  0
VERTEX
  5
6BF
100
AcDbEntity
  8
0
390
0
 62
     7
100
AcDbVertex
100
AcDb2dVertex
 10
87.043937
 20
129.265918
 30
0.0
  0
SEQEND
  5
6C0
100
AcDbEntity
  8
0
390
0
  0
POLYLINE
  5
6C1
100
AcDbEntity
  8
0
390
0
  6
Continuous
 62
     7
100
AcDb2dPolyline
 66
     1
 10
0.0
 20
0.0
 30
0.0
 40
0.1
 41
0.1
  0
VERTEX
  5
6C2
100
AcDbEntity
  8
0
390
0
 62
     7
100
AcDbVertex
100
AcDb2dVertex
 10
113.793937
 20
129.265918
 30
0.0
  0
VERTEX
  5
6C3
100
AcDbEntity
  8
0
390
0
 62
     7
100
AcDbVertex
100
AcDb2dVertex
 10
116.418937
 20
128.740918
 30
0.0
  0
VERTEX
  5
6C4
100
AcDbEntity
  8
0
390
0
 62
     7
100
AcDbVertex
100
AcDb2dVertex
 10
113.793937
 20
128.215918
 30
0.0
  0
SEQEND
  5
6C5
100
AcDbEntity
  8
0
390
0
  0
ENDBLK
  5
6C6
100
AcDbEntity
  8
0
390
0
100
AcDbBlockEnd
  0
BLOCK
  5
6C9
100
AcDbEntity
  8
0
390
0
100
AcDbBlockBegin
  2
*D30
 70
     1
 10
0.0
 20
0.0
 30
0.0
  3
DI30
  1

  0
MTEXT
  5
6CA
100
AcDbEntity
  8
0
390
0
 62
     7
100
AcDbMText
 10
42.597213
 20
71.575428
 30
0.0
 40
3.5
 41
24.404545
 71
     7
 72
     1
  1
\A1;9.0
210
0.0
220
0.0
230
1.0
 11
0.0
 21
1.0
 31
0.0
 73
     1
 44
1.0
  0
LINE
  5
6CB
100
AcDbEntity
  8
0
390
0
  6
Continuous
 62
     7
100
AcDbLine
 10
44.331304
 20
78.565201
 30
0.0
 11
44.331304
 21
69.565201
 31
0.0
  0
LINE
  5
6CC
100
AcDbEntity
  8
0
390
0
  6
Continuous
 62
     7
100
AcDbLine
 10
55.368937
 20
78.565201
 30
0.0
 11
43.281304
 21
78.565201
 31
0.0
  0
LINE
  5
6CD
100
AcDbEntity
  8
0
390
0
  6
Continuous
 62
     7
100
AcDbLine
 10
55.368937
 20
69.565201
 30
0.0
 11
43.281304
 21
69.565201
 31
0.0
  0
POLYLINE
  5
6CE
100
AcDbEntity
  8
0
390
0
  6
Continuous
 62
     7
100
AcDb2dPolyline
 66
     1
 10
0.0
 20
0.0
 30
0.0
 40
0.1
 41
0.1
  0
VERTEX
  5
6CF
100
AcDbEntity
  8
0
390
0
 62
     7
100
AcDbVertex
100
AcDb2dVertex
 10
43.806304
 20
75.940201
 30
0.0
  0
VERTEX
  5
6D0
100
AcDbEntity
  8
0
390
0
 62
     7
100
AcDbVertex
100
AcDb2dVertex
 10
44.331304
 20
78.565201
 30
0.0
  0
VERTEX
  5
6D1
100
AcDbEntity
  8
0
390
0
 62
     7
100
AcDbVertex
100
AcDb2dVertex
 10
44.856304
 20
75.940201
 30
0.0
  0
SEQEND
  5
6D2
100
AcDbEntity
  8
0
390
0
  0
POLYLINE
  5
6D3
100
AcDbEntity
  8
0
390
0
  6
Continuous
 62
     7
100
AcDb2dPolyline
 66
     1
 10
0.0
 20
0.0
 30
0.0
 40
0.1
 41
0.1
  0
VERTEX
  5
6D4
100
AcDbEntity
  8
0
390
0
 62
     7
100
AcDbVertex
100
AcDb2dVertex
 10
44.856304
 20
72.190201
 30
0.0
  0
VERTEX
  5
6D5
100
AcDbEntity
  8
0
390
0
 62
     7
100
AcDbVertex
100
AcDb2dVertex
 10
44.331304
 20
69.565201
 30
0.0
  0
VERTEX
  5
6D6
100
AcDbEntity
  8
0
390
0
 62
     7
100
AcDbVertex
100
AcDb2dVertex
 10
43.806304
 20
72.190201
 30
0.0
  0
SEQEND
  5
6D7
100
AcDbEntity
  8
0
390
0
  0
ENDBLK
  5
6D8
100
AcDbEntity
  8
0
390
0
100
AcDbBlockEnd
  0
BLOCK
  5
77C
100
AcDbEntity
  8
0
390
0
100
AcDbBlockBegin
  2
AID2777
 70
     0
 10
0.0
 20
0.0
 30
0.0
  3
DNote#note referencing elements
  1

  0
MTEXT
  5
77D
100
AcDbEntity
  8
0
390
0
 62
     7
100
AcDbMText
 10
141.314045
 20
64.923672
 30
0.0
 40
1.6
 41
9.789091
 71
     7
 72
     1
  1
+0.018
210
0.0
220
0.0
230
1.0
 73
     1
 44
1.0
  0
MTEXT
  5
77E
100
AcDbEntity
  8
0
390
0
 62
     7
100
AcDbMText
 10
141.314045
 20
63.163672
 30
0.0
 40
1.6
 41
1.6
 71
     7
 72
     1
  1
　0
210
0.0
220
0.0
230
1.0
 73
     1
 44
1.0
  0
ENDBLK
  5
77F
100
AcDbEntity
  8
0
390
0
100
AcDbBlockEnd
  0
BLOCK
  5
782
100
AcDbEntity
  8
0
390
0
100
AcDbBlockBegin
  2
AID2783
 70
     0
 10
0.0
 20
0.0
 30
0.0
  3
DNote#note referencing elements
  1

  0
MTEXT
  5
783
100
AcDbEntity
  8
0
390
0
 62
     7
100
AcDbMText
 10
121.159945
 20
136.137459
 30
0.0
 40
1.6
 41
9.789091
 71
     7
 72
     1
  1
+0.018
210
0.0
220
0.0
230
1.0
 11
0.0
 21
1.0
 31
0.0
 73
     1
 44
1.0
  0
MTEXT
  5
784
100
AcDbEntity
  8
0
390
0
 62
     7
100
AcDbMText
 10
122.919945
 20
136.137459
 30
0.0
 40
1.6
 41
1.6
 71
     7
 72
     1
  1
　0
210
0.0
220
0.0
230
1.0
 11
0.0
 21
1.0
 31
0.0
 73
     1
 44
1.0
  0
ENDBLK
  5
785
100
AcDbEntity
  8
0
390
0
100
AcDbBlockEnd
  0
BLOCK
  5
789
100
AcDbEntity
  8
0
390
0
100
AcDbBlockBegin
  2
*D33
 70
     1
 10
0.0
 20
0.0
 30
0.0
  3
DI33
  1

  0
MTEXT
  5
78A
100
AcDbEntity
  8
0
390
0
 62
     7
100
AcDbMText
 10
79.483737
 20
96.641337
 30
0.0
 40
3.5
 41
36.495455
 71
     7
 72
     1
  1
\A1;%%c28.2
210
0.0
220
0.0
230
0.9999999999999999
 11
0.0
 21
1.0
 31
0.0
 73
     1
 44
1.0
  0
LINE
  5
78B
100
AcDbEntity
  8
0
390
0
  6
Continuous
 62
     7
100
AcDbLine
 10
81.217827
 20
112.165201
 30
0.0
 11
81.217827
 21
83.965201
 31
0.0
  0
LINE
  5
78C
100
AcDbEntity
  8
0
390
0
  6
Continuous
 62
     7
100
AcDbLine
 10
83.368937
 20
112.165201
 30
0.0
 11
80.167827
 21
112.165201
 31
0.0
  0
LINE
  5
78D
100
AcDbEntity
  8
0
390
0
  6
Continuous
 62
     7
100
AcDbLine
 10
83.368937
 20
83.965201
 30
0.0
 11
80.167827
 21
83.965201
 31
0.0
  0
POLYLINE
  5
78E
100
AcDbEntity
  8
0
390
0
  6
Continuous
 62
     7
100
AcDb2dPolyline
 66
     1
 10
0.0
 20
0.0
 30
0.0
 40
0.1
 41
0.1
  0
VERTEX
  5
78F
100
AcDbEntity
  8
0
390
0
 62
     7
100
AcDbVertex
100
AcDb2dVertex
 10
80.692827
 20
109.540201
 30
0.0
  0
VERTEX
  5
790
100
AcDbEntity
  8
0
390
0
 62
     7
100
AcDbVertex
100
AcDb2dVertex
 10
81.217827
 20
112.165201
 30
0.0
  0
VERTEX
  5
791
100
AcDbEntity
  8
0
390
0
 62
     7
100
AcDbVertex
100
AcDb2dVertex
 10
81.742827
 20
109.540201
 30
0.0
  0
SEQEND
  5
792
100
AcDbEntity
  8
0
390
0
  0
POLYLINE
  5
793
100
AcDbEntity
  8
0
390
0
  6
Continuous
 62
     7
100
AcDb2dPolyline
 66
     1
 10
0.0
 20
0.0
 30
0.0
 40
0.1
 41
0.1
  0
VERTEX
  5
794
100
AcDbEntity
  8
0
390
0
 62
     7
100
AcDbVertex
100
AcDb2dVertex
 10
81.742827
 20
86.590201
 30
0.0
  0
VERTEX
  5
795
100
AcDbEntity
  8
0
390
0
 62
     7
100
AcDbVertex
100
AcDb2dVertex
 10
81.217827
 20
83.965201
 30
0.0
  0
VERTEX
  5
796
100
AcDbEntity
  8
0
390
0
 62
     7
100
AcDbVertex
100
AcDb2dVertex
 10
80.692827
 20
86.590201
 30
0.0
  0
SEQEND
  5
797
100
AcDbEntity
  8
0
390
0
  0
ENDBLK
  5
798
100
AcDbEntity
  8
0
390
0
100
AcDbBlockEnd
  0
BLOCK
  5
79B
100
AcDbEntity
  8
0
390
0
100
AcDbBlockBegin
  2
*D34
 70
     1
 10
0.0
 20
0.0
 30
0.0
  3
DI34
  1

  0
MTEXT
  5
79C
100
AcDbEntity
  8
0
390
0
 62
     7
100
AcDbMText
 10
84.963255
 20
78.830635
 30
0.0
 40
3.5
 41
36.622727
 71
     7
 72
     1
  1
\A1;%%c16.0
210
0.0
220
0.0
230
1.0
 73
     1
 44
1.0
  0
LINE
  5
79D
100
AcDbEntity
  8
0
390
0
  6
Continuous
 62
     7
100
AcDbLine
 10
78.418937
 20
77.096544
 30
0.0
 11
94.418937
 21
77.096544
 31
0.0
  0
POLYLINE
  5
79E
100
AcDbEntity
  8
0
390
0
  6
Continuous
 62
     7
100
AcDb2dPolyline
 66
     1
 10
0.0
 20
0.0
 30
0.0
 40
0.1
 41
0.1
  0
VERTEX
  5
79F
100
AcDbEntity
  8
0
390
0
 62
     7
100
AcDbVertex
100
AcDb2dVertex
 10
81.043937
 20
76.571544
 30
0.0
  0
VERTEX
  5
7A0
100
AcDbEntity
  8
0
390
0
 62
     7
100
AcDbVertex
100
AcDb2dVertex
 10
78.418937
 20
77.096544
 30
0.0
  0
VERTEX
  5
7A1
100
AcDbEntity
  8
0
390
0
 62
     7
100
AcDbVertex
100
AcDb2dVertex
 10
81.043937
 20
77.621544
 30
0.0
  0
SEQEND
  5
7A2
100
AcDbEntity
  8
0
390
0
  0
POLYLINE
  5
7A3
100
AcDbEntity
  8
0
390
0
  6
Continuous
 62
     7
100
AcDb2dPolyline
 66
     1
 10
0.0
 20
0.0
 30
0.0
 40
0.1
 41
0.1
  0
VERTEX
  5
7A4
100
AcDbEntity
  8
0
390
0
 62
     7
100
AcDbVertex
100
AcDb2dVertex
 10
91.793937
 20
77.621544
 30
0.0
  0
VERTEX
  5
7A5
100
AcDbEntity
  8
0
390
0
 62
     7
100
AcDbVertex
100
AcDb2dVertex
 10
94.418937
 20
77.096544
 30
0.0
  0
VERTEX
  5
7A6
100
AcDbEntity
  8
0
390
0
 62
     7
100
AcDbVertex
100
AcDb2dVertex
 10
91.793937
 20
76.571544
 30
0.0
  0
SEQEND
  5
7A7
100
AcDbEntity
  8
0
390
0
  0
ENDBLK
  5
7A8
100
AcDbEntity
  8
0
390
0
100
AcDbBlockEnd
  0
BLOCK
  5
7AA
100
AcDbEntity
  8
0
390
0
100
AcDbBlockBegin
  2
AID2803
 70
     0
 10
0.0
 20
0.0
 30
0.0
  3
DNote#note referencing elements
  1

  0
MTEXT
  5
7AB
100
AcDbEntity
  8
0
390
0
 62
     7
100
AcDbMText
 10
76.035953
 20
79.719302
 30
0.0
 40
3.5
 41
1.686364
 71
     7
 72
     1
  1
1
210
0.0
220
0.0
230
1.0
 73
     1
 44
1.0
  0
POLYLINE
  5
7AC
100
AcDbEntity
  8
0
390
0
  6
Continuous
 62
     2
100
AcDb2dPolyline
 66
     1
 10
0.0
 20
0.0
 30
0.0
 70
     1
 40
0.1
 41
0.1
  0
VERTEX
  5
7AD
100
AcDbEntity
  8
0
390
0
 62
     2
100
AcDbVertex
100
AcDb2dVertex
 10
79.763731
 20
79.282938
 30
0.0
  0
VERTEX
  5
7AE
100
AcDbEntity
  8
0
390
0
 62
     2
100
AcDbVertex
100
AcDb2dVertex
 10
76.88709
 20
84.265428
 30
0.0
  0
VERTEX
  5
7AF
100
AcDbEntity
  8
0
390
0
 62
     2
100
AcDbVertex
100
AcDb2dVertex
 10
74.010448
 20
79.282938
 30
0.0
  0
SEQEND
  5
7B0
100
AcDbEntity
  8
0
390
0
  0
ENDBLK
  5
7B1
100
AcDbEntity
  8
0
390
0
100
AcDbBlockEnd
  0
BLOCK
  5
7B4
100
AcDbEntity
  8
0
390
0
100
AcDbBlockBegin
  2
AID2809
 70
     0
 10
0.0
 20
0.0
 30
0.0
  3
DNote#note referencing elements
  1

  0
MTEXT
  5
7B5
100
AcDbEntity
  8
0
390
0
 62
     7
100
AcDbMText
 10
119.560175
 20
58.566197
 30
0.0
 40
3.5
 41
1.686364
 71
     7
 72
     1
  1
1
210
0.0
220
0.0
230
1.0
 73
     1
 44
1.0
  0
POLYLINE
  5
7B6
100
AcDbEntity
  8
0
390
0
  6
Continuous
 62
     2
100
AcDb2dPolyline
 66
     1
 10
0.0
 20
0.0
 30
0.0
 70
     1
 40
0.1
 41
0.1
  0
VERTEX
  5
7B7
100
AcDbEntity
  8
0
390
0
 62
     2
100
AcDbVertex
100
AcDb2dVertex
 10
123.287953
 20
58.129833
 30
0.0
  0
VERTEX
  5
7B8
100
AcDbEntity
  8
0
390
0
 62
     2
100
AcDbVertex
100
AcDb2dVertex
 10
120.411312
 20
63.112323
 30
0.0
  0
VERTEX
  5
7B9
100
AcDbEntity
  8
0
390
0
 62
     2
100
AcDbVertex
100
AcDb2dVertex
 10
117.53467
 20
58.129833
 30
0.0
  0
SEQEND
  5
7BA
100
AcDbEntity
  8
0
390
0
  0
ENDBLK
  5
7BB
100
AcDbEntity
  8
0
390
0
100
AcDbBlockEnd
  0
BLOCK
  5
7BE
100
AcDbEntity
  8
0
390
0
100
AcDbBlockBegin
  2
AID2815
 70
     0
 10
0.0
 20
0.0
 30
0.0
  3
DNote#note referencing elements
  1

  0
MTEXT
  5
7BF
100
AcDbEntity
  8
0
390
0
 62
     7
100
AcDbMText
 10
79.756837
 20
88.741446
 30
0.0
 40
3.5
 41
1.686364
 71
     7
 72
     1
  1
1
210
0.0
220
0.0
230
1.0
 11
0.0
 21
1.0
 31
0.0
 73
     1
 44
1.0
  0
POLYLINE
  5
7C0
100
AcDbEntity
  8
0
390
0
  6
Continuous
 62
     2
100
AcDb2dPolyline
 66
     1
 10
0.0
 20
0.0
 30
0.0
 70
     1
 40
0.1
 41
0.1
  0
VERTEX
  5
7C1
100
AcDbEntity
  8
0
390
0
 62
     2
100
AcDbVertex
100
AcDb2dVertex
 10
80.193201
 20
92.469224
 30
0.0
  0
VERTEX
  5
7C2
100
AcDbEntity
  8
0
390
0
 62
     2
100
AcDbVertex
100
AcDb2dVertex
 10
75.210711
 20
89.592582
 30
0.0
  0
VERTEX
  5
7C3
100
AcDbEntity
  8
0
390
0
 62
     2
100
AcDbVertex
100
AcDb2dVertex
 10
80.193201
 20
86.715941
 30
0.0
  0
SEQEND
  5
7C4
100
AcDbEntity
  8
0
390
0
  0
ENDBLK
  5
7C5
100
AcDbEntity
  8
0
390
0
100
AcDbBlockEnd
  0
BLOCK
  5
7C8
100
AcDbEntity
  8
0
390
0
100
AcDbBlockBegin
  2
AID2821
 70
     0
 10
0.0
 20
0.0
 30
0.0
  3
DNote#note referencing elements
  1

  0
MTEXT
  5
7C9
100
AcDbEntity
  8
0
390
0
 62
     7
100
AcDbMText
 10
123.063377
 20
117.598211
 30
0.0
 40
3.5
 41
1.686364
 71
     7
 72
     1
  1
1
210
0.0
220
0.0
230
1.0
 11
0.0
 21
1.0
 31
0.0
 73
     1
 44
1.0
  0
POLYLINE
  5
7CA
100
AcDbEntity
  8
0
390
0
  6
Continuous
 62
     2
100
AcDb2dPolyline
 66
     1
 10
0.0
 20
0.0
 30
0.0
 70
     1
 40
0.1
 41
0.1
  0
VERTEX
  5
7CB
100
AcDbEntity
  8
0
390
0
 62
     2
100
AcDbVertex
100
AcDb2dVertex
 10
123.49974
 20
121.325989
 30
0.0
  0
VERTEX
  5
7CC
100
AcDbEntity
  8
0
390
0
 62
     2
100
AcDbVertex
100
AcDb2dVertex
 10
118.517251
 20
118.449348
 30
0.0
  0
VERTEX
  5
7CD
100
AcDbEntity
  8
0
390
0
 62
     2
100
AcDbVertex
100
AcDb2dVertex
 10
123.49974
 20
115.572706
 30
0.0
  0
SEQEND
  5
7CE
100
AcDbEntity
  8
0
390
0
  0
ENDBLK
  5
7CF
100
AcDbEntity
  8
0
390
0
100
AcDbBlockEnd
  0
ENDSEC
  0
SECTION
  2
ENTITIES
  0
INSERT
  5
58
100
AcDbEntity
  8
0
390
0
100
AcDbBlockReference
  2
$DFT_DRAWING
 10
0.0
 20
0.0
 30
0.0
  0
INSERT
  5
80
100
AcDbEntity
  8
0
390
0
100
AcDbBlockReference
  2
AID85
 10
0.0
 20
0.0
 30
0.0
  0
MTEXT
  5
81
100
AcDbEntity
  8
0
390
0
 62
     7
100
AcDbMText
 10
175.482553
 20
53.69734
 30
0.0
 40
3.0
 41
19.363636
 71
     7
 72
     1
  1
製品名
210
0.0
220
0.0
230
1.0
 73
     1
 44
1.0
  0
MTEXT
  5
82
100
AcDbEntity
  8
0
390
0
 62
     7
100
AcDbMText
 10
231.476726
 20
53.69734
 30
0.0
 40
3.0
 41
27.136364
 71
     7
 72
     1
  1
製品番号
210
0.0
220
0.0
230
1.0
 73
     1
 44
1.0
  0
MTEXT
  5
83
100
AcDbEntity
  8
0
390
0
 62
     7
100
AcDbMText
 10
200.640747
 20
53.714705
 30
0.0
 40
3.0
 41
33.081818
 71
     7
 72
     1
  1
MP3560-12
210
0.0
220
0.0
230
1.0
 73
     1
 44
1.0
  0
MTEXT
  5
84
100
AcDbEntity
  8
0
390
0
 62
     7
100
AcDbMText
 10
175.77796
 20
37.364968
 30
0.0
 40
3.0
 41
22.527273
 71
     7
 72
     1
  1
材　　質
210
0.0
220
0.0
230
1.0
 73
     1
 44
1.0
  0
MTEXT
  5
85
100
AcDbEntity
  8
0
390
0
 62
     7
100
AcDbMText
 10
195.403274
 20
37.330878
 30
0.0
 40
3.0
 41
20.079652
 71
     7
 72
     1
  1
接着剤
210
0.0
220
0.0
230
1.0
 73
     1
 44
1.0
  0
MTEXT
  5
86
100
AcDbEntity
  8
0
390
0
 62
     7
100
AcDbMText
 10
212.709859
 20
37.367632
 30
0.0
 40
3.0
 41
27.190909
 71
     7
 72
     1
  1
表面処理
210
0.0
220
0.0
230
1.0
 73
     1
 44
1.0
  0
MTEXT
  5
87
100
AcDbEntity
  8
0
390
0
 62
     7
100
AcDbMText
 10
232.053114
 20
37.324059
 30
0.0
 40
3.0
 41
27.136364
 71
     7
 72
     1
  1
第三角法
210
0.0
220
0.0
230
1.0
 73
     1
 44
1.0
  0
MTEXT
  5
88
100
AcDbEntity
  8
0
390
0
 62
     7
100
AcDbMText
 10
231.562205
 20
23.669945
 30
0.0
 40
3.0
 41
29.1
 71
     7
 72
     1
  1
ファイル名
210
0.0
220
0.0
230
1.0
 73
     1
 44
1.0
  0
MTEXT
  5
89
100
AcDbEntity
  8
0
390
0
 62
     7
100
AcDbMText
 10
261.085869
 20
23.704036
 30
0.0
 40
3.0
 41
27.053182
 71
     7
 72
     1
  1
{\W0.85;A1-1-1217}
210
0.0
220
0.0
230
1.0
 73
     1
 44
1.0
  0
MTEXT
  5
8A
100
AcDbEntity
  8
0
390
0
 62
     7
100
AcDbMText
 10
262.02535
 20
53.701069
 30
0.0
 40
3.0
 41
19.772727
 71
     7
 72
     1
  1
1-1217
210
0.0
220
0.0
230
1.0
 73
     1
 44
1.0
  0
MTEXT
  5
8B
100
AcDbEntity
  8
0
390
0
 62
     7
100
AcDbMText
 10
176.862051
 20
25.353979
 30
0.0
 40
3.0
 41
18.027273
 71
     7
 72
     1
  1
承　認
210
0.0
220
0.0
230
1.0
 73
     1
 44
1.0
  0
MTEXT
  5
8C
100
AcDbEntity
  8
0
390
0
 62
     7
100
AcDbMText
 10
195.964096
 20
25.31307
 30
0.0
 40
3.0
 41
17.836364
 71
     7
 72
     1
  1
照　査
210
0.0
220
0.0
230
1.0
 73
     1
 44
1.0
  0
MTEXT
  5
8D
100
AcDbEntity
  8
0
390
0
 62
     7
100
AcDbMText
 10
215.062131
 20
25.334646
 30
0.0
 40
3.0
 41
17.781818
 71
     7
 72
     1
  1
設　計
210
0.0
220
0.0
230
1.0
 73
     1
 44
1.0
  0
INSERT
  5
B8
100
AcDbEntity
  8
0
390
0
100
AcDbBlockReference
  2
AID185
 10
0.0
 20
0.0
 30
0.0
  0
MTEXT
  5
B9
100
AcDbEntity
  8
0
390
0
 62
     7
100
AcDbMText
 10
163.841418
 20
11.591591
 30
0.0
 40
3.0
 41
13.145455
 71
     7
 72
     1
  1
設計
210
0.0
220
0.0
230
1.0
 73
     1
 44
1.0
  0
MTEXT
  5
BA
100
AcDbEntity
  8
0
390
0
 62
     7
100
AcDbMText
 10
154.503675
 20
11.571136
 30
0.0
 40
3.0
 41
13.2
 71
     7
 72
     1
  1
照査
210
0.0
220
0.0
230
1.0
 73
     1
 44
1.0
  0
MTEXT
  5
BB
100
AcDbEntity
  8
0
390
0
 62
     7
100
AcDbMText
 10
145.14435
 20
11.612045
 30
0.0
 40
3.0
 41
13.390909
 71
     7
 72
     1
  1
承認
210
0.0
220
0.0
230
1.0
 73
     1
 44
1.0
  0
MTEXT
  5
BC
100
AcDbEntity
  8
0
390
0
 62
     7
100
AcDbMText
 10
88.203189
 20
11.775682
 30
0.0
 40
2.5
 41
18.054545
 71
     7
 72
     1
  1
{\W0.8;訂正箇所}
210
0.0
220
0.0
230
1.0
 73
     1
 44
1.0
  0
MTEXT
  5
BD
100
AcDbEntity
  8
0
390
0
 62
     7
100
AcDbMText
 10
163.786873
 20
17.236136
 30
0.0
 40
3.0
 41
13.090909
 71
     7
 72
     1
  1
千葉
210
0.0
220
0.0
230
1.0
 73
     1
 44
1.0
  0
MTEXT
  5
BE
100
AcDbEntity
  8
0
390
0
 62
     7
100
AcDbMText
 10
154.517312
 20
17.229318
 30
0.0
 40
3.0
 41
13.418182
 71
     7
 72
     1
  1
佐藤
210
0.0
220
0.0
230
1.0
 73
     1
 44
1.0
  0
MTEXT
  5
BF
100
AcDbEntity
  8
0
390
0
 62
     7
100
AcDbMText
 10
145.178441
 20
17.229318
 30
0.0
 40
3.0
 41
13.418182
 71
     7
 72
     1
  1
佐藤
210
0.0
220
0.0
230
1.0
 73
     1
 44
1.0
  0
POINT
  5
C0
100
AcDbEntity
  8
0
390
0
 62
     7
100
AcDbPoint
 10
172.0
 20
10.0
 30
0.0
  0
INSERT
  5
CA
100
AcDbEntity
  8
0
390
0
100
AcDbBlockReference
  2
AID280
 10
0.0
 20
0.0
 30
0.0
  0
INSERT
  5
D4
100
AcDbEntity
  8
0
390
0
100
AcDbBlockReference
  2
AID285
 10
0.0
 20
0.0
 30
0.0
  0
INSERT
  5
DE
100
AcDbEntity
  8
0
390
0
100
AcDbBlockReference
  2
AID290
 10
0.0
 20
0.0
 30
0.0
  0
INSERT
  5
E8
100
AcDbEntity
  8
0
390
0
100
AcDbBlockReference
  2
AID295
 10
0.0
 20
0.0
 30
0.0
  0
INSERT
  5
F2
100
AcDbEntity
  8
0
390
0
100
AcDbBlockReference
  2
AID300
 10
0.0
 20
0.0
 30
0.0
  0
MTEXT
  5
F3
100
AcDbEntity
  8
0
390
0
 62
     7
100
AcDbMText
 10
210.991677
 20
20.121098
 30
0.0
 40
3.0
 41
34.172727
 71
     7
 72
     1
  1
2012/11/09
210
0.0
220
0.0
230
1.0
 73
     1
 44
1.0
  0
MTEXT
  5
F4
100
AcDbEntity
  8
0
390
0
 62
     7
100
AcDbMText
 10
191.893641
 20
20.118855
 30
0.0
 40
3.0
 41
34.172727
 71
     7
 72
     1
  1
2012/11/09
210
0.0
220
0.0
230
1.0
 73
     1
 44
1.0
  0
MTEXT
  5
F5
100
AcDbEntity
  8
0
390
0
 62
     7
100
AcDbMText
 10
214.984859
 20
12.418182
 30
0.0
 40
4.0
 41
17.454545
 71
     7
 72
     1
  1
千葉
210
0.0
220
0.0
230
1.0
 73
     1
 44
1.0
  0
MTEXT
  5
F6
100
AcDbEntity
  8
0
390
0
 62
     7
100
AcDbMText
 10
195.977732
 20
12.381818
 30
0.0
 40
4.0
 41
17.890909
 71
     7
 72
     1
  1
佐藤
210
0.0
220
0.0
230
1.0
 73
     1
 44
1.0
  0
MTEXT
  5
F7
100
AcDbEntity
  8
0
390
0
 62
     7
100
AcDbMText
 10
176.896141
 20
12.381818
 30
0.0
 40
4.0
 41
17.890909
 71
     7
 72
     1
  1
佐藤
210
0.0
220
0.0
230
1.0
 73
     1
 44
1.0
  0
MTEXT
  5
F8
100
AcDbEntity
  8
0
390
0
 62
     7
100
AcDbMText
 10
172.812051
 20
20.118855
 30
0.0
 40
3.0
 41
34.172727
 71
     7
 72
     1
  1
2012/11/09
210
0.0
220
0.0
230
1.0
 73
     1
 44
1.0
  0
MTEXT
  5
F9
100
AcDbEntity
  8
0
390
0
 62
     7
100
AcDbMText
 10
131.453637
 20
11.584773
 30
0.0
 40
3.0
 41
19.090909
 71
     7
 72
     1
  1
年月日
210
0.0
220
0.0
230
1.0
 73
     1
 44
1.0
  0
MTEXT
  5
FA
100
AcDbEntity
  8
0
390
0
 62
     7
100
AcDbMText
 10
130.144546
 20
17.277045
 30
0.0
 40
3.0
 41
24.545455
 71
     7
 72
     1
  1
'17.11.30
210
0.0
220
0.0
230
1.0
 73
     1
 44
1.0
  0
MTEXT
  5
FB
100
AcDbEntity
  8
0
390
0
 62
     7
100
AcDbMText
 10
106.313369
 20
11.584773
 30
0.0
 40
3.0
 41
27.054545
 71
     7
 72
     1
  1
変更内容
210
0.0
220
0.0
230
1.0
 73
     1
 44
1.0
  0
MTEXT
  5
FC
100
AcDbEntity
  8
0
390
0
 62
     7
100
AcDbMText
 10
101.158824
 20
17.249773
 30
0.0
 40
3.0
 41
48.054545
 71
     7
 72
     1
  1
公差＆寸法変更
210
0.0
220
0.0
230
1.0
 73
     1
 44
1.0
  0
MTEXT
  5
FD
100
AcDbEntity
  8
0
390
0
 62
     7
100
AcDbMText
 10
271.655257
 20
37.344514
 30
0.0
 40
3.0
 41
22.663636
 71
     7
 72
     1
  1
個　　数
210
0.0
220
0.0
230
1.0
 73
     1
 44
1.0
  0
MTEXT
  5
FE
100
AcDbEntity
  8
0
390
0
 62
     7
100
AcDbMText
 10
276.471166
 20
30.865636
 30
0.0
 40
4.0
 41
1.927273
 71
     7
 72
     1
  1
1
210
0.0
220
0.0
230
1.0
 73
     1
 44
1.0
  0
MTEXT
  5
FF
100
AcDbEntity
  8
0
390
0
 62
     7
100
AcDbMText
 10
252.559648
 20
37.344514
 30
0.0
 40
3.0
 41
22.472727
 71
     7
 72
     1
  1
尺　　度
210
0.0
220
0.0
230
1.0
 73
     1
 44
1.0
  0
MTEXT
  5
100
100
AcDbEntity
  8
0
390
0
 62
     7
100
AcDbMText
 10
255.718739
 20
30.874727
 30
0.0
 40
4.0
 41
8.472727
 71
     7
 72
     1
  1
1:1
210
0.0
220
0.0
230
1.0
 73
     1
 44
1.0
  0
INSERT
  5
10F
100
AcDbEntity
  8
0
390
0
100
AcDbBlockReference
  2
AID333
 10
0.0
 20
0.0
 30
0.0
  0
POINT
  5
110
100
AcDbEntity
  8
0
390
0
 62
     7
100
AcDbPoint
 10
287.0
 20
28.480012
 30
0.0
  0
LINE
  5
111
100
AcDbEntity
  8
0
390
0
  6
Continuous
 62
     7
100
AcDbLine
 10
287.0
 20
10.0
 30
0.0
 11
287.0
 21
200.0
 31
0.0
  0
INSERT
  5
124
100
AcDbEntity
  8
0
390
0
100
AcDbBlockReference
  2
AID349
 10
0.0
 20
0.0
 30
0.0
  0
MTEXT
  5
125
100
AcDbEntity
  8
0
390
0
 62
     7
100
AcDbMText
 10
17.263636
 20
41.168764
 30
0.0
 40
2.0
 41
48.4
 71
     7
 72
     1
  1
指示なき長さ寸法公差は
210
0.0
220
0.0
230
1.0
 73
     1
 44
1.0
  0
MTEXT
  5
126
100
AcDbEntity
  8
0
390
0
 62
     7
100
AcDbMText
 10
14.336364
 20
34.386534
 30
0.0
 40
2.0
 41
21.327273
 71
     7
 72
     1
  1
0.5～3以下
210
0.0
220
0.0
230
1.0
 73
     1
 44
1.0
  0
MTEXT
  5
127
100
AcDbEntity
  8
0
390
0
 62
     7
100
AcDbMText
 10
36.75
 20
34.341079
 30
0.0
 40
2.0
 41
8.763636
 71
     7
 72
     1
  1
%%p0.1
210
0.0
220
0.0
230
1.0
 73
     1
 44
1.0
  0
MTEXT
  5
128
100
AcDbEntity
  8
0
390
0
 62
     7
100
AcDbMText
 10
15.136364
 20
30.516577
 30
0.0
 40
2.0
 41
17.981818
 71
     7
 72
     1
  1
3～6以下
210
0.0
220
0.0
230
1.0
 73
     1
 44
1.0
  0
MTEXT
  5
129
100
AcDbEntity
  8
0
390
0
 62
     7
100
AcDbMText
 10
36.75
 20
30.471123
 30
0.0
 40
2.0
 41
8.763636
 71
     7
 72
     1
  1
%%p0.1
210
0.0
220
0.0
230
1.0
 73
     1
 44
1.0
  0
MTEXT
  5
12A
100
AcDbEntity
  8
0
390
0
 62
     7
100
AcDbMText
 10
14.55
 20
26.646621
 30
0.0
 40
2.0
 41
20.290909
 71
     7
 72
     1
  1
6～30以下
210
0.0
220
0.0
230
1.0
 73
     1
 44
1.0
  0
MTEXT
  5
12B
100
AcDbEntity
  8
0
390
0
 62
     7
100
AcDbMText
 10
36.590909
 20
26.601167
 30
0.0
 40
2.0
 41
9.4
 71
     7
 72
     1
  1
%%p0.2
210
0.0
220
0.0
230
1.0
 73
     1
 44
1.0
  0
MTEXT
  5
12C
100
AcDbEntity
  8
0
390
0
 62
     7
100
AcDbMText
 10
13.390909
 20
22.776665
 30
0.0
 40
2.0
 41
24.963636
 71
     7
 72
     1
  1
30～120以下
210
0.0
220
0.0
230
1.0
 73
     1
 44
1.0
  0
MTEXT
  5
12D
100
AcDbEntity
  8
0
390
0
 62
     7
100
AcDbMText
 10
36.590909
 20
22.735756
 30
0.0
 40
2.0
 41
9.4
 71
     7
 72
     1
  1
%%p0.3
210
0.0
220
0.0
230
1.0
 73
     1
 44
1.0
  0
MTEXT
  5
12E
100
AcDbEntity
  8
0
390
0
 62
     7
100
AcDbMText
 10
12.745455
 20
18.906709
 30
0.0
 40
2.0
 41
27.036364
 71
     7
 72
     1
  1
120～400以下
210
0.0
220
0.0
230
1.0
 73
     1
 44
1.0
  0
MTEXT
  5
12F
100
AcDbEntity
  8
0
390
0
 62
     7
100
AcDbMText
 10
36.590909
 20
18.8658
 30
0.0
 40
2.0
 41
9.4
 71
     7
 72
     1
  1
%%p0.5
210
0.0
220
0.0
230
1.0
 73
     1
 44
1.0
  0
MTEXT
  5
130
100
AcDbEntity
  8
0
390
0
 62
     7
100
AcDbMText
 10
12.245455
 20
15.036752
 30
0.0
 40
2.0
 41
29.690909
 71
     7
 72
     1
  1
400～1000以下
210
0.0
220
0.0
230
1.0
 73
     1
 44
1.0
  0
MTEXT
  5
131
100
AcDbEntity
  8
0
390
0
 62
     7
100
AcDbMText
 10
36.586364
 20
14.995843
 30
0.0
 40
2.0
 41
9.418182
 71
     7
 72
     1
  1
%%p0.8
210
0.0
220
0.0
230
1.0
 73
     1
 44
1.0
  0
MTEXT
  5
132
100
AcDbEntity
  8
0
390
0
 62
     7
100
AcDbMText
 10
11.581818
 20
11.166796
 30
0.0
 40
2.0
 41
31.690909
 71
     7
 72
     1
  1
1000～2000以下
210
0.0
220
0.0
230
1.0
 73
     1
 44
1.0
  0
MTEXT
  5
133
100
AcDbEntity
  8
0
390
0
 62
     7
100
AcDbMText
 10
36.590909
 20
11.116796
 30
0.0
 40
2.0
 41
9.4
 71
     7
 72
     1
  1
%%p1.2
210
0.0
220
0.0
230
1.0
 73
     1
 44
1.0
  0
MTEXT
  5
134
100
AcDbEntity
  8
0
390
0
 62
     7
100
AcDbMText
 10
53.663636
 20
41.144545
 30
0.0
 40
2.0
 41
58.8
 71
     7
 72
     1
  1
指示なき角度寸法は下記一般
210
0.0
220
0.0
230
1.0
 73
     1
 44
1.0
  0
MTEXT
  5
135
100
AcDbEntity
  8
0
390
0
 62
     7
100
AcDbMText
 10
55.236364
 20
34.386534
 30
0.0
 40
2.0
 41
13.072727
 71
     7
 72
     1
  1
10以下
210
0.0
220
0.0
230
1.0
 73
     1
 44
1.0
  0
MTEXT
  5
136
100
AcDbEntity
  8
0
390
0
 62
     7
100
AcDbMText
 10
76.0
 20
34.209261
 30
0.0
 40
2.0
 41
7.763636
 71
     7
 72
     1
  1
%%p1%%d
210
0.0
220
0.0
230
1.0
 73
     1
 44
1.0
  0
MTEXT
  5
137
100
AcDbEntity
  8
0
390
0
 62
     7
100
AcDbMText
 10
51.745455
 20
30.44385
 30
0.0
 40
2.0
 41
27.036364
 71
     7
 72
     1
  1
10超～50以下
210
0.0
220
0.0
230
1.0
 73
     1
 44
1.0
  0
MTEXT
  5
138
100
AcDbEntity
  8
0
390
0
 62
     7
100
AcDbMText
 10
75.422727
 20
30.352941
 30
0.0
 40
2.0
 41
10.072727
 71
     7
 72
     1
  1
%%p30′
210
0.0
220
0.0
230
1.0
 73
     1
 44
1.0
  0
MTEXT
  5
139
100
AcDbEntity
  8
0
390
0
 62
     7
100
AcDbMText
 10
51.227273
 20
26.573894
 30
0.0
 40
2.0
 41
29.618182
 71
     7
 72
     1
  1
50超～120以下
210
0.0
220
0.0
230
1.0
 73
     1
 44
1.0
  0
MTEXT
  5
13A
100
AcDbEntity
  8
0
390
0
 62
     7
100
AcDbMText
 10
75.422727
 20
26.478439
 30
0.0
 40
2.0
 41
10.072727
 71
     7
 72
     1
  1
%%p20′
210
0.0
220
0.0
230
1.0
 73
     1
 44
1.0
  0
MTEXT
  5
13B
100
AcDbEntity
  8
0
390
0
 62
     7
100
AcDbMText
 10
50.581818
 20
22.703938
 30
0.0
 40
2.0
 41
31.690909
 71
     7
 72
     1
  1
120超～400以下
210
0.0
220
0.0
230
1.0
 73
     1
 44
1.0
  0
MTEXT
  5
13C
100
AcDbEntity
  8
0
390
0
 62
     7
100
AcDbMText
 10
75.422727
 20
22.608483
 30
0.0
 40
2.0
 41
10.072727
 71
     7
 72
     1
  1
%%p10′
210
0.0
220
0.0
230
1.0
 73
     1
 44
1.0
  0
MTEXT
  5
13D
100
AcDbEntity
  8
0
390
0
 62
     7
100
AcDbMText
 10
55.854545
 20
18.833981
 30
0.0
 40
2.0
 41
11.254545
 71
     7
 72
     1
  1
400超
210
0.0
220
0.0
230
1.0
 73
     1
 44
1.0
  0
MTEXT
  5
13E
100
AcDbEntity
  8
0
390
0
 62
     7
100
AcDbMText
 10
76.004545
 20
18.743072
 30
0.0
 40
2.0
 41
7.745455
 71
     7
 72
     1
  1
%%p5′
210
0.0
220
0.0
230
1.0
 73
     1
 44
1.0
  0
MTEXT
  5
13F
100
AcDbEntity
  8
0
390
0
 62
     7
100
AcDbMText
 10
19.418182
 20
38.630756
 30
0.0
 40
2.0
 41
39.636364
 71
     7
 72
     1
  1
下記一般公差による
210
0.0
220
0.0
230
1.0
 73
     1
 44
1.0
  0
MTEXT
  5
140
100
AcDbEntity
  8
0
390
0
 62
     7
100
AcDbMText
 10
51.854545
 20
38.630756
 30
0.0
 40
2.0
 41
66.072727
 71
     7
 72
     1
  1
公差による（対象角度の短片長さ）
210
0.0
220
0.0
230
1.0
 73
     1
 44
1.0
  0
POINT
  5
141
100
AcDbEntity
  8
0
390
0
 62
     7
100
AcDbPoint
 10
88.0
 20
10.0
 30
0.0
  0
POINT
  5
142
100
AcDbEntity
  8
0
390
0
 62
     7
100
AcDbPoint
 10
49.0
 20
13.869956
 30
0.0
  0
POINT
  5
143
100
AcDbEntity
  8
0
390
0
 62
     7
100
AcDbPoint
 10
68.5
 20
17.739912
 30
0.0
  0
LINE
  5
144
100
AcDbEntity
  8
0
390
0
  6
Continuous
 62
     7
100
AcDbLine
 10
49.0
 20
13.869956
 30
0.0
 11
68.5
 21
17.739912
 31
0.0
  0
POINT
  5
145
100
AcDbEntity
  8
0
390
0
 62
     7
100
AcDbPoint
 10
68.5
 20
13.869956
 30
0.0
  0
POINT
  5
146
100
AcDbEntity
  8
0
390
0
 62
     7
100
AcDbPoint
 10
88.0
 20
17.739912
 30
0.0
  0
LINE
  5
147
100
AcDbEntity
  8
0
390
0
  6
Continuous
 62
     7
100
AcDbLine
 10
68.5
 20
13.869956
 30
0.0
 11
88.0
 21
17.739912
 31
0.0
  0
POINT
  5
148
100
AcDbEntity
  8
0
390
0
 62
     7
100
AcDbPoint
 10
49.0
 20
10.0
 30
0.0
  0
LINE
  5
149
100
AcDbEntity
  8
0
390
0
  6
Continuous
 62
     7
100
AcDbLine
 10
49.0
 20
10.0
 30
0.0
 11
68.5
 21
13.869956
 31
0.0
  0
POINT
  5
14A
100
AcDbEntity
  8
0
390
0
 62
     7
100
AcDbPoint
 10
68.5
 20
10.0
 30
0.0
  0
POINT
  5
14B
100
AcDbEntity
  8
0
390
0
 62
     7
100
AcDbPoint
 10
88.0
 20
13.869956
 30
0.0
  0
LINE
  5
14C
100
AcDbEntity
  8
0
390
0
  6
Continuous
 62
     7
100
AcDbLine
 10
68.5
 20
10.0
 30
0.0
 11
88.0
 21
13.869956
 31
0.0
  0
POINT
  5
14D
100
AcDbEntity
  8
0
390
0
 62
     7
100
AcDbPoint
 10
191.06501
 20
36.542169
 30
0.0
  0
POINT
  5
14E
100
AcDbEntity
  8
0
390
0
 62
     7
100
AcDbPoint
 10
210.163182
 20
28.480012
 30
0.0
  0
POINT
  5
14F
100
AcDbEntity
  8
0
390
0
 62
     7
100
AcDbPoint
 10
172.0
 20
36.542169
 30
0.0
  0
POINT
  5
150
100
AcDbEntity
  8
0
390
0
 62
     7
100
AcDbPoint
 10
191.06501
 20
28.480012
 30
0.0
  0
LINE
  5
151
100
AcDbEntity
  8
0
390
0
  6
Continuous
 62
     7
100
AcDbLine
 10
172.0
 20
36.542169
 30
0.0
 11
191.06501
 21
28.480012
 31
0.0
  0
POINT
  5
152
100
AcDbEntity
  8
0
390
0
 62
     7
100
AcDbPoint
 10
210.163182
 20
36.542169
 30
0.0
  0
POINT
  5
153
100
AcDbEntity
  8
0
390
0
 62
     7
100
AcDbPoint
 10
229.261081
 20
28.480012
 30
0.0
  0
LINE
  5
154
100
AcDbEntity
  8
0
390
0
  6
Continuous
 62
     7
100
AcDbLine
 10
210.163182
 20
36.542169
 30
0.0
 11
229.261081
 21
28.480012
 31
0.0
  0
MTEXT
  5
155
100
AcDbEntity
  8
0
390
0
 62
     7
100
AcDbMText
 10
173.730402
 20
47.822089
 30
0.0
 40
3.0
 41
26.318182
 71
     7
 72
     1
  1
半製品名
210
0.0
220
0.0
230
1.0
 73
     1
 44
1.0
  0
MTEXT
  5
156
100
AcDbEntity
  8
0
390
0
 62
     7
100
AcDbMText
 10
175.489493
 20
42.19136
 30
0.0
 40
3.0
 41
19.390909
 71
     7
 72
     1
  1
部品名
210
0.0
220
0.0
230
1.0
 73
     1
 44
1.0
  0
MTEXT
  5
157
100
AcDbEntity
  8
0
390
0
 62
     7
100
AcDbMText
 10
229.725328
 20
47.822089
 30
0.0
 40
3.0
 41
34.090909
 71
     7
 72
     1
  1
半製品番号
210
0.0
220
0.0
230
1.0
 73
     1
 44
1.0
  0
MTEXT
  5
158
100
AcDbEntity
  8
0
390
0
 62
     7
100
AcDbMText
 10
231.484419
 20
42.198178
 30
0.0
 40
3.0
 41
27.163636
 71
     7
 72
     1
  1
部品番号
210
0.0
220
0.0
230
1.0
 73
     1
 44
1.0
  0
POINT
  5
159
100
AcDbEntity
  8
0
390
0
 62
     7
100
AcDbPoint
 10
189.056259
 20
51.856682
 30
0.0
  0
POINT
  5
15A
100
AcDbEntity
  8
0
390
0
 62
     7
100
AcDbPoint
 10
229.258465
 20
46.249498
 30
0.0
  0
LINE
  5
15B
100
AcDbEntity
  8
0
390
0
  6
Continuous
 62
     7
100
AcDbLine
 10
189.056259
 20
51.856682
 30
0.0
 11
229.258465
 21
46.249498
 31
0.0
  0
POINT
  5
15C
100
AcDbEntity
  8
0
390
0
 62
     7
100
AcDbPoint
 10
229.261081
 20
40.642313
 30
0.0
  0
POINT
  5
15D
100
AcDbEntity
  8
0
390
0
 62
     7
100
AcDbPoint
 10
189.056259
 20
46.249498
 30
0.0
  0
LINE
  5
15E
100
AcDbEntity
  8
0
390
0
  6
Continuous
 62
     7
100
AcDbLine
 10
229.261081
 20
40.642313
 30
0.0
 11
189.056259
 21
46.249498
 31
0.0
  0
POINT
  5
15F
100
AcDbEntity
  8
0
390
0
 62
     7
100
AcDbPoint
 10
247.674009
 20
51.856682
 30
0.0
  0
POINT
  5
160
100
AcDbEntity
  8
0
390
0
 62
     7
100
AcDbPoint
 10
287.0
 20
46.249498
 30
0.0
  0
LINE
  5
161
100
AcDbEntity
  8
0
390
0
  6
Continuous
 62
     7
100
AcDbLine
 10
247.674009
 20
51.856682
 30
0.0
 11
287.0
 21
46.249498
 31
0.0
  0
POINT
  5
162
100
AcDbEntity
  8
0
390
0
 62
     7
100
AcDbPoint
 10
287.0
 20
40.642313
 30
0.0
  0
POINT
  5
163
100
AcDbEntity
  8
0
390
0
 62
     7
100
AcDbPoint
 10
247.674009
 20
46.249498
 30
0.0
  0
LINE
  5
164
100
AcDbEntity
  8
0
390
0
  6
Continuous
 62
     7
100
AcDbLine
 10
287.0
 20
40.642313
 30
0.0
 11
247.674009
 21
46.249498
 31
0.0
  0
LINE
  5
165
100
AcDbEntity
  8
0
390
0
  6
Continuous
 62
     7
100
AcDbLine
 10
191.06501
 20
36.542169
 30
0.0
 11
210.163182
 21
28.480012
 31
0.0
  0
MTEXT
  5
167
100
AcDbEntity
  8
0
390
0
 62
     7
100
AcDbMText
 10
247.437577
 20
14.514029
 30
0.0
 40
2.8
 41
24.133455
 71
     7
 72
     1
  1
{\W0.95;株式会社}
  7
TopStyle2
210
0.0
220
0.0
230
1.0
 73
     1
 44
1.0
  0
MTEXT
  5
168
100
AcDbEntity
  8
0
390
0
 62
     7
100
AcDbMText
 10
260.102025
 20
13.946757
 30
0.0
 40
3.8
 41
49.106768
 71
     7
 72
     1
  1
{\W0.95;プロスパイン}
  7
TopStyle2
210
0.0
220
0.0
230
1.0
 73
     1
 44
1.0
  0
INSERT
  5
2D1
100
AcDbEntity
  8
0
390
0
100
AcDbBlockReference
  2
AID514
 10
0.0
 20
0.0
 30
0.0
  0
LINE
  5
2D2
100
AcDbEntity
  8
0
390
0
  6
Continuous
 62
     7
100
AcDbLine
 10
94.418937
 20
181.831299
 30
0.0
 11
94.418937
 21
146.831299
 31
0.0
  0
LINE
  5
2D3
100
AcDbEntity
  8
0
390
0
  6
Continuous
 62
     7
100
AcDbLine
 10
116.418937
 20
181.831299
 30
0.0
 11
116.418937
 21
146.831299
 31
0.0
  0
ARC
  5
2D5
100
AcDbEntity
  8
0
390
0
  6
DOT
 62
     2
100
AcDbCircle
 10
86.418937
 20
164.331299
 30
0.0
 40
8.0
210
0.0
220
0.0
230
1.0
100
AcDbArc
 50
0.0
 51
61.113049
  0
ARC
  5
2D6
100
AcDbEntity
  8
0
390
0
  6
DOT
 62
     2
100
AcDbCircle
 10
86.418937
 20
164.331299
 30
0.0
 40
8.0
210
0.0
220
0.0
230
1.0
100
AcDbArc
 50
61.113049
 51
62.632355
  0
ARC
  5
2D7
100
AcDbEntity
  8
0
390
0
  6
DOT
 62
     2
100
AcDbCircle
 10
86.418937
 20
164.331299
 30
0.0
 40
8.0
210
0.0
220
0.0
230
1.0
100
AcDbArc
 50
62.632355
 51
79.05943
  0
ARC
  5
2D8
100
AcDbEntity
  8
0
390
0
  6
DOT
 62
     2
100
AcDbCircle
 10
86.418937
 20
164.331299
 30
0.0
 40
8.0
210
0.0
220
0.0
230
1.0
100
AcDbArc
 50
79.05943
 51
83.54055
  0
ARC
  5
2D9
100
AcDbEntity
  8
0
390
0
  6
DOT
 62
     2
100
AcDbCircle
 10
86.418937
 20
164.331299
 30
0.0
 40
8.0
210
0.0
220
0.0
230
1.0
100
AcDbArc
 50
83.54055
 51
84.303246
  0
ARC
  5
2DA
100
AcDbEntity
  8
0
390
0
  6
DOT
 62
     2
100
AcDbCircle
 10
86.418937
 20
164.331299
 30
0.0
 40
8.0
210
0.0
220
0.0
230
1.0
100
AcDbArc
 50
84.303246
 51
86.416642
  0
ARC
  5
2DB
100
AcDbEntity
  8
0
390
0
  6
DOT
 62
     2
100
AcDbCircle
 10
86.418937
 20
164.331299
 30
0.0
 40
8.0
210
0.0
220
0.0
230
1.0
100
AcDbArc
 50
86.416642
 51
104.477512
  0
ARC
  5
2DC
100
AcDbEntity
  8
0
390
0
  6
DOT
 62
     2
100
AcDbCircle
 10
86.418937
 20
164.331299
 30
0.0
 40
30.0
210
0.0
220
0.0
230
1.0
100
AcDbArc
 50
0.0
 51
27.818139
  0
ARC
  5
2DD
100
AcDbEntity
  8
0
390
0
  6
DOT
 62
     2
100
AcDbCircle
 10
86.418937
 20
164.331299
 30
0.0
 40
30.0
210
0.0
220
0.0
230
1.0
100
AcDbArc
 50
27.818139
 51
35.685335
  0
ARC
  5
2DE
100
AcDbEntity
  8
0
390
0
  6
Continuous
 62
     7
100
AcDbCircle
 10
86.418937
 20
164.331299
 30
0.0
 40
30.0
210
0.0
220
0.0
230
1.0
100
AcDbArc
 50
35.685335
 51
324.314665
  0
ARC
  5
2DF
100
AcDbEntity
  8
0
390
0
  6
DOT
 62
     2
100
AcDbCircle
 10
86.418937
 20
164.331299
 30
0.0
 40
30.0
210
0.0
220
0.0
230
1.0
100
AcDbArc
 50
324.314665
 51
332.181861
  0
ARC
  5
2E0
100
AcDbEntity
  8
0
390
0
  6
DOT
 62
     2
100
AcDbCircle
 10
86.418937
 20
164.331299
 30
0.0
 40
30.0
210
0.0
220
0.0
230
1.0
100
AcDbArc
 50
332.181861
 51
360.0
  0
LINE
  5
2E1
100
AcDbEntity
  8
0
390
0
  6
Continuous
 62
     7
100
AcDbLine
 10
116.418937
 20
181.831299
 30
0.0
 11
94.418937
 21
181.831299
 31
0.0
  0
LINE
  5
2E2
100
AcDbEntity
  8
0
390
0
  6
Continuous
 62
     7
100
AcDbLine
 10
94.418937
 20
146.831299
 30
0.0
 11
116.418937
 21
146.831299
 31
0.0
  0
LINE
  5
2E3
100
AcDbEntity
  8
0
390
0
  6
CENTER
 62
     1
100
AcDbLine
 10
86.418937
 20
132.331299
 30
0.0
 11
86.418937
 21
196.331299
 31
0.0
  0
INSERT
  5
2F8
100
AcDbEntity
  8
0
390
0
100
AcDbBlockReference
  2
AID1266
 10
0.0
 20
0.0
 30
0.0
  0
LINE
  5
2F9
100
AcDbEntity
  8
0
390
0
  6
Continuous
 62
     7
100
AcDbLine
 10
94.418937
 20
115.565201
 30
0.0
 11
116.418937
 21
115.565201
 31
0.0
  0
LINE
  5
2FA
100
AcDbEntity
  8
0
390
0
  6
Continuous
 62
     7
100
AcDbLine
 10
116.418937
 20
80.565201
 30
0.0
 11
94.418937
 21
80.565201
 31
0.0
  0
LINE
  5
2FB
100
AcDbEntity
  8
0
390
0
  6
Continuous
 62
     7
100
AcDbLine
 10
94.418937
 20
112.065201
 30
0.0
 11
116.418937
 21
112.065201
 31
0.0
  0
LINE
  5
2FC
100
AcDbEntity
  8
0
390
0
  6
Continuous
 62
     7
100
AcDbLine
 10
116.418937
 20
115.565201
 30
0.0
 11
116.418937
 21
112.065201
 31
0.0
  0
LINE
  5
2FD
100
AcDbEntity
  8
0
390
0
  6
Continuous
 62
     7
100
AcDbLine
 10
116.418937
 20
84.065201
 30
0.0
 11
94.418937
 21
84.065201
 31
0.0
  0
LINE
  5
2FE
100
AcDbEntity
  8
0
390
0
  6
Continuous
 62
     7
100
AcDbLine
 10
116.418937
 20
84.065201
 30
0.0
 11
116.418937
 21
80.565201
 31
0.0
  0
LINE
  5
2FF
100
AcDbEntity
  8
0
390
0
  6
Continuous
 62
     7
100
AcDbLine
 10
56.418937
 20
74.565201
 30
0.0
 11
56.418937
 21
78.565201
 31
0.0
  0
LINE
  5
300
100
AcDbEntity
  8
0
390
0
  6
Continuous
 62
     7
100
AcDbLine
 10
116.418937
 20
78.565201
 30
0.0
 11
116.418937
 21
74.565201
 31
0.0
  0
LINE
  5
301
100
AcDbEntity
  8
0
390
0
  6
Continuous
 62
     7
100
AcDbLine
 10
94.418937
 20
78.565201
 30
0.0
 11
94.418937
 21
74.565201
 31
0.0
  0
LINE
  5
302
100
AcDbEntity
  8
0
390
0
  6
Continuous
 62
     7
100
AcDbLine
 10
94.418937
 20
74.565201
 30
0.0
 11
116.418937
 21
74.565201
 31
0.0
  0
LINE
  5
303
100
AcDbEntity
  8
0
390
0
  6
Continuous
 62
     7
100
AcDbLine
 10
94.418937
 20
78.565201
 30
0.0
 11
116.418937
 21
78.565201
 31
0.0
  0
LINE
  5
304
100
AcDbEntity
  8
0
390
0
  6
Continuous
 62
     7
100
AcDbLine
 10
78.418937
 20
74.565201
 30
0.0
 11
78.418937
 21
78.565201
 31
0.0
  0
LINE
  5
305
100
AcDbEntity
  8
0
390
0
  6
Continuous
 62
     7
100
AcDbLine
 10
56.418937
 20
74.565201
 30
0.0
 11
78.418937
 21
74.565201
 31
0.0
  0
LINE
  5
306
100
AcDbEntity
  8
0
390
0
  6
Continuous
 62
     7
100
AcDbLine
 10
56.418937
 20
78.565201
 30
0.0
 11
78.418937
 21
78.565201
 31
0.0
  0
LINE
  5
307
100
AcDbEntity
  8
0
390
0
  6
Continuous
 62
     7
100
AcDbLine
 10
78.418937
 20
78.565201
 30
0.0
 11
94.418937
 21
78.565201
 31
0.0
  0
HATCH
  5
308
100
AcDbEntity
  8
0
390
0
 62
     3
100
AcDbHatch
 10
56.418936994071423
 20
74.565200666476613
 30
0.0
210
0.0
220
0.0
230
1.0
  2
ANSI37
 70
     0
 71
     0
 91
        2
 92
        1
 93
        4
 72
     1
 10
56.418936994071423
 20
74.565200666476613
 11
78.41893699407143
 21
74.565200666476613
 72
     1
 10
78.41893699407143
 20
74.565200666476613
 11
78.41893699407143
 21
78.565200666476613
 72
     1
 10
78.41893699407143
 20
78.565200666476613
 11
56.418936994071423
 21
78.565200666476613
 72
     1
 10
56.418936994071423
 20
78.565200666476613
 11
56.418936994071423
 21
74.565200666476613
 97
        0
 92
        1
 93
        4
 72
     1
 10
94.418936994071416
 20
74.565200666476613
 11
116.41893699407143
 21
74.565200666476613
 72
     1
 10
116.41893699407143
 20
74.565200666476613
 11
116.41893699407143
 21
78.565200666476613
 72
     1
 10
116.41893699407143
 20
78.565200666476613
 11
94.418936994071416
 21
78.565200666476613
 72
     1
 10
94.418936994071416
 20
78.565200666476613
 11
94.418936994071416
 21
74.565200666476613
 97
        0
 75
     0
 76
     1
 52
0.0
 41
16.0
 77
     0
 78
     2
 53
45.0
 43
0.0
 44
0.0
 45
-1.4142135623730949
 46
1.4142135623730951
 79
     0
 53
135.0
 43
0.0
 44
0.0
 45
-1.4142135623730951
 46
-1.4142135623730949
 79
     0
 98
        1
 10
0.0
 20
0.0
  0
HATCH
  5
309
100
AcDbEntity
  8
0
390
0
 62
     3
100
AcDbHatch
 10
101.41893699407143
 20
69.565200666476613
 30
0.0
210
0.0
220
0.0
230
1.0
  2
ANSI31
 70
     0
 71
     0
 91
        3
 92
        1
 93
        6
 72
     1
 10
101.41893699407143
 20
69.565200666476613
 11
116.41893699407143
 21
69.565200666476613
 72
     1
 10
116.41893699407143
 20
69.565200666476613
 11
116.41893699407143
 21
74.565200666476613
 72
     1
 10
116.41893699407143
 20
74.565200666476613
 11
93.918936994071416
 21
74.565200666476613
 72
     1
 10
93.918936994071416
 20
74.565200666476613
 11
93.918936994071416
 21
59.565200666476606
 72
     1
 10
93.918936994071416
 20
59.565200666476606
 11
101.41893699407143
 21
59.565200666476606
 72
     1
 10
101.41893699407143
 20
59.565200666476606
 11
101.41893699407143
 21
69.565200666476613
 97
        0
 92
        1
 93
        6
 72
     1
 10
56.418936994071423
 20
69.565200666476613
 11
71.41893699407143
 21
69.565200666476613
 72
     1
 10
71.41893699407143
 20
69.565200666476613
 11
71.41893699407143
 21
66.665200666476608
 72
     1
 10
71.41893699407143
 20
66.665200666476608
 11
78.91893699407143
 21
66.665200666476608
 72
     1
 10
78.91893699407143
 20
66.665200666476608
 11
78.918936994071416
 21
74.565200666476613
 72
     1
 10
78.918936994071416
 20
74.565200666476613
 11
56.418936994071423
 21
74.565200666476613
 72
     1
 10
56.418936994071423
 20
74.565200666476613
 11
56.418936994071423
 21
69.565200666476613
 97
        0
 92
        1
 93
        4
 72
     1
 10
71.41893699407143
 20
62.465200666476612
 11
71.41893699407143
 21
59.565200666476606
 72
     1
 10
71.41893699407143
 20
59.565200666476606
 11
78.91893699407143
 21
59.565200666471156
 72
     1
 10
78.91893699407143
 20
59.565200666471156
 11
78.918936994071416
 21
62.465200666476612
 72
     1
 10
78.918936994071416
 20
62.465200666476612
 11
71.41893699407143
 21
62.465200666476612
 97
        0
 75
     0
 76
     1
 52
0.0
 41
18.75
 77
     0
 78
     1
 53
45.0
 43
0.0
 44
0.0
 45
-1.6572815184060912
 46
1.6572815184060914
 79
     0
 98
        1
 10
0.0
 20
0.0
  0
HATCH
  5
30A
100
AcDbEntity
  8
0
390
0
 62
     3
100
AcDbHatch
 10
84.418936994071416
 20
112.16520066647662
 30
0.0
210
0.0
220
0.0
230
1.0
  2
ANSI31
 70
     0
 71
     0
 91
        3
 92
        1
 93
        4
 72
     1
 10
84.418936994071416
 20
112.16520066647662
 11
84.418936994071416
 21
105.56520066647663
 72
     1
 10
84.418936994071416
 20
105.56520066647663
 11
87.318936994071422
 21
105.56520066647663
 72
     1
 10
87.318936994071422
 20
105.56520066647663
 11
87.318936994071422
 21
112.16520066647662
 72
     1
 10
87.318936994071422
 20
112.16520066647662
 11
84.418936994071416
 21
112.16520066647662
 97
        0
 92
        1
 93
        6
 72
     1
 10
91.518936994071424
 20
105.56520066647663
 11
116.41893699407143
 21
105.56520066647663
 72
     1
 10
116.41893699407143
 20
105.56520066647663
 11
116.41893699407143
 21
112.06520066647661
 72
     1
 10
116.41893699407143
 20
112.06520066647661
 11
94.418936994071416
 21
112.06520066647661
 72
     1
 10
94.418936994071416
 20
112.06520066647661
 11
94.418936994071416
 21
112.16520066647662
 72
     1
 10
94.418936994071416
 20
112.16520066647662
 11
91.518936994071424
 21
112.16520066647662
 72
     1
 10
91.518936994071424
 20
112.16520066647662
 11
91.518936994071424
 21
105.56520066647663
 97
        0
 92
        1
 93
        6
 72
     1
 10
116.41893699407143
 20
90.565200666476613
 11
84.418936994071416
 21
90.565200666476613
 72
     1
 10
84.418936994071416
 20
90.565200666476613
 11
84.418936994071416
 21
83.965200666476619
 72
     1
 10
84.418936994071416
 20
83.965200666476619
 11
94.418936994071416
 21
83.965200666476619
 72
     1
 10
94.418936994071416
 20
83.965200666476619
 11
94.418936994071416
 21
84.065200666476613
 72
     1
 10
94.418936994071416
 20
84.065200666476613
 11
116.41893699407143
 21
84.065200666476613
 72
     1
 10
116.41893699407143
 20
84.065200666476613
 11
116.41893699407143
 21
90.565200666476613
 97
        0
 75
     0
 76
     1
 52
0.0
 41
15.05
 77
     0
 78
     1
 53
45.0
 43
0.0
 44
0.0
 45
-1.3302446321071926
 46
1.3302446321071928
 79
     0
 98
        1
 10
0.0
 20
0.0
  0
HATCH
  5
30B
100
AcDbEntity
  8
0
390
0
 62
     3
100
AcDbHatch
 10
94.418936994071416
 20
115.56520066647661
 30
0.0
210
0.0
220
0.0
230
1.0
  2
ANSI37
 70
     0
 71
     0
 91
        2
 92
        1
 93
        4
 72
     1
 10
94.418936994071416
 20
115.56520066647661
 11
94.418936994071416
 21
112.06520066647661
 72
     1
 10
94.418936994071416
 20
112.06520066647661
 11
116.41893699407143
 21
112.06520066647661
 72
     1
 10
116.41893699407143
 20
112.06520066647661
 11
116.41893699407143
 21
115.56520066647661
 72
     1
 10
116.41893699407143
 20
115.56520066647661
 11
94.418936994071416
 21
115.56520066647661
 97
        0
 92
        1
 93
        4
 72
     1
 10
94.418936994071416
 20
84.065200666476613
 11
94.418936994071416
 21
80.565200666476613
 72
     1
 10
94.418936994071416
 20
80.565200666476613
 11
116.41893699407143
 21
80.565200666476613
 72
     1
 10
116.41893699407143
 20
80.565200666476613
 11
116.41893699407143
 21
84.065200666476613
 72
     1
 10
116.41893699407143
 20
84.065200666476613
 11
94.418936994071416
 21
84.065200666476613
 97
        0
 75
     0
 76
     1
 52
0.0
 41
14.25
 77
     0
 78
     2
 53
45.0
 43
0.0
 44
0.0
 45
-1.2595339539885377
 46
1.259533953988538
 79
     0
 53
135.0
 43
0.0
 44
0.0
 45
-1.259533953988538
 46
-1.2595339539885377
 79
     0
 98
        1
 10
0.0
 20
0.0
  0
HATCH
  5
30C
100
AcDbEntity
  8
0
390
0
 62
     3
100
AcDbHatch
 10
89.41893699407143
 20
105.79630118212415
 30
0.0
210
0.0
220
0.0
230
1.0
  2
ANSI31
 70
     0
 71
     0
 91
        1
 92
        1
 93
       11
 72
     1
 10
89.41893699407143
 20
105.79630118212415
 11
90.66893699407143
 21
105.07375782912416
 72
     1
 10
90.66893699407143
 20
105.07375782912416
 11
91.91893699407143
 21
106.32375782912416
 72
     1
 10
91.91893699407143
 20
106.32375782912416
 11
91.91893699407143
 21
110.44875782912416
 72
     1
 10
91.91893699407143
 20
110.44875782912416
 11
90.66893699407143
 21
111.07375782912416
 72
     1
 10
90.66893699407143
 20
111.07375782912416
 11
90.66893699407143
 21
108.07375782912416
 72
     1
 10
90.66893699407143
 20
108.07375782912416
 11
88.16893699407143
 21
108.07375782912416
 72
     1
 10
88.16893699407143
 20
108.07375782912416
 11
88.16893699407143
 21
111.07375782912416
 72
     1
 10
88.16893699407143
 20
111.07375782912416
 11
86.91893699407143
 21
110.44875782912416
 72
     1
 10
86.91893699407143
 20
110.44875782912416
 11
86.91893699407143
 21
106.32375782912416
 72
     1
 10
86.91893699407143
 20
106.32375782912416
 11
88.16893699407143
 21
105.07375782912416
 72
     1
 10
88.16893699407143
 20
105.07375782912416
 11
89.41893699407143
 21
105.79630118212415
 97
        0
 75
     0
 76
     1
 52
0.0
 41
2.75
 77
     0
 78
     1
 53
45.0
 43
0.0
 44
0.0
 45
-0.2430679560328759
 46
0.243067956032876
 79
     0
 98
        1
 10
0.0
 20
0.0
  0
INSERT
  5
311
100
AcDbEntity
  8
0
390
0
100
AcDbBlockReference
  2
AID1326
 10
0.0
 20
0.0
 30
0.0
  0
CIRCLE
  5
312
100
AcDbEntity
  8
0
390
0
  6
Continuous
 62
     7
100
AcDbCircle
 10
168.314432
 20
164.331299
 30
0.0
 40
17.5
210
0.0
220
0.0
230
1.0
  0
LINE
  5
313
100
AcDbEntity
  8
0
390
0
  6
Continuous
 62
     7
100
AcDbLine
 10
187.814432
 20
134.331299
 30
0.0
 11
187.814432
 21
164.331299
 31
0.0
  0
LINE
  5
314
100
AcDbEntity
  8
0
390
0
  6
Continuous
 62
     7
100
AcDbLine
 10
191.814432
 20
134.331299
 30
0.0
 11
191.814432
 21
164.331299
 31
0.0
  0
LINE
  5
315
100
AcDbEntity
  8
0
390
0
  6
Continuous
 62
     7
100
AcDbLine
 10
187.814432
 20
164.331299
 30
0.0
 11
187.814432
 21
194.331299
 31
0.0
  0
LINE
  5
316
100
AcDbEntity
  8
0
390
0
  6
Continuous
 62
     7
100
AcDbLine
 10
191.814432
 20
164.331299
 30
0.0
 11
191.814432
 21
194.331299
 31
0.0
  0
LINE
  5
317
100
AcDbEntity
  8
0
390
0
  6
Continuous
 62
     7
100
AcDbLine
 10
187.814432
 20
134.331299
 30
0.0
 11
191.814432
 21
134.331299
 31
0.0
  0
LINE
  5
318
100
AcDbEntity
  8
0
390
0
  6
Continuous
 62
     7
100
AcDbLine
 10
191.814432
 20
194.331299
 30
0.0
 11
187.814432
 21
194.331299
 31
0.0
  0
LINE
  5
319
100
AcDbEntity
  8
0
390
0
  6
DOT
 62
     2
100
AcDbLine
 10
187.814432
 20
156.331299
 30
0.0
 11
191.814432
 21
156.331299
 31
0.0
  0
LINE
  5
31A
100
AcDbEntity
  8
0
390
0
  6
DOT
 62
     2
100
AcDbLine
 10
191.814432
 20
172.331299
 30
0.0
 11
187.814432
 21
172.331299
 31
0.0
  0
LINE
  5
31B
100
AcDbEntity
  8
0
390
0
  6
CENTER
 62
     1
100
AcDbLine
 10
148.814432
 20
164.331299
 30
0.0
 11
187.814432
 21
164.331299
 31
0.0
  0
LINE
  5
31C
100
AcDbEntity
  8
0
390
0
  6
CENTER
 62
     1
100
AcDbLine
 10
168.314432
 20
144.831299
 30
0.0
 11
168.314432
 21
183.831299
 31
0.0
  0
LINE
  5
31D
100
AcDbEntity
  8
0
390
0
  6
CENTER
 62
     1
100
AcDbLine
 10
183.18632
 20
164.332674
 30
0.0
 11
209.591281
 21
164.332674
 31
0.0
  0
LINE
  5
31E
100
AcDbEntity
  8
0
390
0
  6
CENTER
 62
     1
100
AcDbLine
 10
201.814285
 20
160.681695
 30
0.0
 11
201.814285
 21
184.23844
 31
0.0
  0
LINE
  5
31F
100
AcDbEntity
  8
0
390
0
  6
CENTER
 62
     1
100
AcDbLine
 10
82.418937
 20
98.065201
 30
0.0
 11
118.418937
 21
98.065201
 31
0.0
  0
LINE
  5
320
100
AcDbEntity
  8
0
390
0
  6
CENTER
 62
     1
100
AcDbLine
 10
89.418937
 20
91.959855
 30
0.0
 11
89.418937
 21
118.539391
 31
0.0
  0
LINE
  5
321
100
AcDbEntity
  8
0
390
0
  6
CENTER
 62
     1
100
AcDbLine
 10
86.418937
 20
57.124373
 30
0.0
 11
86.418937
 21
80.164024
 31
0.0
  0
LINE
  5
322
100
AcDbEntity
  8
0
390
0
  6
CENTER
 62
     1
100
AcDbLine
 10
91.179759
 20
64.565201
 30
0.0
 11
67.627241
 21
64.565201
 31
0.0
  0
POINT
  5
323
100
AcDbEntity
  8
0
390
0
 62
     7
100
AcDbPoint
 10
67.627241
 20
64.608407
 30
0.0
  0
POINT
  5
324
100
AcDbEntity
  8
0
390
0
 62
     7
100
AcDbPoint
 10
91.179759
 20
64.565201
 30
0.0
  0
POINT
  5
325
100
AcDbEntity
  8
0
390
0
 62
     7
100
AcDbPoint
 10
86.55355
 20
57.124373
 30
0.0
  0
POINT
  5
326
100
AcDbEntity
  8
0
390
0
 62
     7
100
AcDbPoint
 10
86.578802
 20
80.164024
 30
0.0
  0
POINT
  5
327
100
AcDbEntity
  8
0
390
0
 62
     7
100
AcDbPoint
 10
87.303749
 20
91.959855
 30
0.0
  0
POINT
  5
328
100
AcDbEntity
  8
0
390
0
 62
     7
100
AcDbPoint
 10
87.056434
 20
118.539391
 30
0.0
  0
INSERT
  5
331
100
AcDbEntity
  8
0
390
0
100
AcDbBlockReference
  2
AID1378
 10
0.0
 20
0.0
 30
0.0
  0
POINT
  5
332
100
AcDbEntity
  8
0
390
0
 62
     7
100
AcDbPoint
 10
165.955479
 20
152.973615
 30
0.0
  0
INSERT
  5
33B
100
AcDbEntity
  8
0
390
0
100
AcDbBlockReference
  2
AID1392
 10
0.0
 20
0.0
 30
0.0
  0
POINT
  5
33C
100
AcDbEntity
  8
0
390
0
 62
     7
100
AcDbPoint
 10
194.481414
 20
150.475952
 30
0.0
  0
DIMENSION
  5
33D
100
AcDbEntity
  8
0
390
0
100
AcDbDimension
  2
*D16
 10
147.764432
 20
164.331299
 30
0.0
 11
150.65089
 21
181.994841
 31
0.0
 70
     2
 71
     5
 72
     1
 41
1.0
 42
0.0
210
0.0
220
0.0
230
1.0
  3
Standard
100
AcDb2LineAngularDimension
 13
168.314432
 23
184.881299
 33
0.0
 14
168.314432
 24
186.996547
 34
0.0
 15
145.649184
 25
164.331299
 35
0.0
 16
153.030143
 26
179.615587
 36
0.0
1001
ACAD
1000
DSTYLE
1002
{
1070
   271
1070
     1
1070
   179
1070
     1
1002
}
  0
DIMENSION
  5
34F
100
AcDbEntity
  8
0
390
0
100
AcDbDimension
  2
*D17
 10
62.065481
 20
188.684754
 30
0.0
 11
59.686228
 21
191.064008
 31
0.0
 70
     5
 71
     5
 72
     1
 41
1.0
 42
0.0
210
0.0
220
0.0
230
1.0
  3
Standard
100
AcDb3PointAngularDimension
 13
51.977949
 23
164.331299
 33
0.0
 14
86.418937
 24
198.772286
 34
0.0
 15
86.418937
 25
164.331299
 35
0.0
1001
ACAD
1000
DSTYLE
1002
{
1070
   271
1070
     1
1070
   179
1070
     1
1002
}
  0
ELLIPSE
  5
360
100
AcDbEntity
  8
0
390
0
  6
Continuous
 62
     7
100
AcDbEllipse
 10
267.588622
 20
155.825438
 30
0.0
 11
5.2499999999999769
 21
9.093266739736622
 31
0.0
210
0.0
220
0.0
230
1.0
 40
0.57735
 41
0.0
 42
0.7853981633974562
  0
ELLIPSE
  5
361
100
AcDbEntity
  8
0
390
0
  6
Continuous
 62
     7
100
AcDbEllipse
 10
267.588622
 20
155.825438
 30
0.0
 11
5.2499999999999769
 21
9.093266739736622
 31
0.0
210
0.0
220
0.0
230
1.0
 40
0.57735
 41
3.1415926535898033
 42
6.2831853071795862
  0
ELLIPSE
  5
362
100
AcDbEntity
  8
0
390
0
  6
Continuous
 62
     7
100
AcDbEllipse
 10
258.254812
 20
161.214316
 30
0.0
 11
5.2499999999999769
 21
9.0932667397365936
 31
0.0
210
0.0
220
0.0
230
1.0
 40
0.57735
 41
0.0000000000000046
 42
0.7853981633974445
  0
ELLIPSE
  5
363
100
AcDbEntity
  8
0
390
0
  6
Continuous
 62
     7
100
AcDbEllipse
 10
258.254812
 20
161.214316
 30
0.0
 11
5.2499999999999769
 21
9.0932667397365936
 31
0.0
210
0.0
220
0.0
230
1.0
 40
0.57735
 41
0.7853981633974445
 42
3.1415926535897869
  0
ELLIPSE
  5
364
100
AcDbEntity
  8
0
390
0
  6
Continuous
 62
     7
100
AcDbEllipse
 10
267.588622
 20
155.825438
 30
0.0
 11
5.2499999999999769
 21
9.093266739736622
 31
0.0
210
0.0
220
0.0
230
1.0
 40
0.57735
 41
0.7853981633974562
 42
3.1415926535898033
  0
ELLIPSE
  5
365
100
AcDbEntity
  8
0
390
0
  6
Continuous
 62
     7
100
AcDbEllipse
 10
267.588622
 20
155.825438
 30
0.0
 11
4.1999999999999815
 21
7.2746133917892806
 31
0.0
210
0.0
220
0.0
230
1.0
 40
0.57735
 41
0.7853981633974507
 42
3.1415926535898029
  0
ELLIPSE
  5
366
100
AcDbEntity
  8
0
390
0
  6
Continuous
 62
     7
100
AcDbEllipse
 10
267.588622
 20
155.825438
 30
0.0
 11
4.1999999999999815
 21
7.2746133917892806
 31
0.0
210
0.0
220
0.0
230
1.0
 40
0.57735
 41
0.0
 42
0.7853981633974507
  0
ELLIPSE
  5
367
100
AcDbEntity
  8
0
390
0
  6
Continuous
 62
     7
100
AcDbEllipse
 10
267.588622
 20
155.825438
 30
0.0
 11
4.1999999999999815
 21
7.2746133917892806
 31
0.0
210
0.0
220
0.0
230
1.0
 40
0.57735
 41
3.141592653589802
 42
6.28318530717958
  0
ELLIPSE
  5
368
100
AcDbEntity
  8
0
390
0
  6
Continuous
 62
     7
100
AcDbEllipse
 10
263.133849
 20
167.950412
 30
0.0
 11
2.4000000000000132
 21
-4.1569219381653033
 31
0.0
210
0.0
220
0.0
230
1.0
 40
0.57735
 41
1.5010270667620969
 42
3.1415926535897829
  0
ELLIPSE
  5
369
100
AcDbEntity
  8
0
390
0
  6
Continuous
 62
     7
100
AcDbEllipse
 10
263.133849
 20
167.950412
 30
0.0
 11
2.4000000000000132
 21
-4.1569219381653033
 31
0.0
210
0.0
220
0.0
230
1.0
 40
0.57735
 41
3.1415926535897829
 42
3.773802146051509
  0
ELLIPSE
  5
36A
100
AcDbEntity
  8
0
390
0
  6
Continuous
 62
     7
100
AcDbEllipse
 10
263.133849
 20
167.950412
 30
0.0
 11
9.0000000000000071
 21
-15.588457268119887
 31
0.0
210
0.0
220
0.0
230
1.0
 40
0.57735
 41
0.0873612757965227
 42
0.7853981633974502
  0
ELLIPSE
  5
36B
100
AcDbEntity
  8
0
390
0
  6
Continuous
 62
     7
100
AcDbEllipse
 10
263.133849
 20
167.950412
 30
0.0
 11
9.0000000000000071
 21
-15.588457268119887
 31
0.0
210
0.0
220
0.0
230
1.0
 40
0.57735
 41
3.1415926535897905
 42
4.354721467137125
  0
ELLIPSE
  5
36C
100
AcDbEntity
  8
0
390
0
  6
Continuous
 62
     7
100
AcDbEllipse
 10
263.133849
 20
167.950412
 30
0.0
 11
9.0000000000000071
 21
-15.588457268119887
 31
0.0
210
0.0
220
0.0
230
1.0
 40
0.57735
 41
0.7853981633974485
 42
3.1415926535897896
  0
ELLIPSE
  5
36D
100
AcDbEntity
  8
0
390
0
  6
Continuous
 62
     7
100
AcDbEllipse
 10
264.830906
 20
168.930208
 30
0.0
 11
9.0000000000000071
 21
-15.588457268119916
 31
0.0
210
0.0
220
0.0
230
1.0
 40
0.57735
 41
0.0000000000000007
 42
0.7853981633974491
  0
ELLIPSE
  5
36E
100
AcDbEntity
  8
0
390
0
  6
Continuous
 62
     7
100
AcDbEllipse
 10
264.830906
 20
168.930208
 30
0.0
 11
9.0000000000000071
 21
-15.588457268119916
 31
0.0
210
0.0
220
0.0
230
1.0
 40
0.57735
 41
0.7853981633974491
 42
3.141592653589794
  0
LINE
  5
36F
100
AcDbEntity
  8
0
390
0
  6
Continuous
 62
     7
100
AcDbLine
 10
272.838622
 20
164.918705
 30
0.0
 11
263.504812
 21
170.307582
 31
0.0
  0
LINE
  5
370
100
AcDbEntity
  8
0
390
0
  6
Continuous
 62
     7
100
AcDbLine
 10
253.004812
 20
152.121049
 30
0.0
 11
262.338622
 21
146.732171
 31
0.0
  0
LINE
  5
371
100
AcDbEntity
  8
0
390
0
  6
Continuous
 62
     7
100
AcDbLine
 10
272.816451
 20
152.756055
 30
0.0
 11
273.830906
 21
153.341751
 31
0.0
  0
LINE
  5
372
100
AcDbEntity
  8
0
390
0
  6
Continuous
 62
     7
100
AcDbLine
 10
255.830906
 20
184.518666
 30
0.0
 11
254.133849
 21
183.53887
 31
0.0
  0
ELLIPSE
  5
373
100
AcDbEntity
  8
0
390
0
  6
Continuous
 62
     7
100
AcDbEllipse
 10
264.830906
 20
168.930208
 30
0.0
 11
2.4000000000000132
 21
-4.1569219381653033
 31
0.0
210
0.0
220
0.0
230
1.0
 40
0.57735
 41
3.502959777496486
 42
3.9504251172224958
  0
DIMENSION
  5
374
100
AcDbEntity
  8
0
390
0
100
AcDbDimension
  2
*D18
 10
78.918937
 20
56.494156
 30
0.0
 11
136.456372
 21
60.125406
 31
0.0
 71
     5
 72
     1
 41
1.0
 42
0.0
  3
Standard
100
AcDbAlignedDimension
 13
78.918937
 23
59.565201
 33
0.0
 14
93.918937
 24
59.565201
 34
0.0
100
AcDbRotatedDimension
1001
ACAD
1000
DSTYLE
1002
{
1070
    47
1040
0.018
1070
    71
1070
     1
1070
    48
1040
0.0
1070
    71
1070
     1
1070
     3
1000
%%c<>H8
1070
   271
1070
     1
1070
   179
1070
     1
1002
}
  0
DIMENSION
  5
387
100
AcDbEntity
  8
0
390
0
100
AcDbDimension
  2
*D19
 10
71.418937
 20
49.229133
 30
0.0
 11
86.418937
 21
52.538224
 31
0.0
 71
     5
 72
     1
 41
1.0
 42
0.0
  3
Standard
100
AcDbAlignedDimension
 13
71.418937
 23
59.565201
 33
0.0
 14
101.418937
 24
59.565201
 34
0.0
100
AcDbRotatedDimension
1001
ACAD
1000
DSTYLE
1002
{
1070
     3
1000
%%c<>
1070
   271
1070
     1
1070
   179
1070
     1
1002
}
  0
DIMENSION
  5
399
100
AcDbEntity
  8
0
390
0
100
AcDbDimension
  2
*D20
 10
124.652416
 20
78.565201
 30
0.0
 11
121.510371
 21
70.785655
 31
0.0
 71
     5
 72
     1
 41
1.0
 42
0.0
  1
AG
  3
Standard
100
AcDbAlignedDimension
 13
116.418937
 23
78.565201
 33
0.0
 14
116.418937
 24
80.565201
 34
0.0
 50
90.0
100
AcDbRotatedDimension
1001
ACAD
1000
DSTYLE
1002
{
1070
   280
1040
0.0
1070
   271
1070
     1
1070
   179
1070
     1
1002
}
  0
DIMENSION
  5
3AB
100
AcDbEntity
  8
0
390
0
100
AcDbDimension
  2
*D21
 10
32.28625
 20
78.565201
 30
0.0
 11
29.13625
 21
69.065201
 31
0.0
 71
     5
 72
     1
 41
1.0
 42
0.0
  3
Standard
100
AcDbAlignedDimension
 13
56.418937
 23
78.565201
 33
0.0
 14
71.418937
 24
59.565201
 34
0.0
 50
270.0
100
AcDbRotatedDimension
1001
ACAD
1000
DSTYLE
1002
{
1070
   271
1070
     1
1070
   179
1070
     1
1002
}
  0
DIMENSION
  5
3BD
100
AcDbEntity
  8
0
390
0
100
AcDbDimension
  2
*D22
 10
50.406349
 20
78.565201
 30
0.0
 11
47.264304
 21
86.122019
 31
0.0
 71
     5
 72
     1
 41
1.0
 42
0.0
  3
Standard
100
AcDbAlignedDimension
 13
56.418937
 23
78.565201
 33
0.0
 14
56.418937
 24
74.565201
 34
0.0
 50
90.0
100
AcDbRotatedDimension
1001
ACAD
1000
DSTYLE
1002
{
1070
   271
1070
     1
1070
   179
1070
     1
1002
}
  0
DIMENSION
  5
3CF
100
AcDbEntity
  8
0
390
0
100
AcDbDimension
  2
*D23
 10
38.435567
 20
78.565201
 30
0.0
 11
35.293522
 21
71.565201
 31
0.0
 71
     5
 72
     1
 41
1.0
 42
0.0
  3
Standard
100
AcDbAlignedDimension
 13
56.418937
 23
78.565201
 33
0.0
 14
67.627241
 24
64.565201
 34
0.0
 50
270.0
100
AcDbRotatedDimension
1001
ACAD
1000
DSTYLE
1002
{
1070
   271
1070
     1
1070
   179
1070
     1
1002
}
  0
DIMENSION
  5
3E1
100
AcDbEntity
  8
0
390
0
100
AcDbDimension
  2
*D24
 10
137.586618
 20
115.565201
 30
0.0
 11
134.277527
 21
98.065201
 31
0.0
 71
     5
 72
     1
 41
1.0
 42
0.0
  3
Standard
100
AcDbAlignedDimension
 13
116.418937
 23
115.565201
 33
0.0
 14
116.418937
 24
80.565201
 34
0.0
 50
270.0
100
AcDbRotatedDimension
1001
ACAD
1000
DSTYLE
1002
{
1070
     3
1000
%%c<>
1070
   271
1070
     1
1070
   179
1070
     1
1002
}
  0
DIMENSION
  5
3F3
100
AcDbEntity
  8
0
390
0
100
AcDbDimension
  2
*D25
 10
129.05229
 20
90.565201
 30
0.0
 11
125.42104
 21
131.72784
 31
0.0
 71
     5
 72
     1
 41
1.0
 42
0.0
  3
Standard
100
AcDbAlignedDimension
 13
116.418937
 23
90.565201
 33
0.0
 14
116.418937
 24
105.565201
 34
0.0
 50
90.0
100
AcDbRotatedDimension
1001
ACAD
1000
DSTYLE
1002
{
1070
    47
1040
0.018
1070
    71
1070
     1
1070
    48
1040
0.0
1070
    71
1070
     1
1070
     3
1000
%%c<>H8
1070
   280
1040
0.0
1070
   271
1070
     1
1070
   179
1070
     1
1002
}
  0
POINT
  5
406
100
AcDbEntity
  8
0
390
0
 62
     7
100
AcDbPoint
 10
192.776085
 20
184.23844
 30
0.0
  0
POINT
  5
407
100
AcDbEntity
  8
0
390
0
 62
     7
100
AcDbPoint
 10
192.563501
 20
160.681695
 30
0.0
  0
POINT
  5
408
100
AcDbEntity
  8
0
390
0
 62
     7
100
AcDbPoint
 10
183.18632
 20
164.071568
 30
0.0
  0
POINT
  5
409
100
AcDbEntity
  8
0
390
0
 62
     7
100
AcDbPoint
 10
209.591281
 20
164.126737
 30
0.0
  0
CIRCLE
  5
40A
100
AcDbEntity
  8
0
390
0
  6
Continuous
 62
     2
100
AcDbCircle
 10
89.419031
 20
164.331909
 30
0.0
 40
2.499906
210
0.0
220
0.0
230
1.0
  0
LINE
  5
40B
100
AcDbEntity
  8
0
390
0
  6
DOT
 62
     2
100
AcDbLine
 10
86.918942
 20
178.431299
 30
0.0
 11
86.92716
 21
178.429844
 31
0.0
  0
ARC
  5
40C
100
AcDbEntity
  8
0
390
0
  6
Continuous
 62
     2
100
AcDbCircle
 10
89.421468
 20
192.284815
 30
0.0
 40
14.076833
210
0.0
220
0.0
230
1.0
100
AcDbArc
 50
261.369241
 51
280.21932
  0
ARC
  5
40D
100
AcDbEntity
  8
0
390
0
  6
DOT
 62
     2
100
AcDbCircle
 10
89.418937
 20
178.903095
 30
0.0
 40
7.500685
210
0.0
220
0.0
230
1.0
100
AcDbArc
 50
250.53067
 51
289.46933
  0
LINE
  5
40E
100
AcDbEntity
  8
0
390
0
  6
DOT
 62
     2
100
AcDbLine
 10
79.347867
 20
161.831304
 30
0.0
 11
79.347084
 21
161.83352
 31
0.0
  0
LINE
  5
40F
100
AcDbEntity
  8
0
390
0
  6
DOT
 62
     2
100
AcDbLine
 10
71.628737
 20
161.831304
 30
0.0
 11
71.603729
 21
161.984043
 31
0.0
  0
LINE
  5
410
100
AcDbEntity
  8
0
390
0
  6
DOT
 62
     2
100
AcDbLine
 10
71.603756
 20
166.678723
 30
0.0
 11
71.628737
 21
166.831294
 31
0.0
  0
LINE
  5
411
100
AcDbEntity
  8
0
390
0
  6
DOT
 62
     2
100
AcDbLine
 10
79.347867
 20
166.831294
 30
0.0
 11
79.286443
 21
166.650248
 31
0.0
  0
LINE
  5
412
100
AcDbEntity
  8
0
390
0
  6
DOT
 62
     2
100
AcDbLine
 10
79.286314
 20
162.012745
 30
0.0
 11
79.347867
 21
161.831304
 31
0.0
  0
LINE
  5
413
100
AcDbEntity
  8
0
390
0
  6
DOT
 62
     2
100
AcDbLine
 10
90.668937
 20
171.335895
 30
0.0
 11
88.168937
 21
171.335895
 31
0.0
  0
LINE
  5
414
100
AcDbEntity
  8
0
390
0
  6
DOT
 62
     2
100
AcDbLine
 10
91.918937
 20
172.585895
 30
0.0
 11
86.918937
 21
172.585895
 31
0.0
  0
LINE
  5
415
100
AcDbEntity
  8
0
390
0
  6
DOT
 62
     2
100
AcDbLine
 10
91.918937
 20
176.710895
 30
0.0
 11
86.918937
 21
176.710895
 31
0.0
  0
LINE
  5
416
100
AcDbEntity
  8
0
390
0
  6
DOT
 62
     2
100
AcDbLine
 10
90.668937
 20
177.335895
 30
0.0
 11
90.668937
 21
177.239207
 31
0.0
  0
ARC
  5
417
100
AcDbEntity
  8
0
390
0
  6
DOT
 62
     2
100
AcDbCircle
 10
88.793937
 20
175.263478
 30
0.0
 40
2.072229
210
0.0
220
0.0
230
1.0
100
AcDbArc
 50
72.445814
 51
107.554186
  0
ARC
  5
418
100
AcDbEntity
  8
0
390
0
  6
DOT
 62
     2
100
AcDbCircle
 10
90.043937
 20
175.263478
 30
0.0
 40
2.072229
210
0.0
220
0.0
230
1.0
100
AcDbArc
 50
72.445814
 51
107.554186
  0
LINE
  5
419
100
AcDbEntity
  8
0
390
0
  6
DOT
 62
     2
100
AcDbLine
 10
88.168937
 20
177.239207
 30
0.0
 11
88.168937
 21
177.335895
 31
0.0
  0
LINE
  5
41A
100
AcDbEntity
  8
0
390
0
  6
DOT
 62
     2
100
AcDbLine
 10
89.418937
 20
174.335895
 30
0.0
 11
90.668937
 21
174.335895
 31
0.0
  0
LINE
  5
41B
100
AcDbEntity
  8
0
390
0
  6
DOT
 62
     2
100
AcDbLine
 10
89.418937
 20
177.239207
 30
0.0
 11
89.418937
 21
176.710895
 31
0.0
  0
LINE
  5
41C
100
AcDbEntity
  8
0
390
0
  6
DOT
 62
     2
100
AcDbLine
 10
89.418937
 20
176.710895
 30
0.0
 11
89.418937
 21
174.335895
 31
0.0
  0
LINE
  5
41D
100
AcDbEntity
  8
0
390
0
  6
DOT
 62
     2
100
AcDbLine
 10
88.168937
 20
174.335895
 30
0.0
 11
89.418937
 21
174.335895
 31
0.0
  0
LINE
  5
41E
100
AcDbEntity
  8
0
390
0
  6
DOT
 62
     2
100
AcDbLine
 10
90.668937
 20
177.239207
 30
0.0
 11
90.668937
 21
176.710895
 31
0.0
  0
LINE
  5
41F
100
AcDbEntity
  8
0
390
0
  6
DOT
 62
     2
100
AcDbLine
 10
90.668937
 20
176.710895
 30
0.0
 11
90.668937
 21
174.335895
 31
0.0
  0
LINE
  5
420
100
AcDbEntity
  8
0
390
0
  6
DOT
 62
     2
100
AcDbLine
 10
88.168937
 20
177.239207
 30
0.0
 11
88.168937
 21
176.710895
 31
0.0
  0
LINE
  5
421
100
AcDbEntity
  8
0
390
0
  6
DOT
 62
     2
100
AcDbLine
 10
88.168937
 20
176.710895
 30
0.0
 11
88.168937
 21
174.335895
 31
0.0
  0
LINE
  5
422
100
AcDbEntity
  8
0
390
0
  6
Continuous
 62
     7
100
AcDbLine
 10
89.418937
 20
165.774674
 30
0.0
 11
90.668937
 21
165.052986
 31
0.0
  0
LINE
  5
423
100
AcDbEntity
  8
0
390
0
  6
Continuous
 62
     7
100
AcDbLine
 10
88.168937
 20
165.052986
 30
0.0
 11
89.418937
 21
165.774674
 31
0.0
  0
ARC
  5
424
100
AcDbEntity
  8
0
390
0
  6
DOT
 62
     2
100
AcDbCircle
 10
89.418937
 20
164.331299
 30
0.0
 40
2.5
210
0.0
220
0.0
230
1.0
100
AcDbArc
 50
177.847354
 51
180.0
  0
ARC
  5
425
100
AcDbEntity
  8
0
390
0
  6
DOT
 62
     2
100
AcDbCircle
 10
89.418937
 20
164.331299
 30
0.0
 40
2.5
210
0.0
220
0.0
230
1.0
100
AcDbArc
 50
352.861158
 51
360.0
  0
LINE
  5
426
100
AcDbEntity
  8
0
390
0
  6
Continuous
 62
     7
100
AcDbLine
 10
89.418937
 20
162.887923
 30
0.0
 11
88.168937
 21
163.609611
 31
0.0
  0
LINE
  5
427
100
AcDbEntity
  8
0
390
0
  6
Continuous
 62
     7
100
AcDbLine
 10
88.168937
 20
163.609611
 30
0.0
 11
88.168937
 21
165.052986
 31
0.0
  0
LINE
  5
428
100
AcDbEntity
  8
0
390
0
  6
Continuous
 62
     7
100
AcDbLine
 10
90.668937
 20
163.609611
 30
0.0
 11
89.418937
 21
162.887923
 31
0.0
  0
LINE
  5
429
100
AcDbEntity
  8
0
390
0
  6
Continuous
 62
     7
100
AcDbLine
 10
90.668937
 20
165.052986
 30
0.0
 11
90.668937
 21
163.609611
 31
0.0
  0
ARC
  5
42A
100
AcDbEntity
  8
0
390
0
  6
DOT
 62
     2
100
AcDbCircle
 10
89.418937
 20
164.331299
 30
0.0
 40
1.25
210
0.0
220
0.0
230
1.0
100
AcDbArc
 50
120.0
 51
180.0
  0
ARC
  5
42B
100
AcDbEntity
  8
0
390
0
  6
DOT
 62
     2
100
AcDbCircle
 10
89.418937
 20
164.331299
 30
0.0
 40
1.25
210
0.0
220
0.0
230
1.0
100
AcDbArc
 50
60.0
 51
120.0
  0
ARC
  5
42C
100
AcDbEntity
  8
0
390
0
  6
DOT
 62
     2
100
AcDbCircle
 10
89.418937
 20
164.331299
 30
0.0
 40
1.25
210
0.0
220
0.0
230
1.0
100
AcDbArc
 50
360.0
 51
60.0
  0
ARC
  5
42D
100
AcDbEntity
  8
0
390
0
  6
DOT
 62
     2
100
AcDbCircle
 10
89.418937
 20
164.331299
 30
0.0
 40
1.25
210
0.0
220
0.0
230
1.0
100
AcDbArc
 50
300.0
 51
360.0
  0
ARC
  5
42E
100
AcDbEntity
  8
0
390
0
  6
DOT
 62
     2
100
AcDbCircle
 10
89.418937
 20
164.331299
 30
0.0
 40
1.25
210
0.0
220
0.0
230
1.0
100
AcDbArc
 50
240.0
 51
300.0
  0
ARC
  5
42F
100
AcDbEntity
  8
0
390
0
  6
DOT
 62
     2
100
AcDbCircle
 10
89.418937
 20
164.331299
 30
0.0
 40
1.25
210
0.0
220
0.0
230
1.0
100
AcDbArc
 50
180.0
 51
240.0
  0
ARC
  5
430
100
AcDbEntity
  8
0
390
0
  6
DOT
 62
     2
100
AcDbCircle
 10
89.460568
 20
179.322717
 30
0.0
 40
7.79153
210
0.0
220
0.0
230
1.0
100
AcDbArc
 50
254.045936
 51
269.693859
  0
ARC
  5
431
100
AcDbEntity
  8
0
390
0
  6
DOT
 62
     2
100
AcDbCircle
 10
89.37571
 20
179.333889
 30
0.0
 40
7.80271
210
0.0
220
0.0
230
1.0
100
AcDbArc
 50
270.317421
 51
285.942783
  0
ARC
  5
432
100
AcDbEntity
  8
0
390
0
  6
Continuous
 62
     7
100
AcDbCircle
 10
86.418937
 20
164.331299
 30
0.0
 40
7.5
210
0.0
220
0.0
230
1.0
100
AcDbArc
 50
105.46601
 51
180.0
  0
ARC
  5
433
100
AcDbEntity
  8
0
390
0
  6
DOT
 62
     2
100
AcDbCircle
 10
86.418937
 20
164.331299
 30
0.0
 40
7.5
210
0.0
220
0.0
230
1.0
100
AcDbArc
 50
85.602217
 51
105.46601
  0
ARC
  5
434
100
AcDbEntity
  8
0
390
0
  6
DOT
 62
     2
100
AcDbCircle
 10
86.418937
 20
164.331299
 30
0.0
 40
7.5
210
0.0
220
0.0
230
1.0
100
AcDbArc
 50
69.058559
 51
71.12071
  0
ARC
  5
435
100
AcDbEntity
  8
0
390
0
  6
DOT
 62
     2
100
AcDbCircle
 10
86.418937
 20
164.331299
 30
0.0
 40
7.5
210
0.0
220
0.0
230
1.0
100
AcDbArc
 50
254.53399
 51
69.058559
  0
CIRCLE
  5
436
100
AcDbEntity
  8
0
390
0
  6
DOT
 62
     2
100
AcDbCircle
 10
86.418937
 20
164.331299
 30
0.0
 40
15.0
210
0.0
220
0.0
230
1.0
  0
LINE
  5
437
100
AcDbEntity
  8
0
390
0
  6
DOT
 62
     2
100
AcDbLine
 10
91.518937
 20
172.185895
 30
0.0
 11
91.518937
 21
176.710895
 31
0.0
  0
LINE
  5
438
100
AcDbEntity
  8
0
390
0
  6
DOT
 62
     2
100
AcDbLine
 10
87.318937
 20
176.710895
 30
0.0
 11
87.318937
 21
172.185895
 31
0.0
  0
LINE
  5
439
100
AcDbEntity
  8
0
390
0
  6
DOT
 62
     2
100
AcDbLine
 10
86.918942
 20
178.431299
 30
0.0
 11
86.918942
 21
176.710915
 31
0.0
  0
LINE
  5
43A
100
AcDbEntity
  8
0
390
0
  6
DOT
 62
     2
100
AcDbLine
 10
86.918942
 20
176.710898
 30
0.0
 11
86.918942
 21
172.585895
 31
0.0
  0
LINE
  5
43B
100
AcDbEntity
  8
0
390
0
  6
DOT
 62
     2
100
AcDbLine
 10
86.918942
 20
172.585876
 30
0.0
 11
86.918942
 21
171.831299
 31
0.0
  0
LINE
  5
43C
100
AcDbEntity
  8
0
390
0
  6
DOT
 62
     2
100
AcDbLine
 10
91.918932
 20
171.831299
 30
0.0
 11
91.918932
 21
172.585876
 31
0.0
  0
LINE
  5
43D
100
AcDbEntity
  8
0
390
0
  6
DOT
 62
     2
100
AcDbLine
 10
91.918932
 20
172.585895
 30
0.0
 11
91.918932
 21
176.710898
 31
0.0
  0
LINE
  5
43E
100
AcDbEntity
  8
0
390
0
  6
Continuous
 62
     2
100
AcDbLine
 10
87.309012
 20
178.367388
 30
0.0
 11
86.918942
 21
178.431299
 31
0.0
  0
LINE
  5
43F
100
AcDbEntity
  8
0
390
0
  6
DOT
 62
     2
100
AcDbLine
 10
83.918942
 20
179.121689
 30
0.0
 11
83.918942
 21
177.196645
 31
0.0
  0
LINE
  5
440
100
AcDbEntity
  8
0
390
0
  6
DOT
 62
     2
100
AcDbLine
 10
83.918942
 20
171.930642
 30
0.0
 11
83.918942
 21
171.402778
 31
0.0
  0
LINE
  5
441
100
AcDbEntity
  8
0
390
0
  6
DOT
 62
     2
100
AcDbLine
 10
88.918932
 20
171.402368
 30
0.0
 11
88.918932
 21
171.769418
 31
0.0
  0
LINE
  5
442
100
AcDbEntity
  8
0
390
0
  6
DOT
 62
     2
100
AcDbLine
 10
88.918932
 20
171.769418
 30
0.0
 11
88.918932
 21
171.930642
 31
0.0
  0
LINE
  5
443
100
AcDbEntity
  8
0
390
0
  6
DOT
 62
     2
100
AcDbLine
 10
88.918932
 20
171.930642
 30
0.0
 11
88.918932
 21
172.185895
 31
0.0
  0
LINE
  5
444
100
AcDbEntity
  8
0
390
0
  6
DOT
 62
     2
100
AcDbLine
 10
88.918932
 20
172.185895
 30
0.0
 11
88.918932
 21
173.071607
 31
0.0
  0
LINE
  5
445
100
AcDbEntity
  8
0
390
0
  6
DOT
 62
     2
100
AcDbLine
 10
88.918932
 20
173.071626
 30
0.0
 11
88.918932
 21
177.196626
 31
0.0
  0
LINE
  5
446
100
AcDbEntity
  8
0
390
0
  6
DOT
 62
     2
100
AcDbLine
 10
88.918932
 20
177.196645
 30
0.0
 11
88.918932
 21
179.121499
 31
0.0
  0
LINE
  5
447
100
AcDbEntity
  8
0
390
0
  6
DOT
 62
     2
100
AcDbLine
 10
71.628695
 20
161.831304
 30
0.0
 11
73.545118
 21
161.831304
 31
0.0
  0
LINE
  5
448
100
AcDbEntity
  8
0
390
0
  6
DOT
 62
     2
100
AcDbLine
 10
78.819593
 20
161.831304
 30
0.0
 11
79.347799
 21
161.831304
 31
0.0
  0
LINE
  5
449
100
AcDbEntity
  8
0
390
0
  6
DOT
 62
     2
100
AcDbLine
 10
79.347867
 20
166.831294
 30
0.0
 11
78.819593
 21
166.831294
 31
0.0
  0
LINE
  5
44A
100
AcDbEntity
  8
0
390
0
  6
DOT
 62
     2
100
AcDbLine
 10
73.545118
 20
166.831294
 30
0.0
 11
71.628737
 21
166.831294
 31
0.0
  0
LINE
  5
44B
100
AcDbEntity
  8
0
390
0
  6
DOT
 62
     2
100
AcDbLine
 10
86.918937
 20
172.585895
 30
0.0
 11
87.318937
 21
172.185895
 31
0.0
  0
LINE
  5
44C
100
AcDbEntity
  8
0
390
0
  6
DOT
 62
     2
100
AcDbLine
 10
87.951738
 20
171.553094
 30
0.0
 11
88.168937
 21
171.335895
 31
0.0
  0
LINE
  5
44D
100
AcDbEntity
  8
0
390
0
  6
DOT
 62
     2
100
AcDbLine
 10
90.668937
 20
171.335895
 30
0.0
 11
90.886034
 21
171.552992
 31
0.0
  0
LINE
  5
44E
100
AcDbEntity
  8
0
390
0
  6
DOT
 62
     2
100
AcDbLine
 10
91.518937
 20
172.185895
 30
0.0
 11
91.918937
 21
172.585895
 31
0.0
  0
LINE
  5
44F
100
AcDbEntity
  8
0
390
0
  6
DOT
 62
     2
100
AcDbLine
 10
91.918937
 20
172.585895
 30
0.0
 11
91.918937
 21
176.710895
 31
0.0
  0
LINE
  5
450
100
AcDbEntity
  8
0
390
0
  6
DOT
 62
     2
100
AcDbLine
 10
86.918937
 20
176.710895
 30
0.0
 11
86.918937
 21
172.585895
 31
0.0
  0
LINE
  5
451
100
AcDbEntity
  8
0
390
0
  6
DOT
 62
     2
100
AcDbLine
 10
91.918937
 20
176.710895
 30
0.0
 11
91.518937
 21
176.910895
 31
0.0
  0
LINE
  5
452
100
AcDbEntity
  8
0
390
0
  6
DOT
 62
     2
100
AcDbLine
 10
91.518937
 20
176.910895
 30
0.0
 11
90.668937
 21
177.335895
 31
0.0
  0
LINE
  5
453
100
AcDbEntity
  8
0
390
0
  6
DOT
 62
     2
100
AcDbLine
 10
88.168937
 20
177.335895
 30
0.0
 11
87.318937
 21
176.910895
 31
0.0
  0
LINE
  5
454
100
AcDbEntity
  8
0
390
0
  6
DOT
 62
     2
100
AcDbLine
 10
87.318937
 20
176.910895
 30
0.0
 11
86.918937
 21
176.710895
 31
0.0
  0
LINE
  5
455
100
AcDbEntity
  8
0
390
0
  6
DOT
 62
     2
100
AcDbLine
 10
90.668937
 20
171.335895
 30
0.0
 11
89.418937
 21
172.058439
 31
0.0
  0
LINE
  5
456
100
AcDbEntity
  8
0
390
0
  6
DOT
 62
     2
100
AcDbLine
 10
89.418937
 20
172.058439
 30
0.0
 11
88.168937
 21
171.335895
 31
0.0
  0
LINE
  5
457
100
AcDbEntity
  8
0
390
0
  6
DOT
 62
     2
100
AcDbLine
 10
87.319258
 20
171.831299
 30
0.0
 11
87.318937
 21
171.831299
 31
0.0
  0
LINE
  5
458
100
AcDbEntity
  8
0
390
0
  6
DOT
 62
     2
100
AcDbLine
 10
87.318937
 20
171.831299
 30
0.0
 11
86.918942
 21
171.831299
 31
0.0
  0
LINE
  5
459
100
AcDbEntity
  8
0
390
0
  6
DOT
 62
     2
100
AcDbLine
 10
86.918942
 20
171.831299
 30
0.0
 11
84.418937
 21
171.831299
 31
0.0
  0
LINE
  5
45A
100
AcDbEntity
  8
0
390
0
  6
DOT
 62
     2
100
AcDbLine
 10
116.418937
 20
171.831299
 30
0.0
 11
91.918932
 21
171.831299
 31
0.0
  0
LINE
  5
45B
100
AcDbEntity
  8
0
390
0
  6
DOT
 62
     2
100
AcDbLine
 10
91.918932
 20
171.831299
 30
0.0
 11
91.518937
 21
171.831299
 31
0.0
  0
LINE
  5
45C
100
AcDbEntity
  8
0
390
0
  6
DOT
 62
     2
100
AcDbLine
 10
91.518937
 20
171.831299
 30
0.0
 11
91.518531
 21
171.831299
 31
0.0
  0
LINE
  5
45D
100
AcDbEntity
  8
0
390
0
  6
DOT
 62
     2
100
AcDbLine
 10
84.418937
 20
156.831299
 30
0.0
 11
116.418937
 21
156.831299
 31
0.0
  0
LINE
  5
45E
100
AcDbEntity
  8
0
390
0
  6
DOT
 62
     2
100
AcDbLine
 10
87.318937
 20
178.431299
 30
0.0
 11
87.318937
 21
176.910895
 31
0.0
  0
LINE
  5
45F
100
AcDbEntity
  8
0
390
0
  6
DOT
 62
     2
100
AcDbLine
 10
87.318937
 20
176.910895
 30
0.0
 11
87.318937
 21
176.710915
 31
0.0
  0
LINE
  5
460
100
AcDbEntity
  8
0
390
0
  6
DOT
 62
     2
100
AcDbLine
 10
87.318937
 20
172.185875
 30
0.0
 11
87.318937
 21
171.831299
 31
0.0
  0
LINE
  5
461
100
AcDbEntity
  8
0
390
0
  6
DOT
 62
     2
100
AcDbLine
 10
91.518937
 20
171.831182
 30
0.0
 11
91.518937
 21
171.831299
 31
0.0
  0
LINE
  5
462
100
AcDbEntity
  8
0
390
0
  6
DOT
 62
     2
100
AcDbLine
 10
91.518937
 20
171.831299
 30
0.0
 11
91.518937
 21
172.185875
 31
0.0
  0
LINE
  5
463
100
AcDbEntity
  8
0
390
0
  6
DOT
 62
     2
100
AcDbLine
 10
91.518937
 20
176.710915
 30
0.0
 11
91.518937
 21
176.910895
 31
0.0
  0
LINE
  5
464
100
AcDbEntity
  8
0
390
0
  6
DOT
 62
     2
100
AcDbLine
 10
91.518937
 20
176.910895
 30
0.0
 11
91.518937
 21
178.431299
 31
0.0
  0
LINE
  5
465
100
AcDbEntity
  8
0
390
0
  6
DOT
 62
     2
100
AcDbLine
 10
71.566664
 20
162.231299
 30
0.0
 11
73.345137
 21
162.231299
 31
0.0
  0
LINE
  5
466
100
AcDbEntity
  8
0
390
0
  6
DOT
 62
     2
100
AcDbLine
 10
78.699481
 20
162.231299
 30
0.0
 11
79.218937
 21
162.231299
 31
0.0
  0
LINE
  5
467
100
AcDbEntity
  8
0
390
0
  6
DOT
 62
     2
100
AcDbLine
 10
79.218802
 20
166.431299
 30
0.0
 11
78.699481
 21
166.431299
 31
0.0
  0
LINE
  5
468
100
AcDbEntity
  8
0
390
0
  6
DOT
 62
     2
100
AcDbLine
 10
73.345137
 20
166.431299
 30
0.0
 11
71.566536
 21
166.431299
 31
0.0
  0
LINE
  5
469
100
AcDbEntity
  8
0
390
0
  6
DOT
 62
     2
100
AcDbLine
 10
84.318937
 20
179.183571
 30
0.0
 11
84.318937
 21
177.396626
 31
0.0
  0
LINE
  5
46A
100
AcDbEntity
  8
0
390
0
  6
DOT
 62
     2
100
AcDbLine
 10
84.318937
 20
172.050755
 30
0.0
 11
84.318937
 21
171.531299
 31
0.0
  0
LINE
  5
46B
100
AcDbEntity
  8
0
390
0
  6
DOT
 62
     2
100
AcDbLine
 10
88.518937
 20
171.531433
 30
0.0
 11
88.518937
 21
171.538207
 31
0.0
  0
LINE
  5
46C
100
AcDbEntity
  8
0
390
0
  6
DOT
 62
     2
100
AcDbLine
 10
88.518937
 20
171.538207
 30
0.0
 11
88.518937
 21
172.050755
 31
0.0
  0
LINE
  5
46D
100
AcDbEntity
  8
0
390
0
  6
DOT
 62
     2
100
AcDbLine
 10
88.518937
 20
172.050755
 30
0.0
 11
88.518937
 21
172.185895
 31
0.0
  0
LINE
  5
46E
100
AcDbEntity
  8
0
390
0
  6
DOT
 62
     2
100
AcDbLine
 10
88.518937
 20
172.185895
 30
0.0
 11
88.518937
 21
172.671606
 31
0.0
  0
LINE
  5
46F
100
AcDbEntity
  8
0
390
0
  6
DOT
 62
     2
100
AcDbLine
 10
88.518937
 20
172.671626
 30
0.0
 11
88.518937
 21
176.710895
 31
0.0
  0
LINE
  5
470
100
AcDbEntity
  8
0
390
0
  6
DOT
 62
     2
100
AcDbLine
 10
88.518937
 20
176.710895
 30
0.0
 11
88.518937
 21
177.196626
 31
0.0
  0
LINE
  5
471
100
AcDbEntity
  8
0
390
0
  6
DOT
 62
     2
100
AcDbLine
 10
88.518937
 20
177.196646
 30
0.0
 11
88.518937
 21
177.396626
 31
0.0
  0
LINE
  5
472
100
AcDbEntity
  8
0
390
0
  6
DOT
 62
     2
100
AcDbLine
 10
88.518937
 20
177.396626
 30
0.0
 11
88.518937
 21
179.1837
 31
0.0
  0
CIRCLE
  5
473
100
AcDbEntity
  8
0
390
0
  6
Continuous
 62
     7
100
AcDbCircle
 10
89.418937
 20
98.065201
 30
0.0
 40
1.25
210
0.0
220
0.0
230
1.0
  0
LINE
  5
474
100
AcDbEntity
  8
0
390
0
  6
Continuous
 62
     7
100
AcDbLine
 10
87.318937
 20
110.448758
 30
0.0
 11
86.918932
 21
110.448758
 31
0.0
  0
LINE
  5
475
100
AcDbEntity
  8
0
390
0
  6
Continuous
 62
     7
100
AcDbLine
 10
91.918942
 20
110.448758
 30
0.0
 11
91.518937
 21
110.448758
 31
0.0
  0
LINE
  5
476
100
AcDbEntity
  8
0
390
0
  6
Continuous
 62
     2
100
AcDbLine
 10
91.518937
 20
110.448758
 30
0.0
 11
91.518937
 21
105.923758
 31
0.0
  0
LINE
  5
477
100
AcDbEntity
  8
0
390
0
  6
Continuous
 62
     2
100
AcDbLine
 10
87.318937
 20
105.923758
 30
0.0
 11
87.318937
 21
110.448758
 31
0.0
  0
LINE
  5
478
100
AcDbEntity
  8
0
390
0
  6
Continuous
 62
     7
100
AcDbLine
 10
90.668937
 20
111.073758
 30
0.0
 11
91.918937
 21
110.448758
 31
0.0
  0
ARC
  5
479
100
AcDbEntity
  8
0
390
0
  6
Continuous
 62
     7
100
AcDbCircle
 10
90.043937
 20
109.00134
 30
0.0
 40
2.072229
210
0.0
220
0.0
230
1.0
100
AcDbArc
 50
72.445814
 51
107.554186
  0
ARC
  5
47A
100
AcDbEntity
  8
0
390
0
  6
Continuous
 62
     7
100
AcDbCircle
 10
88.793937
 20
109.00134
 30
0.0
 40
2.072229
210
0.0
220
0.0
230
1.0
100
AcDbArc
 50
72.445814
 51
107.554186
  0
LINE
  5
47B
100
AcDbEntity
  8
0
390
0
  6
Continuous
 62
     7
100
AcDbLine
 10
86.918937
 20
110.448758
 30
0.0
 11
88.168937
 21
111.073758
 31
0.0
  0
LINE
  5
47C
100
AcDbEntity
  8
0
390
0
  6
Continuous
 62
     7
100
AcDbLine
 10
89.418937
 20
105.796301
 30
0.0
 11
88.168937
 21
105.073758
 31
0.0
  0
LINE
  5
47D
100
AcDbEntity
  8
0
390
0
  6
Continuous
 62
     7
100
AcDbLine
 10
88.168937
 20
105.073758
 30
0.0
 11
87.318937
 21
105.923758
 31
0.0
  0
LINE
  5
47E
100
AcDbEntity
  8
0
390
0
  6
Continuous
 62
     7
100
AcDbLine
 10
87.318937
 20
105.923758
 30
0.0
 11
86.918937
 21
106.323758
 31
0.0
  0
LINE
  5
47F
100
AcDbEntity
  8
0
390
0
  6
Continuous
 62
     7
100
AcDbLine
 10
86.918937
 20
106.323758
 30
0.0
 11
86.918937
 21
110.448758
 31
0.0
  0
LINE
  5
480
100
AcDbEntity
  8
0
390
0
  6
Continuous
 62
     7
100
AcDbLine
 10
88.168937
 20
111.073758
 30
0.0
 11
88.168937
 21
108.073758
 31
0.0
  0
LINE
  5
481
100
AcDbEntity
  8
0
390
0
  6
Continuous
 62
     7
100
AcDbLine
 10
88.168937
 20
108.073758
 30
0.0
 11
90.668937
 21
108.073758
 31
0.0
  0
LINE
  5
482
100
AcDbEntity
  8
0
390
0
  6
Continuous
 62
     7
100
AcDbLine
 10
90.668937
 20
108.073758
 30
0.0
 11
90.668937
 21
111.073758
 31
0.0
  0
LINE
  5
483
100
AcDbEntity
  8
0
390
0
  6
Continuous
 62
     7
100
AcDbLine
 10
91.918937
 20
110.448758
 30
0.0
 11
91.918937
 21
106.323758
 31
0.0
  0
LINE
  5
484
100
AcDbEntity
  8
0
390
0
  6
Continuous
 62
     7
100
AcDbLine
 10
91.918937
 20
106.323758
 30
0.0
 11
91.518937
 21
105.923758
 31
0.0
  0
LINE
  5
485
100
AcDbEntity
  8
0
390
0
  6
Continuous
 62
     7
100
AcDbLine
 10
91.518937
 20
105.923758
 30
0.0
 11
90.668937
 21
105.073758
 31
0.0
  0
LINE
  5
486
100
AcDbEntity
  8
0
390
0
  6
Continuous
 62
     7
100
AcDbLine
 10
90.668937
 20
105.073758
 30
0.0
 11
89.418937
 21
105.796301
 31
0.0
  0
LINE
  5
487
100
AcDbEntity
  8
0
390
0
  6
Continuous
 62
     7
100
AcDbLine
 10
90.668937
 20
105.073758
 30
0.0
 11
88.168937
 21
105.073758
 31
0.0
  0
LINE
  5
488
100
AcDbEntity
  8
0
390
0
  6
Continuous
 62
     7
100
AcDbLine
 10
89.418937
 20
110.97707
 30
0.0
 11
89.418937
 21
108.073758
 31
0.0
  0
LINE
  5
489
100
AcDbEntity
  8
0
390
0
  6
Continuous
 62
     2
100
AcDbLine
 10
86.918942
 20
105.565201
 30
0.0
 11
86.918942
 21
106.323738
 31
0.0
  0
LINE
  5
48A
100
AcDbEntity
  8
0
390
0
  6
Continuous
 62
     2
100
AcDbLine
 10
86.918942
 20
106.323753
 30
0.0
 11
86.918942
 21
110.44876
 31
0.0
  0
LINE
  5
48B
100
AcDbEntity
  8
0
390
0
  6
Continuous
 62
     2
100
AcDbLine
 10
86.918942
 20
110.448777
 30
0.0
 11
86.918942
 21
112.165201
 31
0.0
  0
LINE
  5
48C
100
AcDbEntity
  8
0
390
0
  6
Continuous
 62
     2
100
AcDbLine
 10
91.918932
 20
112.165201
 30
0.0
 11
91.918932
 21
110.448777
 31
0.0
  0
LINE
  5
48D
100
AcDbEntity
  8
0
390
0
  6
Continuous
 62
     2
100
AcDbLine
 10
91.918932
 20
110.44876
 30
0.0
 11
91.918932
 21
106.323753
 31
0.0
  0
LINE
  5
48E
100
AcDbEntity
  8
0
390
0
  6
Continuous
 62
     2
100
AcDbLine
 10
91.918932
 20
106.323738
 30
0.0
 11
91.918932
 21
105.565201
 31
0.0
  0
CIRCLE
  5
48F
100
AcDbEntity
  8
0
390
0
  6
Continuous
 62
     2
100
AcDbCircle
 10
89.420321
 20
98.065349
 30
0.0
 40
2.499852
210
0.0
220
0.0
230
1.0
  0
LINE
  5
490
100
AcDbEntity
  8
0
390
0
  6
Continuous
 62
     7
100
AcDbLine
 10
87.318937
 20
105.565201
 30
0.0
 11
87.318937
 21
105.923738
 31
0.0
  0
LINE
  5
491
100
AcDbEntity
  8
0
390
0
  6
Continuous
 62
     7
100
AcDbLine
 10
87.318937
 20
105.923758
 30
0.0
 11
87.318937
 21
110.448758
 31
0.0
  0
LINE
  5
492
100
AcDbEntity
  8
0
390
0
  6
Continuous
 62
     7
100
AcDbLine
 10
87.318937
 20
110.448778
 30
0.0
 11
87.318937
 21
110.648758
 31
0.0
  0
LINE
  5
493
100
AcDbEntity
  8
0
390
0
  6
Continuous
 62
     7
100
AcDbLine
 10
87.318937
 20
110.648758
 30
0.0
 11
87.318937
 21
112.165201
 31
0.0
  0
LINE
  5
494
100
AcDbEntity
  8
0
390
0
  6
Continuous
 62
     7
100
AcDbLine
 10
91.518937
 20
112.165201
 30
0.0
 11
91.518937
 21
110.648758
 31
0.0
  0
LINE
  5
495
100
AcDbEntity
  8
0
390
0
  6
Continuous
 62
     7
100
AcDbLine
 10
91.518937
 20
110.648758
 30
0.0
 11
91.518937
 21
110.448778
 31
0.0
  0
LINE
  5
496
100
AcDbEntity
  8
0
390
0
  6
Continuous
 62
     7
100
AcDbLine
 10
91.518937
 20
110.448758
 30
0.0
 11
91.518937
 21
105.923758
 31
0.0
  0
LINE
  5
497
100
AcDbEntity
  8
0
390
0
  6
Continuous
 62
     7
100
AcDbLine
 10
91.518937
 20
105.923738
 30
0.0
 11
91.518937
 21
105.565201
 31
0.0
  0
LINE
  5
498
100
AcDbEntity
  8
0
390
0
  6
Continuous
 62
     7
100
AcDbLine
 10
84.418937
 20
105.565201
 30
0.0
 11
84.418937
 21
90.565201
 31
0.0
  0
LINE
  5
499
100
AcDbEntity
  8
0
390
0
  6
Continuous
 62
     7
100
AcDbLine
 10
84.418937
 20
105.565201
 30
0.0
 11
86.918942
 21
105.565201
 31
0.0
  0
LINE
  5
49A
100
AcDbEntity
  8
0
390
0
  6
Continuous
 62
     7
100
AcDbLine
 10
86.918942
 20
105.565201
 30
0.0
 11
87.318937
 21
105.565201
 31
0.0
  0
LINE
  5
49B
100
AcDbEntity
  8
0
390
0
  6
Continuous
 62
     7
100
AcDbLine
 10
91.518937
 20
105.565201
 30
0.0
 11
91.918932
 21
105.565201
 31
0.0
  0
LINE
  5
49C
100
AcDbEntity
  8
0
390
0
  6
Continuous
 62
     7
100
AcDbLine
 10
91.918932
 20
105.565201
 30
0.0
 11
116.418937
 21
105.565201
 31
0.0
  0
LINE
  5
49D
100
AcDbEntity
  8
0
390
0
  6
Continuous
 62
     7
100
AcDbLine
 10
116.418937
 20
105.565201
 30
0.0
 11
116.418937
 21
90.565201
 31
0.0
  0
LINE
  5
49E
100
AcDbEntity
  8
0
390
0
  6
Continuous
 62
     7
100
AcDbLine
 10
116.418937
 20
90.565201
 30
0.0
 11
84.418937
 21
90.565201
 31
0.0
  0
LINE
  5
49F
100
AcDbEntity
  8
0
390
0
  6
Continuous
 62
     7
100
AcDbLine
 10
84.418937
 20
112.165201
 30
0.0
 11
84.418937
 21
105.565201
 31
0.0
  0
LINE
  5
4A0
100
AcDbEntity
  8
0
390
0
  6
Continuous
 62
     7
100
AcDbLine
 10
116.418937
 20
112.065201
 30
0.0
 11
116.418937
 21
105.565201
 31
0.0
  0
LINE
  5
4A1
100
AcDbEntity
  8
0
390
0
  6
Continuous
 62
     7
100
AcDbLine
 10
116.418937
 20
90.565201
 30
0.0
 11
116.418937
 21
84.065201
 31
0.0
  0
LINE
  5
4A2
100
AcDbEntity
  8
0
390
0
  6
Continuous
 62
     7
100
AcDbLine
 10
84.418937
 20
90.565201
 30
0.0
 11
84.418937
 21
83.965201
 31
0.0
  0
CIRCLE
  5
4A3
100
AcDbEntity
  8
0
390
0
  6
Continuous
 62
     2
100
AcDbCircle
 10
86.418788
 20
64.566585
 30
0.0
 40
2.499852
210
0.0
220
0.0
230
1.0
  0
ARC
  5
4A4
100
AcDbEntity
  8
0
390
0
  6
Continuous
 62
     2
100
AcDbCircle
 10
71.846967
 20
64.565201
 30
0.0
 40
7.500849
210
0.0
220
0.0
230
1.0
100
AcDbArc
 50
340.531112
 51
19.468888
  0
LINE
  5
4A5
100
AcDbEntity
  8
0
390
0
  6
Continuous
 62
     7
100
AcDbLine
 10
78.918937
 20
59.565201
 30
0.0
 11
93.918937
 21
59.565201
 31
0.0
  0
LINE
  5
4A6
100
AcDbEntity
  8
0
390
0
  6
Continuous
 62
     7
100
AcDbLine
 10
78.918937
 20
59.565201
 30
0.0
 11
78.918937
 21
62.065206
 31
0.0
  0
LINE
  5
4A7
100
AcDbEntity
  8
0
390
0
  6
Continuous
 62
     7
100
AcDbLine
 10
78.918937
 20
62.065206
 30
0.0
 11
78.918937
 21
62.465201
 31
0.0
  0
ARC
  5
4A8
100
AcDbEntity
  8
0
390
0
  6
Continuous
 62
     7
100
AcDbCircle
 10
71.718809
 20
64.565201
 30
0.0
 40
7.500123
210
0.0
220
0.0
230
1.0
100
AcDbArc
 50
343.740069
 51
16.259931
  0
LINE
  5
4A9
100
AcDbEntity
  8
0
390
0
  6
Continuous
 62
     7
100
AcDbLine
 10
78.918937
 20
66.665201
 30
0.0
 11
78.918937
 21
67.065196
 31
0.0
  0
LINE
  5
4AA
100
AcDbEntity
  8
0
390
0
  6
Continuous
 62
     7
100
AcDbLine
 10
78.918937
 20
67.065196
 30
0.0
 11
78.918937
 21
74.565201
 31
0.0
  0
LINE
  5
4AB
100
AcDbEntity
  8
0
390
0
  6
Continuous
 62
     7
100
AcDbLine
 10
93.918937
 20
74.565201
 30
0.0
 11
78.918937
 21
74.565201
 31
0.0
  0
LINE
  5
4AC
100
AcDbEntity
  8
0
390
0
  6
Continuous
 62
     7
100
AcDbLine
 10
93.918937
 20
74.565201
 30
0.0
 11
93.918937
 21
59.565201
 31
0.0
  0
CIRCLE
  5
4AD
100
AcDbEntity
  8
0
390
0
  6
Continuous
 62
     7
100
AcDbCircle
 10
86.418903
 20
64.566077
 30
0.0
 40
2.099967
210
0.0
220
0.0
230
1.0
  0
ARC
  5
4AE
100
AcDbEntity
  8
0
390
0
  6
Continuous
 62
     7
100
AcDbCircle
 10
56.566284
 20
64.565201
 30
0.0
 40
15.000376
210
0.0
220
0.0
230
1.0
100
AcDbArc
 50
351.952357
 51
8.047643
  0
LINE
  5
4AF
100
AcDbEntity
  8
0
390
0
  6
Continuous
 62
     7
100
AcDbLine
 10
71.418937
 20
62.465201
 30
0.0
 11
71.418937
 21
62.065206
 31
0.0
  0
LINE
  5
4B0
100
AcDbEntity
  8
0
390
0
  6
Continuous
 62
     7
100
AcDbLine
 10
71.418937
 20
62.065206
 30
0.0
 11
71.418937
 21
59.565201
 31
0.0
  0
LINE
  5
4B1
100
AcDbEntity
  8
0
390
0
  6
Continuous
 62
     7
100
AcDbLine
 10
101.418937
 20
59.565201
 30
0.0
 11
101.418937
 21
69.565201
 31
0.0
  0
LINE
  5
4B2
100
AcDbEntity
  8
0
390
0
  6
Continuous
 62
     7
100
AcDbLine
 10
71.418937
 20
69.565201
 30
0.0
 11
71.418937
 21
67.065196
 31
0.0
  0
LINE
  5
4B3
100
AcDbEntity
  8
0
390
0
  6
Continuous
 62
     7
100
AcDbLine
 10
71.418937
 20
67.065196
 30
0.0
 11
71.418937
 21
66.665201
 31
0.0
  0
LINE
  5
4B4
100
AcDbEntity
  8
0
390
0
  6
Continuous
 62
     7
100
AcDbLine
 10
56.418937
 20
69.565201
 30
0.0
 11
56.418937
 21
74.565201
 31
0.0
  0
LINE
  5
4B5
100
AcDbEntity
  8
0
390
0
  6
Continuous
 62
     7
100
AcDbLine
 10
56.418937
 20
69.565201
 30
0.0
 11
71.418937
 21
69.565201
 31
0.0
  0
LINE
  5
4B6
100
AcDbEntity
  8
0
390
0
  6
Continuous
 62
     7
100
AcDbLine
 10
56.418937
 20
74.565201
 30
0.0
 11
78.418937
 21
74.565201
 31
0.0
  0
LINE
  5
4B7
100
AcDbEntity
  8
0
390
0
  6
Continuous
 62
     7
100
AcDbLine
 10
93.918937
 20
74.565201
 30
0.0
 11
94.418937
 21
74.565201
 31
0.0
  0
LINE
  5
4B8
100
AcDbEntity
  8
0
390
0
  6
Continuous
 62
     7
100
AcDbLine
 10
116.418937
 20
74.565201
 30
0.0
 11
116.418937
 21
69.565201
 31
0.0
  0
LINE
  5
4B9
100
AcDbEntity
  8
0
390
0
  6
Continuous
 62
     7
100
AcDbLine
 10
93.918937
 20
59.565201
 30
0.0
 11
101.418937
 21
59.565201
 31
0.0
  0
LINE
  5
4BA
100
AcDbEntity
  8
0
390
0
  6
Continuous
 62
     7
100
AcDbLine
 10
101.418937
 20
69.565201
 30
0.0
 11
116.418937
 21
69.565201
 31
0.0
  0
LINE
  5
4BB
100
AcDbEntity
  8
0
390
0
  6
Continuous
 62
     7
100
AcDbLine
 10
78.418937
 20
74.565201
 30
0.0
 11
78.918937
 21
74.565201
 31
0.0
  0
LINE
  5
4BC
100
AcDbEntity
  8
0
390
0
  6
Continuous
 62
     7
100
AcDbLine
 10
94.418937
 20
74.565201
 30
0.0
 11
116.418937
 21
74.565201
 31
0.0
  0
LINE
  5
4BD
100
AcDbEntity
  8
0
390
0
  6
Continuous
 62
     7
100
AcDbLine
 10
71.418937
 20
59.565201
 30
0.0
 11
78.918937
 21
59.565201
 31
0.0
  0
LINE
  5
4BE
100
AcDbEntity
  8
0
390
0
  6
DOT
 62
     2
100
AcDbLine
 10
170.814437
 20
176.710895
 30
0.0
 11
168.314432
 21
176.710895
 31
0.0
  0
LINE
  5
4BF
100
AcDbEntity
  8
0
390
0
  6
DOT
 62
     2
100
AcDbLine
 10
170.814437
 20
176.710895
 30
0.0
 11
165.814427
 21
176.710895
 31
0.0
  0
LINE
  5
4C0
100
AcDbEntity
  8
0
390
0
  6
DOT
 62
     2
100
AcDbLine
 10
155.930875
 20
166.831304
 30
0.0
 11
155.930875
 21
164.331299
 31
0.0
  0
LINE
  5
4C1
100
AcDbEntity
  8
0
390
0
  6
DOT
 62
     2
100
AcDbLine
 10
155.930875
 20
166.831304
 30
0.0
 11
155.930875
 21
161.831294
 31
0.0
  0
ARC
  5
4C2
100
AcDbEntity
  8
0
390
0
  6
DOT
 62
     2
100
AcDbCircle
 10
201.762023
 20
179.20783
 30
0.0
 40
7.805638
210
0.0
220
0.0
230
1.0
100
AcDbArc
 50
270.3847
 51
289.08648
  0
LINE
  5
4C3
100
AcDbEntity
  8
0
390
0
  6
DOT
 62
     2
100
AcDbLine
 10
199.314437
 20
171.831299
 30
0.0
 11
199.351465
 21
171.819037
 31
0.0
  0
LINE
  5
4C4
100
AcDbEntity
  8
0
390
0
  6
DOT
 62
     2
100
AcDbLine
 10
201.776981
 20
171.402467
 30
0.0
 11
201.879565
 21
171.402668
 31
0.0
  0
ARC
  5
4C5
100
AcDbEntity
  8
0
390
0
  6
Continuous
 62
     2
100
AcDbCircle
 10
201.827529
 20
194.277562
 30
0.0
 40
15.156068
210
0.0
220
0.0
230
1.0
100
AcDbArc
 50
260.455462
 51
269.950489
  0
LINE
  5
4C6
100
AcDbEntity
  8
0
390
0
  6
DOT
 62
     2
100
AcDbLine
 10
201.843427
 20
179.121527
 30
0.0
 11
201.764221
 21
179.121584
 31
0.0
  0
ARC
  5
4C7
100
AcDbEntity
  8
0
390
0
  6
DOT
 62
     2
100
AcDbCircle
 10
201.86505
 20
179.197392
 30
0.0
 40
7.795188
210
0.0
220
0.0
230
1.0
100
AcDbArc
 50
250.900872
 51
269.627948
  0
ARC
  5
4C8
100
AcDbEntity
  8
0
390
0
  6
Continuous
 62
     2
100
AcDbCircle
 10
201.801309
 20
194.27787
 30
0.0
 40
15.156377
210
0.0
220
0.0
230
1.0
100
AcDbArc
 50
270.049608
 51
279.544441
  0
CIRCLE
  5
4C9
100
AcDbEntity
  8
0
390
0
  6
DOT
 62
     2
100
AcDbCircle
 10
201.814285
 20
164.332674
 30
0.0
 40
2.499854
210
0.0
220
0.0
230
1.0
  0
LINE
  5
4CA
100
AcDbEntity
  8
0
390
0
  6
DOT
 62
     2
100
AcDbLine
 10
170.814432
 20
172.585895
 30
0.0
 11
165.814432
 21
172.585895
 31
0.0
  0
LINE
  5
4CB
100
AcDbEntity
  8
0
390
0
  6
DOT
 62
     2
100
AcDbLine
 10
170.814432
 20
176.710895
 30
0.0
 11
168.314432
 21
176.710895
 31
0.0
  0
LINE
  5
4CC
100
AcDbEntity
  8
0
390
0
  6
DOT
 62
     2
100
AcDbLine
 10
168.314432
 20
176.710895
 30
0.0
 11
165.814432
 21
176.710895
 31
0.0
  0
POLYLINE
  5
4CD
100
AcDbEntity
  8
0
390
0
  6
DOT
 62
     2
100
AcDb2dPolyline
 66
     1
 10
0.0
 20
0.0
 30
0.0
 40
0.1
 41
0.1
  0
VERTEX
  5
4CE
100
AcDbEntity
  8
0
390
0
 62
     2
100
AcDbVertex
100
AcDb2dVertex
 10
167.592744
 20
177.239207
 30
0.0
  0
VERTEX
  5
4CF
100
AcDbEntity
  8
0
390
0
 62
     2
100
AcDbVertex
100
AcDb2dVertex
 10
167.533187
 20
177.267066
 30
0.0
  0
VERTEX
  5
4D0
100
AcDbEntity
  8
0
390
0
 62
     2
100
AcDbVertex
100
AcDb2dVertex
 10
167.473202
 20
177.290931
 30
0.0
  0
VERTEX
  5
4D1
100
AcDbEntity
  8
0
390
0
 62
     2
100
AcDbVertex
100
AcDb2dVertex
 10
167.412477
 20
177.310327
 30
0.0
  0
VERTEX
  5
4D2
100
AcDbEntity
  8
0
390
0
 62
     2
100
AcDbVertex
100
AcDb2dVertex
 10
167.3514
 20
177.324574
 30
0.0
  0
VERTEX
  5
4D3
100
AcDbEntity
  8
0
390
0
 62
     2
100
AcDbVertex
100
AcDb2dVertex
 10
167.288678
 20
177.333311
 30
0.0
  0
VERTEX
  5
4D4
100
AcDbEntity
  8
0
390
0
 62
     2
100
AcDbVertex
100
AcDb2dVertex
 10
167.225819
 20
177.335866
 30
0.0
  0
VERTEX
  5
4D5
100
AcDbEntity
  8
0
390
0
 62
     2
100
AcDbVertex
100
AcDb2dVertex
 10
167.162352
 20
177.332026
 30
0.0
  0
VERTEX
  5
4D6
100
AcDbEntity
  8
0
390
0
 62
     2
100
AcDbVertex
100
AcDb2dVertex
 10
167.099054
 20
177.321933
 30
0.0
  0
VERTEX
  5
4D7
100
AcDbEntity
  8
0
390
0
 62
     2
100
AcDbVertex
100
AcDb2dVertex
 10
167.041725
 20
177.307602
 30
0.0
  0
VERTEX
  5
4D8
100
AcDbEntity
  8
0
390
0
 62
     2
100
AcDbVertex
100
AcDb2dVertex
 10
166.98463
 20
177.288758
 30
0.0
  0
VERTEX
  5
4D9
100
AcDbEntity
  8
0
390
0
 62
     2
100
AcDbVertex
100
AcDb2dVertex
 10
166.927677
 20
177.265786
 30
0.0
  0
VERTEX
  5
4DA
100
AcDbEntity
  8
0
390
0
 62
     2
100
AcDbVertex
100
AcDb2dVertex
 10
166.871056
 20
177.239207
 30
0.0
  0
SEQEND
  5
4DB
100
AcDbEntity
  8
0
390
0
  0
ARC
  5
4DC
100
AcDbEntity
  8
0
390
0
  6
DOT
 62
     2
100
AcDbCircle
 10
168.314432
 20
174.592224
 30
0.0
 40
2.743602
210
0.0
220
0.0
230
1.0
100
AcDbArc
 50
74.749246
 51
105.250754
  0
POLYLINE
  5
4DD
100
AcDbEntity
  8
0
390
0
  6
DOT
 62
     2
100
AcDb2dPolyline
 66
     1
 10
0.0
 20
0.0
 30
0.0
 40
0.1
 41
0.1
  0
VERTEX
  5
4DE
100
AcDbEntity
  8
0
390
0
 62
     2
100
AcDbVertex
100
AcDb2dVertex
 10
169.757808
 20
177.239207
 30
0.0
  0
VERTEX
  5
4DF
100
AcDbEntity
  8
0
390
0
 62
     2
100
AcDbVertex
100
AcDb2dVertex
 10
169.698251
 20
177.267066
 30
0.0
  0
VERTEX
  5
4E0
100
AcDbEntity
  8
0
390
0
 62
     2
100
AcDbVertex
100
AcDb2dVertex
 10
169.638265
 20
177.290931
 30
0.0
  0
VERTEX
  5
4E1
100
AcDbEntity
  8
0
390
0
 62
     2
100
AcDbVertex
100
AcDb2dVertex
 10
169.57754
 20
177.310327
 30
0.0
  0
VERTEX
  5
4E2
100
AcDbEntity
  8
0
390
0
 62
     2
100
AcDbVertex
100
AcDb2dVertex
 10
169.516463
 20
177.324574
 30
0.0
  0
VERTEX
  5
4E3
100
AcDbEntity
  8
0
390
0
 62
     2
100
AcDbVertex
100
AcDb2dVertex
 10
169.453741
 20
177.333311
 30
0.0
  0
VERTEX
  5
4E4
100
AcDbEntity
  8
0
390
0
 62
     2
100
AcDbVertex
100
AcDb2dVertex
 10
169.390883
 20
177.335866
 30
0.0
  0
VERTEX
  5
4E5
100
AcDbEntity
  8
0
390
0
 62
     2
100
AcDbVertex
100
AcDb2dVertex
 10
169.327415
 20
177.332026
 30
0.0
  0
VERTEX
  5
4E6
100
AcDbEntity
  8
0
390
0
 62
     2
100
AcDbVertex
100
AcDb2dVertex
 10
169.264118
 20
177.321933
 30
0.0
  0
VERTEX
  5
4E7
100
AcDbEntity
  8
0
390
0
 62
     2
100
AcDbVertex
100
AcDb2dVertex
 10
169.206788
 20
177.307602
 30
0.0
  0
VERTEX
  5
4E8
100
AcDbEntity
  8
0
390
0
 62
     2
100
AcDbVertex
100
AcDb2dVertex
 10
169.149693
 20
177.288758
 30
0.0
  0
VERTEX
  5
4E9
100
AcDbEntity
  8
0
390
0
 62
     2
100
AcDbVertex
100
AcDb2dVertex
 10
169.092741
 20
177.265786
 30
0.0
  0
VERTEX
  5
4EA
100
AcDbEntity
  8
0
390
0
 62
     2
100
AcDbVertex
100
AcDb2dVertex
 10
169.03612
 20
177.239207
 30
0.0
  0
SEQEND
  5
4EB
100
AcDbEntity
  8
0
390
0
  0
LINE
  5
4EC
100
AcDbEntity
  8
0
390
0
  6
DOT
 62
     2
100
AcDbLine
 10
169.03612
 20
177.239207
 30
0.0
 11
169.03612
 21
176.710895
 31
0.0
  0
LINE
  5
4ED
100
AcDbEntity
  8
0
390
0
  6
DOT
 62
     2
100
AcDbLine
 10
169.03612
 20
176.710895
 30
0.0
 11
169.03612
 21
174.335895
 31
0.0
  0
LINE
  5
4EE
100
AcDbEntity
  8
0
390
0
  6
DOT
 62
     2
100
AcDbLine
 10
167.592744
 20
174.335895
 30
0.0
 11
169.03612
 21
174.335895
 31
0.0
  0
LINE
  5
4EF
100
AcDbEntity
  8
0
390
0
  6
DOT
 62
     2
100
AcDbLine
 10
169.03612
 20
174.335895
 30
0.0
 11
169.757808
 21
174.335895
 31
0.0
  0
LINE
  5
4F0
100
AcDbEntity
  8
0
390
0
  6
DOT
 62
     2
100
AcDbLine
 10
166.871056
 20
174.335895
 30
0.0
 11
167.592744
 21
174.335895
 31
0.0
  0
LINE
  5
4F1
100
AcDbEntity
  8
0
390
0
  6
DOT
 62
     2
100
AcDbLine
 10
167.592744
 20
177.239207
 30
0.0
 11
167.592744
 21
176.710895
 31
0.0
  0
LINE
  5
4F2
100
AcDbEntity
  8
0
390
0
  6
DOT
 62
     2
100
AcDbLine
 10
167.592744
 20
176.710895
 30
0.0
 11
167.592744
 21
174.335895
 31
0.0
  0
LINE
  5
4F3
100
AcDbEntity
  8
0
390
0
  6
DOT
 62
     2
100
AcDbLine
 10
166.871056
 20
177.239207
 30
0.0
 11
166.871056
 21
176.710895
 31
0.0
  0
LINE
  5
4F4
100
AcDbEntity
  8
0
390
0
  6
DOT
 62
     2
100
AcDbLine
 10
166.871056
 20
176.710895
 30
0.0
 11
166.871056
 21
174.335895
 31
0.0
  0
LINE
  5
4F5
100
AcDbEntity
  8
0
390
0
  6
DOT
 62
     2
100
AcDbLine
 10
169.757808
 20
177.239207
 30
0.0
 11
169.757808
 21
176.710895
 31
0.0
  0
LINE
  5
4F6
100
AcDbEntity
  8
0
390
0
  6
DOT
 62
     2
100
AcDbLine
 10
169.757808
 20
176.710895
 30
0.0
 11
169.757808
 21
174.335895
 31
0.0
  0
LINE
  5
4F7
100
AcDbEntity
  8
0
390
0
  6
DOT
 62
     2
100
AcDbLine
 10
155.930875
 20
166.831299
 30
0.0
 11
155.930875
 21
164.331299
 31
0.0
  0
LINE
  5
4F8
100
AcDbEntity
  8
0
390
0
  6
DOT
 62
     2
100
AcDbLine
 10
155.930875
 20
164.331299
 30
0.0
 11
155.930875
 21
161.831299
 31
0.0
  0
POLYLINE
  5
4F9
100
AcDbEntity
  8
0
390
0
  6
DOT
 62
     2
100
AcDb2dPolyline
 66
     1
 10
0.0
 20
0.0
 30
0.0
 40
0.1
 41
0.1
  0
VERTEX
  5
4FA
100
AcDbEntity
  8
0
390
0
 62
     2
100
AcDbVertex
100
AcDb2dVertex
 10
155.402563
 20
163.609611
 30
0.0
  0
VERTEX
  5
4FB
100
AcDbEntity
  8
0
390
0
 62
     2
100
AcDbVertex
100
AcDb2dVertex
 10
155.374704
 20
163.550054
 30
0.0
  0
VERTEX
  5
4FC
100
AcDbEntity
  8
0
390
0
 62
     2
100
AcDbVertex
100
AcDb2dVertex
 10
155.350839
 20
163.490069
 30
0.0
  0
VERTEX
  5
4FD
100
AcDbEntity
  8
0
390
0
 62
     2
100
AcDbVertex
100
AcDb2dVertex
 10
155.331443
 20
163.429343
 30
0.0
  0
VERTEX
  5
4FE
100
AcDbEntity
  8
0
390
0
 62
     2
100
AcDbVertex
100
AcDb2dVertex
 10
155.317196
 20
163.368266
 30
0.0
  0
VERTEX
  5
4FF
100
AcDbEntity
  8
0
390
0
 62
     2
100
AcDbVertex
100
AcDb2dVertex
 10
155.308459
 20
163.305545
 30
0.0
  0
VERTEX
  5
500
100
AcDbEntity
  8
0
390
0
 62
     2
100
AcDbVertex
100
AcDb2dVertex
 10
155.305904
 20
163.242686
 30
0.0
  0
VERTEX
  5
501
100
AcDbEntity
  8
0
390
0
 62
     2
100
AcDbVertex
100
AcDb2dVertex
 10
155.309744
 20
163.179218
 30
0.0
  0
VERTEX
  5
502
100
AcDbEntity
  8
0
390
0
 62
     2
100
AcDbVertex
100
AcDb2dVertex
 10
155.319837
 20
163.115921
 30
0.0
  0
VERTEX
  5
503
100
AcDbEntity
  8
0
390
0
 62
     2
100
AcDbVertex
100
AcDb2dVertex
 10
155.334168
 20
163.058591
 30
0.0
  0
VERTEX
  5
504
100
AcDbEntity
  8
0
390
0
 62
     2
100
AcDbVertex
100
AcDb2dVertex
 10
155.353011
 20
163.001496
 30
0.0
  0
VERTEX
  5
505
100
AcDbEntity
  8
0
390
0
 62
     2
100
AcDbVertex
100
AcDb2dVertex
 10
155.375984
 20
162.944544
 30
0.0
  0
VERTEX
  5
506
100
AcDbEntity
  8
0
390
0
 62
     2
100
AcDbVertex
100
AcDb2dVertex
 10
155.402563
 20
162.887923
 30
0.0
  0
SEQEND
  5
507
100
AcDbEntity
  8
0
390
0
  0
ARC
  5
508
100
AcDbEntity
  8
0
390
0
  6
DOT
 62
     2
100
AcDbCircle
 10
158.049546
 20
164.331299
 30
0.0
 40
2.743602
210
0.0
220
0.0
230
1.0
100
AcDbArc
 50
164.749246
 51
195.250754
  0
POLYLINE
  5
509
100
AcDbEntity
  8
0
390
0
  6
DOT
 62
     2
100
AcDb2dPolyline
 66
     1
 10
0.0
 20
0.0
 30
0.0
 40
0.1
 41
0.1
  0
VERTEX
  5
50A
100
AcDbEntity
  8
0
390
0
 62
     2
100
AcDbVertex
100
AcDb2dVertex
 10
155.402563
 20
165.774674
 30
0.0
  0
VERTEX
  5
50B
100
AcDbEntity
  8
0
390
0
 62
     2
100
AcDbVertex
100
AcDb2dVertex
 10
155.374704
 20
165.715118
 30
0.0
  0
VERTEX
  5
50C
100
AcDbEntity
  8
0
390
0
 62
     2
100
AcDbVertex
100
AcDb2dVertex
 10
155.350839
 20
165.655132
 30
0.0
  0
VERTEX
  5
50D
100
AcDbEntity
  8
0
390
0
 62
     2
100
AcDbVertex
100
AcDb2dVertex
 10
155.331443
 20
165.594407
 30
0.0
  0
VERTEX
  5
50E
100
AcDbEntity
  8
0
390
0
 62
     2
100
AcDbVertex
100
AcDb2dVertex
 10
155.317196
 20
165.53333
 30
0.0
  0
VERTEX
  5
50F
100
AcDbEntity
  8
0
390
0
 62
     2
100
AcDbVertex
100
AcDb2dVertex
 10
155.308459
 20
165.470608
 30
0.0
  0
VERTEX
  5
510
100
AcDbEntity
  8
0
390
0
 62
     2
100
AcDbVertex
100
AcDb2dVertex
 10
155.305904
 20
165.407749
 30
0.0
  0
VERTEX
  5
511
100
AcDbEntity
  8
0
390
0
 62
     2
100
AcDbVertex
100
AcDb2dVertex
 10
155.309744
 20
165.344282
 30
0.0
  0
VERTEX
  5
512
100
AcDbEntity
  8
0
390
0
 62
     2
100
AcDbVertex
100
AcDb2dVertex
 10
155.319837
 20
165.280984
 30
0.0
  0
VERTEX
  5
513
100
AcDbEntity
  8
0
390
0
 62
     2
100
AcDbVertex
100
AcDb2dVertex
 10
155.334168
 20
165.223655
 30
0.0
  0
VERTEX
  5
514
100
AcDbEntity
  8
0
390
0
 62
     2
100
AcDbVertex
100
AcDb2dVertex
 10
155.353011
 20
165.16656
 30
0.0
  0
VERTEX
  5
515
100
AcDbEntity
  8
0
390
0
 62
     2
100
AcDbVertex
100
AcDb2dVertex
 10
155.375984
 20
165.109607
 30
0.0
  0
VERTEX
  5
516
100
AcDbEntity
  8
0
390
0
 62
     2
100
AcDbVertex
100
AcDb2dVertex
 10
155.402563
 20
165.052986
 30
0.0
  0
SEQEND
  5
517
100
AcDbEntity
  8
0
390
0
  0
LINE
  5
518
100
AcDbEntity
  8
0
390
0
  6
DOT
 62
     2
100
AcDbLine
 10
160.055875
 20
166.831299
 30
0.0
 11
160.055875
 21
161.831299
 31
0.0
  0
LINE
  5
519
100
AcDbEntity
  8
0
390
0
  6
DOT
 62
     2
100
AcDbLine
 10
158.305875
 20
165.052986
 30
0.0
 11
158.305875
 21
165.774674
 31
0.0
  0
LINE
  5
51A
100
AcDbEntity
  8
0
390
0
  6
DOT
 62
     2
100
AcDbLine
 10
158.305875
 20
163.609611
 30
0.0
 11
158.305875
 21
165.052986
 31
0.0
  0
LINE
  5
51B
100
AcDbEntity
  8
0
390
0
  6
DOT
 62
     2
100
AcDbLine
 10
155.402563
 20
165.052986
 30
0.0
 11
155.930875
 21
165.052986
 31
0.0
  0
LINE
  5
51C
100
AcDbEntity
  8
0
390
0
  6
DOT
 62
     2
100
AcDbLine
 10
155.930875
 20
165.052986
 30
0.0
 11
158.305875
 21
165.052986
 31
0.0
  0
LINE
  5
51D
100
AcDbEntity
  8
0
390
0
  6
DOT
 62
     2
100
AcDbLine
 10
155.402563
 20
163.609611
 30
0.0
 11
155.930875
 21
163.609611
 31
0.0
  0
LINE
  5
51E
100
AcDbEntity
  8
0
390
0
  6
DOT
 62
     2
100
AcDbLine
 10
155.930875
 20
163.609611
 30
0.0
 11
158.305875
 21
163.609611
 31
0.0
  0
LINE
  5
51F
100
AcDbEntity
  8
0
390
0
  6
DOT
 62
     2
100
AcDbLine
 10
158.305875
 20
162.887923
 30
0.0
 11
158.305875
 21
163.609611
 31
0.0
  0
LINE
  5
520
100
AcDbEntity
  8
0
390
0
  6
DOT
 62
     2
100
AcDbLine
 10
155.402563
 20
165.774674
 30
0.0
 11
155.930875
 21
165.774674
 31
0.0
  0
LINE
  5
521
100
AcDbEntity
  8
0
390
0
  6
DOT
 62
     2
100
AcDbLine
 10
155.930875
 20
165.774674
 30
0.0
 11
158.305875
 21
165.774674
 31
0.0
  0
LINE
  5
522
100
AcDbEntity
  8
0
390
0
  6
DOT
 62
     2
100
AcDbLine
 10
155.402563
 20
162.887923
 30
0.0
 11
155.930875
 21
162.887923
 31
0.0
  0
LINE
  5
523
100
AcDbEntity
  8
0
390
0
  6
DOT
 62
     2
100
AcDbLine
 10
155.930875
 20
162.887923
 30
0.0
 11
158.305875
 21
162.887923
 31
0.0
  0
CIRCLE
  5
524
100
AcDbEntity
  8
0
390
0
  6
Continuous
 62
     7
100
AcDbCircle
 10
168.314432
 20
164.331299
 30
0.0
 40
7.5
210
0.0
220
0.0
230
1.0
  0
LINE
  5
525
100
AcDbEntity
  8
0
390
0
  6
Continuous
 62
     7
100
AcDbLine
 10
191.814432
 20
134.331299
 30
0.0
 11
191.814432
 21
164.331299
 31
0.0
  0
LINE
  5
526
100
AcDbEntity
  8
0
390
0
  6
Continuous
 62
     7
100
AcDbLine
 10
191.814432
 20
164.331299
 30
0.0
 11
191.814432
 21
194.331299
 31
0.0
  0
LINE
  5
527
100
AcDbEntity
  8
0
390
0
  6
Continuous
 62
     7
100
AcDbLine
 10
196.814432
 20
134.331299
 30
0.0
 11
196.814432
 21
194.331299
 31
0.0
  0
LINE
  5
528
100
AcDbEntity
  8
0
390
0
  6
Continuous
 62
     7
100
AcDbLine
 10
206.814432
 20
149.331299
 30
0.0
 11
206.814432
 21
179.331299
 31
0.0
  0
ARC
  5
529
100
AcDbEntity
  8
0
390
0
  6
DOT
 62
     2
100
AcDbCircle
 10
201.814432
 20
179.031427
 30
0.0
 40
7.500123
210
0.0
220
0.0
230
1.0
100
AcDbArc
 50
253.740069
 51
286.259931
  0
CIRCLE
  5
52A
100
AcDbEntity
  8
0
390
0
  6
DOT
 62
     2
100
AcDbCircle
 10
201.813555
 20
164.331265
 30
0.0
 40
2.099967
210
0.0
220
0.0
230
1.0
  0
LINE
  5
52B
100
AcDbEntity
  8
0
390
0
  6
DOT
 62
     2
100
AcDbLine
 10
160.455875
 20
166.431299
 30
0.0
 11
155.930875
 21
166.431299
 31
0.0
  0
LINE
  5
52C
100
AcDbEntity
  8
0
390
0
  6
DOT
 62
     2
100
AcDbLine
 10
155.930875
 20
162.231299
 30
0.0
 11
160.455875
 21
162.231299
 31
0.0
  0
LINE
  5
52D
100
AcDbEntity
  8
0
390
0
  6
DOT
 62
     2
100
AcDbLine
 10
154.437726
 20
161.831304
 30
0.0
 11
154.437832
 21
161.831304
 31
0.0
  0
LINE
  5
52E
100
AcDbEntity
  8
0
390
0
  6
DOT
 62
     2
100
AcDbLine
 10
154.437832
 20
161.831304
 30
0.0
 11
154.539454
 21
161.831304
 31
0.0
  0
LINE
  5
52F
100
AcDbEntity
  8
0
390
0
  6
DOT
 62
     2
100
AcDbLine
 10
155.930875
 20
161.831304
 30
0.0
 11
160.05588
 21
161.831304
 31
0.0
  0
LINE
  5
530
100
AcDbEntity
  8
0
390
0
  6
DOT
 62
     2
100
AcDbLine
 10
160.055894
 20
161.831304
 30
0.0
 11
161.243253
 21
161.831304
 31
0.0
  0
LINE
  5
531
100
AcDbEntity
  8
0
390
0
  6
DOT
 62
     2
100
AcDbLine
 10
161.243259
 20
166.831294
 30
0.0
 11
160.055894
 21
166.831294
 31
0.0
  0
LINE
  5
532
100
AcDbEntity
  8
0
390
0
  6
DOT
 62
     2
100
AcDbLine
 10
160.05588
 20
166.831294
 30
0.0
 11
155.930875
 21
166.831294
 31
0.0
  0
LINE
  5
533
100
AcDbEntity
  8
0
390
0
  6
DOT
 62
     2
100
AcDbLine
 10
155.930855
 20
166.831294
 30
0.0
 11
154.539454
 21
166.831294
 31
0.0
  0
LINE
  5
534
100
AcDbEntity
  8
0
390
0
  6
DOT
 62
     2
100
AcDbLine
 10
154.539454
 20
166.831294
 30
0.0
 11
154.437832
 21
166.831294
 31
0.0
  0
LINE
  5
535
100
AcDbEntity
  8
0
390
0
  6
DOT
 62
     2
100
AcDbLine
 10
165.814437
 20
178.208005
 30
0.0
 11
165.814437
 21
178.207899
 31
0.0
  0
LINE
  5
536
100
AcDbEntity
  8
0
390
0
  6
DOT
 62
     2
100
AcDbLine
 10
165.814437
 20
178.207899
 30
0.0
 11
165.814437
 21
178.106277
 31
0.0
  0
LINE
  5
537
100
AcDbEntity
  8
0
390
0
  6
DOT
 62
     2
100
AcDbLine
 10
165.814437
 20
176.710898
 30
0.0
 11
165.814437
 21
172.58589
 31
0.0
  0
LINE
  5
538
100
AcDbEntity
  8
0
390
0
  6
DOT
 62
     2
100
AcDbLine
 10
165.814437
 20
172.585876
 30
0.0
 11
165.814437
 21
171.402477
 31
0.0
  0
LINE
  5
539
100
AcDbEntity
  8
0
390
0
  6
DOT
 62
     2
100
AcDbLine
 10
170.814427
 20
171.402471
 30
0.0
 11
170.814427
 21
172.585876
 31
0.0
  0
LINE
  5
53A
100
AcDbEntity
  8
0
390
0
  6
DOT
 62
     2
100
AcDbLine
 10
170.814427
 20
172.58589
 30
0.0
 11
170.814427
 21
176.710898
 31
0.0
  0
LINE
  5
53B
100
AcDbEntity
  8
0
390
0
  6
DOT
 62
     2
100
AcDbLine
 10
170.814427
 20
176.710915
 30
0.0
 11
170.814427
 21
178.106277
 31
0.0
  0
LINE
  5
53C
100
AcDbEntity
  8
0
390
0
  6
DOT
 62
     2
100
AcDbLine
 10
170.814427
 20
178.106277
 30
0.0
 11
170.814427
 21
178.207899
 31
0.0
  0
LINE
  5
53D
100
AcDbEntity
  8
0
390
0
  6
DOT
 62
     2
100
AcDbLine
 10
199.314437
 20
179.331299
 30
0.0
 11
199.314437
 21
177.196645
 31
0.0
  0
LINE
  5
53E
100
AcDbEntity
  8
0
390
0
  6
DOT
 62
     2
100
AcDbLine
 10
199.314437
 20
171.831299
 30
0.0
 11
199.314437
 21
171.831098
 31
0.0
  0
LINE
  5
53F
100
AcDbEntity
  8
0
390
0
  6
DOT
 62
     2
100
AcDbLine
 10
204.314427
 20
171.831008
 30
0.0
 11
204.314427
 21
171.831299
 31
0.0
  0
LINE
  5
540
100
AcDbEntity
  8
0
390
0
  6
DOT
 62
     2
100
AcDbLine
 10
204.314427
 20
177.196645
 30
0.0
 11
204.314427
 21
179.331299
 31
0.0
  0
LINE
  5
541
100
AcDbEntity
  8
0
390
0
  6
DOT
 62
     2
100
AcDbLine
 10
165.814432
 20
172.585895
 30
0.0
 11
166.214432
 21
172.185895
 31
0.0
  0
LINE
  5
542
100
AcDbEntity
  8
0
390
0
  6
Continuous
 62
     7
100
AcDbLine
 10
166.736892
 20
171.663436
 30
0.0
 11
167.064432
 21
171.335895
 31
0.0
  0
LINE
  5
543
100
AcDbEntity
  8
0
390
0
  6
Continuous
 62
     7
100
AcDbLine
 10
169.564432
 20
171.335895
 30
0.0
 11
169.89197
 21
171.663433
 31
0.0
  0
LINE
  5
544
100
AcDbEntity
  8
0
390
0
  6
DOT
 62
     2
100
AcDbLine
 10
170.414432
 20
172.185895
 30
0.0
 11
170.814432
 21
172.585895
 31
0.0
  0
LINE
  5
545
100
AcDbEntity
  8
0
390
0
  6
DOT
 62
     2
100
AcDbLine
 10
170.814432
 20
176.710895
 30
0.0
 11
170.414432
 21
176.910895
 31
0.0
  0
LINE
  5
546
100
AcDbEntity
  8
0
390
0
  6
DOT
 62
     2
100
AcDbLine
 10
170.414432
 20
176.910895
 30
0.0
 11
169.757808
 21
177.239207
 31
0.0
  0
LINE
  5
547
100
AcDbEntity
  8
0
390
0
  6
DOT
 62
     2
100
AcDbLine
 10
166.871056
 20
177.239207
 30
0.0
 11
166.214432
 21
176.910895
 31
0.0
  0
LINE
  5
548
100
AcDbEntity
  8
0
390
0
  6
DOT
 62
     2
100
AcDbLine
 10
166.214432
 20
176.910895
 30
0.0
 11
165.814432
 21
176.710895
 31
0.0
  0
LINE
  5
549
100
AcDbEntity
  8
0
390
0
  6
DOT
 62
     2
100
AcDbLine
 10
169.564432
 20
171.335895
 30
0.0
 11
168.314432
 21
172.058439
 31
0.0
  0
LINE
  5
54A
100
AcDbEntity
  8
0
390
0
  6
DOT
 62
     2
100
AcDbLine
 10
168.314432
 20
172.058439
 30
0.0
 11
167.064432
 21
171.335895
 31
0.0
  0
LINE
  5
54B
100
AcDbEntity
  8
0
390
0
  6
DOT
 62
     2
100
AcDbLine
 10
155.930875
 20
166.831299
 30
0.0
 11
155.730875
 21
166.431299
 31
0.0
  0
LINE
  5
54C
100
AcDbEntity
  8
0
390
0
  6
DOT
 62
     2
100
AcDbLine
 10
155.730875
 20
166.431299
 30
0.0
 11
155.402563
 21
165.774674
 31
0.0
  0
LINE
  5
54D
100
AcDbEntity
  8
0
390
0
  6
DOT
 62
     2
100
AcDbLine
 10
155.402563
 20
162.887923
 30
0.0
 11
155.730875
 21
162.231299
 31
0.0
  0
LINE
  5
54E
100
AcDbEntity
  8
0
390
0
  6
DOT
 62
     2
100
AcDbLine
 10
155.730875
 20
162.231299
 30
0.0
 11
155.930875
 21
161.831299
 31
0.0
  0
LINE
  5
54F
100
AcDbEntity
  8
0
390
0
  6
DOT
 62
     2
100
AcDbLine
 10
160.055875
 20
161.831299
 30
0.0
 11
160.455875
 21
162.231299
 31
0.0
  0
LINE
  5
550
100
AcDbEntity
  8
0
390
0
  6
Continuous
 62
     7
100
AcDbLine
 10
160.981603
 20
162.757027
 30
0.0
 11
161.305875
 21
163.081299
 31
0.0
  0
LINE
  5
551
100
AcDbEntity
  8
0
390
0
  6
Continuous
 62
     7
100
AcDbLine
 10
161.305875
 20
165.581299
 30
0.0
 11
160.981588
 21
165.905586
 31
0.0
  0
LINE
  5
552
100
AcDbEntity
  8
0
390
0
  6
DOT
 62
     2
100
AcDbLine
 10
160.455875
 20
166.431299
 30
0.0
 11
160.055875
 21
166.831299
 31
0.0
  0
LINE
  5
553
100
AcDbEntity
  8
0
390
0
  6
DOT
 62
     2
100
AcDbLine
 10
160.055875
 20
166.831299
 30
0.0
 11
155.930875
 21
166.831299
 31
0.0
  0
LINE
  5
554
100
AcDbEntity
  8
0
390
0
  6
DOT
 62
     2
100
AcDbLine
 10
155.930875
 20
161.831299
 30
0.0
 11
160.055875
 21
161.831299
 31
0.0
  0
LINE
  5
555
100
AcDbEntity
  8
0
390
0
  6
DOT
 62
     2
100
AcDbLine
 10
161.305875
 20
165.581299
 30
0.0
 11
160.583331
 21
164.331299
 31
0.0
  0
LINE
  5
556
100
AcDbEntity
  8
0
390
0
  6
DOT
 62
     2
100
AcDbLine
 10
160.583331
 20
164.331299
 30
0.0
 11
161.305875
 21
163.081299
 31
0.0
  0
LINE
  5
557
100
AcDbEntity
  8
0
390
0
  6
DOT
 62
     2
100
AcDbLine
 10
154.371692
 20
162.231299
 30
0.0
 11
154.472828
 21
162.231299
 31
0.0
  0
LINE
  5
558
100
AcDbEntity
  8
0
390
0
  6
DOT
 62
     2
100
AcDbLine
 10
154.472828
 20
162.231299
 30
0.0
 11
155.730875
 21
162.231299
 31
0.0
  0
LINE
  5
559
100
AcDbEntity
  8
0
390
0
  6
DOT
 62
     2
100
AcDbLine
 10
155.930875
 20
162.231299
 30
0.0
 11
160.455875
 21
162.231299
 31
0.0
  0
LINE
  5
55A
100
AcDbEntity
  8
0
390
0
  6
DOT
 62
     2
100
AcDbLine
 10
160.455895
 20
162.231299
 30
0.0
 11
161.114432
 21
162.231299
 31
0.0
  0
LINE
  5
55B
100
AcDbEntity
  8
0
390
0
  6
DOT
 62
     2
100
AcDbLine
 10
161.114302
 20
166.431299
 30
0.0
 11
160.455895
 21
166.431299
 31
0.0
  0
LINE
  5
55C
100
AcDbEntity
  8
0
390
0
  6
DOT
 62
     2
100
AcDbLine
 10
160.455875
 20
166.431299
 30
0.0
 11
155.930875
 21
166.431299
 31
0.0
  0
LINE
  5
55D
100
AcDbEntity
  8
0
390
0
  6
DOT
 62
     2
100
AcDbLine
 10
155.730875
 20
166.431299
 30
0.0
 11
154.472828
 21
166.431299
 31
0.0
  0
LINE
  5
55E
100
AcDbEntity
  8
0
390
0
  6
DOT
 62
     2
100
AcDbLine
 10
154.472828
 20
166.431299
 30
0.0
 11
154.371692
 21
166.431299
 31
0.0
  0
LINE
  5
55F
100
AcDbEntity
  8
0
390
0
  6
DOT
 62
     2
100
AcDbLine
 10
166.214432
 20
178.274039
 30
0.0
 11
166.214432
 21
178.172903
 31
0.0
  0
LINE
  5
560
100
AcDbEntity
  8
0
390
0
  6
DOT
 62
     2
100
AcDbLine
 10
166.214432
 20
178.172903
 30
0.0
 11
166.214432
 21
176.910895
 31
0.0
  0
LINE
  5
561
100
AcDbEntity
  8
0
390
0
  6
DOT
 62
     2
100
AcDbLine
 10
166.214432
 20
176.710895
 30
0.0
 11
166.214432
 21
172.185895
 31
0.0
  0
LINE
  5
562
100
AcDbEntity
  8
0
390
0
  6
DOT
 62
     2
100
AcDbLine
 10
166.214432
 20
172.185875
 30
0.0
 11
166.214432
 21
171.531299
 31
0.0
  0
LINE
  5
563
100
AcDbEntity
  8
0
390
0
  6
DOT
 62
     2
100
AcDbLine
 10
170.414432
 20
171.531428
 30
0.0
 11
170.414432
 21
172.185875
 31
0.0
  0
LINE
  5
564
100
AcDbEntity
  8
0
390
0
  6
DOT
 62
     2
100
AcDbLine
 10
170.414432
 20
172.185895
 30
0.0
 11
170.414432
 21
176.710895
 31
0.0
  0
LINE
  5
565
100
AcDbEntity
  8
0
390
0
  6
DOT
 62
     2
100
AcDbLine
 10
170.414432
 20
176.910895
 30
0.0
 11
170.414432
 21
178.172903
 31
0.0
  0
LINE
  5
566
100
AcDbEntity
  8
0
390
0
  6
DOT
 62
     2
100
AcDbLine
 10
170.414432
 20
178.172903
 30
0.0
 11
170.414432
 21
178.274039
 31
0.0
  0
LINE
  5
567
100
AcDbEntity
  8
0
390
0
  6
Continuous
 62
     7
100
AcDbLine
 10
191.814432
 20
134.331299
 30
0.0
 11
196.814432
 21
134.331299
 31
0.0
  0
LINE
  5
568
100
AcDbEntity
  8
0
390
0
  6
Continuous
 62
     7
100
AcDbLine
 10
196.814432
 20
194.331299
 30
0.0
 11
191.814432
 21
194.331299
 31
0.0
  0
LINE
  5
569
100
AcDbEntity
  8
0
390
0
  6
Continuous
 62
     7
100
AcDbLine
 10
199.71461
 20
179.331299
 30
0.0
 11
199.714432
 21
179.331299
 31
0.0
  0
LINE
  5
56A
100
AcDbEntity
  8
0
390
0
  6
DOT
 62
     2
100
AcDbLine
 10
199.714432
 20
179.331299
 30
0.0
 11
199.315576
 21
179.331299
 31
0.0
  0
LINE
  5
56B
100
AcDbEntity
  8
0
390
0
  6
DOT
 62
     2
100
AcDbLine
 10
199.315576
 20
179.331299
 30
0.0
 11
199.314776
 21
179.331299
 31
0.0
  0
LINE
  5
56C
100
AcDbEntity
  8
0
390
0
  6
DOT
 62
     2
100
AcDbLine
 10
199.314776
 20
179.331299
 30
0.0
 11
199.314437
 21
179.331299
 31
0.0
  0
LINE
  5
56D
100
AcDbEntity
  8
0
390
0
  6
Continuous
 62
     7
100
AcDbLine
 10
199.314437
 20
179.331299
 30
0.0
 11
196.814432
 21
179.331299
 31
0.0
  0
LINE
  5
56E
100
AcDbEntity
  8
0
390
0
  6
Continuous
 62
     7
100
AcDbLine
 10
206.814432
 20
179.331299
 30
0.0
 11
204.314427
 21
179.331299
 31
0.0
  0
LINE
  5
56F
100
AcDbEntity
  8
0
390
0
  6
DOT
 62
     2
100
AcDbLine
 10
204.314427
 20
179.331299
 30
0.0
 11
204.313828
 21
179.331299
 31
0.0
  0
LINE
  5
570
100
AcDbEntity
  8
0
390
0
  6
DOT
 62
     2
100
AcDbLine
 10
204.313828
 20
179.331299
 30
0.0
 11
204.313137
 21
179.331299
 31
0.0
  0
LINE
  5
571
100
AcDbEntity
  8
0
390
0
  6
DOT
 62
     2
100
AcDbLine
 10
204.313137
 20
179.331299
 30
0.0
 11
203.914432
 21
179.331299
 31
0.0
  0
LINE
  5
572
100
AcDbEntity
  8
0
390
0
  6
Continuous
 62
     7
100
AcDbLine
 10
203.914432
 20
179.331299
 30
0.0
 11
203.913976
 21
179.331299
 31
0.0
  0
LINE
  5
573
100
AcDbEntity
  8
0
390
0
  6
Continuous
 62
     7
100
AcDbLine
 10
196.814432
 20
149.331299
 30
0.0
 11
206.814432
 21
149.331299
 31
0.0
  0
LINE
  5
574
100
AcDbEntity
  8
0
390
0
  6
DOT
 62
     2
100
AcDbLine
 10
191.814432
 20
156.831299
 30
0.0
 11
206.814432
 21
156.831299
 31
0.0
  0
LINE
  5
575
100
AcDbEntity
  8
0
390
0
  6
DOT
 62
     2
100
AcDbLine
 10
199.714816
 20
171.831299
 30
0.0
 11
199.714432
 21
171.831299
 31
0.0
  0
LINE
  5
576
100
AcDbEntity
  8
0
390
0
  6
DOT
 62
     2
100
AcDbLine
 10
199.714432
 20
171.831299
 30
0.0
 11
199.314437
 21
171.831299
 31
0.0
  0
LINE
  5
577
100
AcDbEntity
  8
0
390
0
  6
DOT
 62
     2
100
AcDbLine
 10
199.314437
 20
171.831299
 30
0.0
 11
191.814432
 21
171.831299
 31
0.0
  0
LINE
  5
578
100
AcDbEntity
  8
0
390
0
  6
DOT
 62
     2
100
AcDbLine
 10
206.814432
 20
171.831299
 30
0.0
 11
204.314427
 21
171.831299
 31
0.0
  0
LINE
  5
579
100
AcDbEntity
  8
0
390
0
  6
DOT
 62
     2
100
AcDbLine
 10
204.314427
 20
171.831299
 30
0.0
 11
203.914432
 21
171.831299
 31
0.0
  0
LINE
  5
57A
100
AcDbEntity
  8
0
390
0
  6
DOT
 62
     2
100
AcDbLine
 10
203.914432
 20
171.831299
 30
0.0
 11
203.914117
 21
171.831299
 31
0.0
  0
LINE
  5
57B
100
AcDbEntity
  8
0
390
0
  6
DOT
 62
     2
100
AcDbLine
 10
199.714432
 20
179.331299
 30
0.0
 11
199.714432
 21
177.396626
 31
0.0
  0
LINE
  5
57C
100
AcDbEntity
  8
0
390
0
  6
DOT
 62
     2
100
AcDbLine
 10
199.714432
 20
171.831299
 30
0.0
 11
199.714432
 21
171.831191
 31
0.0
  0
LINE
  5
57D
100
AcDbEntity
  8
0
390
0
  6
DOT
 62
     2
100
AcDbLine
 10
203.914432
 20
171.831299
 30
0.0
 11
203.914432
 21
172.671606
 31
0.0
  0
LINE
  5
57E
100
AcDbEntity
  8
0
390
0
  6
Continuous
 62
     7
100
AcDbLine
 10
255.42038
 20
168.672974
 30
0.0
 11
255.296976
 21
168.892028
 31
0.0
  0
LINE
  5
57F
100
AcDbEntity
  8
0
390
0
  6
Continuous
 62
     7
100
AcDbLine
 10
256.745865
 20
169.116172
 30
0.0
 11
256.889371
 21
168.850338
 31
0.0
  0
LINE
  5
580
100
AcDbEntity
  8
0
390
0
  6
Continuous
 62
     7
100
AcDbLine
 10
255.909348
 20
169.245581
 30
0.0
 11
256.745865
 21
169.116172
 31
0.0
  0
LINE
  5
581
100
AcDbEntity
  8
0
390
0
  6
Continuous
 62
     7
100
AcDbLine
 10
255.296976
 20
168.892028
 30
0.0
 11
255.909348
 21
169.245581
 31
0.0
  0
LINE
  5
582
100
AcDbEntity
  8
0
390
0
  6
Continuous
 62
     7
100
AcDbLine
 10
256.745865
 20
169.116172
 30
0.0
 11
256.745865
 21
168.737414
 31
0.0
  0
LINE
  5
583
100
AcDbEntity
  8
0
390
0
  6
Continuous
 62
     7
100
AcDbLine
 10
255.909348
 20
169.245581
 30
0.0
 11
255.909348
 21
168.578991
 31
0.0
  0
LINE
  5
584
100
AcDbEntity
  8
0
390
0
  6
Continuous
 62
     7
100
AcDbLine
 10
250.65545
 20
158.569205
 30
0.0
 11
250.12512
 21
159.228944
 31
0.0
  0
LINE
  5
585
100
AcDbEntity
  8
0
390
0
  6
Continuous
 62
     7
100
AcDbLine
 10
250.959059
 20
158.578056
 30
0.0
 11
250.65545
 21
158.569205
 31
0.0
  0
LINE
  5
586
100
AcDbEntity
  8
0
390
0
  6
Continuous
 62
     7
100
AcDbLine
 10
250.12512
 20
159.936051
 30
0.0
 11
250.378975
 21
159.938966
 31
0.0
  0
LINE
  5
587
100
AcDbEntity
  8
0
390
0
  6
Continuous
 62
     7
100
AcDbLine
 10
250.12512
 20
159.228944
 30
0.0
 11
250.12512
 21
159.936051
 31
0.0
  0
LINE
  5
588
100
AcDbEntity
  8
0
390
0
  6
Continuous
 62
     7
100
AcDbLine
 10
250.65545
 20
158.569205
 30
0.0
 11
250.985144
 21
158.759554
 31
0.0
  0
LINE
  5
589
100
AcDbEntity
  8
0
390
0
  6
Continuous
 62
     7
100
AcDbLine
 10
250.12512
 20
159.228944
 30
0.0
 11
250.704069
 21
159.5632
 31
0.0
  0
ELLIPSE
  5
58A
100
AcDbEntity
  8
0
390
0
  6
Continuous
 62
     7
100
AcDbEllipse
 10
267.588622
 20
155.825438
 30
0.0
 11
2.2500000000000298
 21
3.8971143170299927
 31
0.0
210
0.0
220
0.0
230
1.0
 40
0.57735
 41
5.4977871437821459
 42
6.2831853071795747
  0
ELLIPSE
  5
58B
100
AcDbEntity
  8
0
390
0
  6
Continuous
 62
     7
100
AcDbEllipse
 10
267.588622
 20
155.825438
 30
0.0
 11
2.2500000000000298
 21
3.8971143170299927
 31
0.0
210
0.0
220
0.0
230
1.0
 40
0.57735
 41
3.1415926535898171
 42
5.4977871437821459
  0
ELLIPSE
  5
58C
100
AcDbEntity
  8
0
390
0
  6
Continuous
 62
     7
100
AcDbEllipse
 10
267.588622
 20
155.825438
 30
0.0
 11
2.2500000000000298
 21
3.8971143170299927
 31
0.0
210
0.0
220
0.0
230
1.0
 40
0.57735
 41
6.2831853071795747
 42
9.4247779607694024
  0
ELLIPSE
  5
58D
100
AcDbEntity
  8
0
390
0
  6
Continuous
 62
     7
100
AcDbEllipse
 10
264.830906
 20
168.930208
 30
0.0
 11
-2.2499999999999742
 21
3.8971143170299651
 31
0.0
210
0.0
220
0.0
230
1.0
 40
0.57735
 41
0.2898296569051722
 42
0.7853981633974502
  0
ELLIPSE
  5
58E
100
AcDbEntity
  8
0
390
0
  6
Continuous
 62
     7
100
AcDbEllipse
 10
264.830906
 20
168.930208
 30
0.0
 11
9.0000000000000071
 21
-15.588457268119916
 31
0.0
210
0.0
220
0.0
230
1.0
 40
0.57735
 41
0.0000000000000007
 42
0.7853981633974491
  0
ELLIPSE
  5
58F
100
AcDbEntity
  8
0
390
0
  6
Continuous
 62
     7
100
AcDbEllipse
 10
264.830906
 20
168.930208
 30
0.0
 11
9.0000000000000071
 21
-15.588457268119916
 31
0.0
210
0.0
220
0.0
230
1.0
 40
0.57735
 41
0.7853981633974491
 42
3.141592653589794
  0
ELLIPSE
  5
590
100
AcDbEntity
  8
0
390
0
  6
Continuous
 62
     7
100
AcDbEllipse
 10
266.952226
 20
170.154953
 30
0.0
 11
9.0000000000000071
 21
-15.588457268119916
 31
0.0
210
0.0
220
0.0
230
1.0
 40
0.57735
 41
0.0
 42
3.141592653589794
  0
LINE
  5
591
100
AcDbEntity
  8
0
390
0
  6
Continuous
 62
     7
100
AcDbLine
 10
273.830906
 20
153.341751
 30
0.0
 11
275.952226
 21
154.566496
 31
0.0
  0
LINE
  5
592
100
AcDbEntity
  8
0
390
0
  6
Continuous
 62
     7
100
AcDbLine
 10
257.952226
 20
185.74341
 30
0.0
 11
255.830906
 21
184.518666
 31
0.0
  0
DIMENSION
  5
593
100
AcDbEntity
  8
0
390
0
100
AcDbDimension
  2
*D26
 10
56.418937
 20
45.417654
 30
0.0
 11
127.006437
 21
48.726745
 31
0.0
 71
     5
 72
     1
 41
1.0
 42
0.0
  3
Standard
100
AcDbAlignedDimension
 13
56.418937
 23
69.565201
 33
0.0
 14
116.418937
 24
69.565201
 34
0.0
100
AcDbRotatedDimension
1001
ACAD
1000
DSTYLE
1002
{
1070
     3
1000
%%c<>
1070
   280
1040
0.0
1070
   271
1070
     1
1070
   179
1070
     1
1002
}
  0
LINE
  5
5A5
100
AcDbEntity
  8
0
390
0
  6
DOT
 62
     2
100
AcDbLine
 10
88.918942
 20
177.196626
 30
0.0
 11
83.918932
 21
177.196626
 31
0.0
  0
LINE
  5
5A6
100
AcDbEntity
  8
0
390
0
  6
DOT
 62
     2
100
AcDbLine
 10
73.545137
 20
166.831304
 30
0.0
 11
73.545137
 21
161.831294
 31
0.0
  0
LINE
  5
5A7
100
AcDbEntity
  8
0
390
0
  6
DOT
 62
     2
100
AcDbLine
 10
73.545137
 20
166.831304
 30
0.0
 11
73.545137
 21
161.831294
 31
0.0
  0
LINE
  5
5A8
100
AcDbEntity
  8
0
390
0
  6
DOT
 62
     2
100
AcDbLine
 10
91.918942
 20
176.710895
 30
0.0
 11
86.918932
 21
176.710895
 31
0.0
  0
LINE
  5
5A9
100
AcDbEntity
  8
0
390
0
  6
DOT
 62
     2
100
AcDbLine
 10
91.918942
 20
176.710895
 30
0.0
 11
86.918932
 21
176.710895
 31
0.0
  0
LINE
  5
5AA
100
AcDbEntity
  8
0
390
0
  6
DOT
 62
     2
100
AcDbLine
 10
88.918937
 20
173.071626
 30
0.0
 11
83.918937
 21
173.071626
 31
0.0
  0
LINE
  5
5AB
100
AcDbEntity
  8
0
390
0
  6
DOT
 62
     2
100
AcDbLine
 10
88.918937
 20
177.196626
 30
0.0
 11
83.918937
 21
177.196626
 31
0.0
  0
LINE
  5
5AC
100
AcDbEntity
  8
0
390
0
  6
DOT
 62
     2
100
AcDbLine
 10
87.668937
 20
171.821626
 30
0.0
 11
86.897291
 21
171.821626
 31
0.0
  0
LINE
  5
5AD
100
AcDbEntity
  8
0
390
0
  6
DOT
 62
     2
100
AcDbLine
 10
86.897291
 20
171.821626
 30
0.0
 11
86.799718
 21
171.821626
 31
0.0
  0
LINE
  5
5AE
100
AcDbEntity
  8
0
390
0
  6
DOT
 62
     2
100
AcDbLine
 10
86.038156
 20
171.821626
 30
0.0
 11
85.168937
 21
171.821626
 31
0.0
  0
LINE
  5
5AF
100
AcDbEntity
  8
0
390
0
  6
DOT
 62
     2
100
AcDbLine
 10
87.668937
 20
177.821626
 30
0.0
 11
87.668937
 21
177.724938
 31
0.0
  0
LINE
  5
5B0
100
AcDbEntity
  8
0
390
0
  6
DOT
 62
     2
100
AcDbLine
 10
85.168937
 20
177.724938
 30
0.0
 11
85.168937
 21
177.821626
 31
0.0
  0
ARC
  5
5B1
100
AcDbEntity
  8
0
390
0
  6
DOT
 62
     2
100
AcDbCircle
 10
85.793937
 20
175.749209
 30
0.0
 40
2.072229
210
0.0
220
0.0
230
1.0
100
AcDbArc
 50
72.445814
 51
107.554186
  0
ARC
  5
5B2
100
AcDbEntity
  8
0
390
0
  6
DOT
 62
     2
100
AcDbCircle
 10
87.043937
 20
175.749209
 30
0.0
 40
2.072229
210
0.0
220
0.0
230
1.0
100
AcDbArc
 50
72.445814
 51
107.554186
  0
LINE
  5
5B3
100
AcDbEntity
  8
0
390
0
  6
DOT
 62
     2
100
AcDbLine
 10
86.418937
 20
174.821626
 30
0.0
 11
86.918937
 21
174.821626
 31
0.0
  0
LINE
  5
5B4
100
AcDbEntity
  8
0
390
0
  6
DOT
 62
     2
100
AcDbLine
 10
86.918937
 20
174.821626
 30
0.0
 11
87.318937
 21
174.821626
 31
0.0
  0
LINE
  5
5B5
100
AcDbEntity
  8
0
390
0
  6
DOT
 62
     2
100
AcDbLine
 10
87.318937
 20
174.821626
 30
0.0
 11
87.668937
 21
174.821626
 31
0.0
  0
LINE
  5
5B6
100
AcDbEntity
  8
0
390
0
  6
DOT
 62
     2
100
AcDbLine
 10
86.418937
 20
177.724938
 30
0.0
 11
86.418937
 21
177.196626
 31
0.0
  0
LINE
  5
5B7
100
AcDbEntity
  8
0
390
0
  6
DOT
 62
     2
100
AcDbLine
 10
86.418937
 20
177.196626
 30
0.0
 11
86.418937
 21
174.821626
 31
0.0
  0
LINE
  5
5B8
100
AcDbEntity
  8
0
390
0
  6
DOT
 62
     2
100
AcDbLine
 10
85.168937
 20
174.821626
 30
0.0
 11
86.418937
 21
174.821626
 31
0.0
  0
LINE
  5
5B9
100
AcDbEntity
  8
0
390
0
  6
DOT
 62
     2
100
AcDbLine
 10
87.668937
 20
177.724938
 30
0.0
 11
87.668937
 21
177.196626
 31
0.0
  0
LINE
  5
5BA
100
AcDbEntity
  8
0
390
0
  6
DOT
 62
     2
100
AcDbLine
 10
87.668937
 20
177.196626
 30
0.0
 11
87.668937
 21
177.085895
 31
0.0
  0
LINE
  5
5BB
100
AcDbEntity
  8
0
390
0
  6
DOT
 62
     2
100
AcDbLine
 10
87.668937
 20
177.085895
 30
0.0
 11
87.668937
 21
174.821626
 31
0.0
  0
LINE
  5
5BC
100
AcDbEntity
  8
0
390
0
  6
DOT
 62
     2
100
AcDbLine
 10
85.168937
 20
177.724938
 30
0.0
 11
85.168937
 21
177.196626
 31
0.0
  0
LINE
  5
5BD
100
AcDbEntity
  8
0
390
0
  6
DOT
 62
     2
100
AcDbLine
 10
85.168937
 20
177.196626
 30
0.0
 11
85.168937
 21
174.821626
 31
0.0
  0
LINE
  5
5BE
100
AcDbEntity
  8
0
390
0
  6
DOT
 62
     2
100
AcDbLine
 10
78.920137
 20
165.581299
 30
0.0
 11
78.920137
 21
164.465475
 31
0.0
  0
LINE
  5
5BF
100
AcDbEntity
  8
0
390
0
  6
DOT
 62
     2
100
AcDbLine
 10
78.920137
 20
164.197123
 30
0.0
 11
78.920137
 21
163.081299
 31
0.0
  0
LINE
  5
5C0
100
AcDbEntity
  8
0
390
0
  6
DOT
 62
     2
100
AcDbLine
 10
77.670137
 20
166.831299
 30
0.0
 11
77.670137
 21
161.831299
 31
0.0
  0
LINE
  5
5C1
100
AcDbEntity
  8
0
390
0
  6
DOT
 62
     2
100
AcDbLine
 10
73.545137
 20
166.831299
 30
0.0
 11
73.545137
 21
161.831299
 31
0.0
  0
LINE
  5
5C2
100
AcDbEntity
  8
0
390
0
  6
DOT
 62
     2
100
AcDbLine
 10
72.920137
 20
165.581299
 30
0.0
 11
73.016825
 21
165.581299
 31
0.0
  0
LINE
  5
5C3
100
AcDbEntity
  8
0
390
0
  6
DOT
 62
     2
100
AcDbLine
 10
73.016825
 20
163.081299
 30
0.0
 11
72.920137
 21
163.081299
 31
0.0
  0
ARC
  5
5C4
100
AcDbEntity
  8
0
390
0
  6
DOT
 62
     2
100
AcDbCircle
 10
74.992555
 20
163.706299
 30
0.0
 40
2.072229
210
0.0
220
0.0
230
1.0
100
AcDbArc
 50
162.445814
 51
197.554186
  0
ARC
  5
5C5
100
AcDbEntity
  8
0
390
0
  6
DOT
 62
     2
100
AcDbCircle
 10
74.992555
 20
164.956299
 30
0.0
 40
2.072229
210
0.0
220
0.0
230
1.0
100
AcDbArc
 50
162.445814
 51
197.554186
  0
LINE
  5
5C6
100
AcDbEntity
  8
0
390
0
  6
DOT
 62
     2
100
AcDbLine
 10
75.920137
 20
163.081299
 30
0.0
 11
75.920137
 21
164.331299
 31
0.0
  0
LINE
  5
5C7
100
AcDbEntity
  8
0
390
0
  6
DOT
 62
     2
100
AcDbLine
 10
75.920137
 20
164.331299
 30
0.0
 11
75.920137
 21
165.581299
 31
0.0
  0
LINE
  5
5C8
100
AcDbEntity
  8
0
390
0
  6
DOT
 62
     2
100
AcDbLine
 10
73.016825
 20
164.331299
 30
0.0
 11
73.545137
 21
164.331299
 31
0.0
  0
LINE
  5
5C9
100
AcDbEntity
  8
0
390
0
  6
DOT
 62
     2
100
AcDbLine
 10
73.545137
 20
164.331299
 30
0.0
 11
75.920137
 21
164.331299
 31
0.0
  0
LINE
  5
5CA
100
AcDbEntity
  8
0
390
0
  6
DOT
 62
     2
100
AcDbLine
 10
73.016825
 20
163.081299
 30
0.0
 11
73.545137
 21
163.081299
 31
0.0
  0
LINE
  5
5CB
100
AcDbEntity
  8
0
390
0
  6
DOT
 62
     2
100
AcDbLine
 10
73.545137
 20
163.081299
 30
0.0
 11
75.920137
 21
163.081299
 31
0.0
  0
LINE
  5
5CC
100
AcDbEntity
  8
0
390
0
  6
DOT
 62
     2
100
AcDbLine
 10
73.016825
 20
165.581299
 30
0.0
 11
73.545137
 21
165.581299
 31
0.0
  0
LINE
  5
5CD
100
AcDbEntity
  8
0
390
0
  6
DOT
 62
     2
100
AcDbLine
 10
73.545137
 20
165.581299
 30
0.0
 11
75.920137
 21
165.581299
 31
0.0
  0
LINE
  5
5CE
100
AcDbEntity
  8
0
390
0
  6
DOT
 62
     2
100
AcDbLine
 10
83.918942
 20
177.196626
 30
0.0
 11
83.918942
 21
173.071626
 31
0.0
  0
LINE
  5
5CF
100
AcDbEntity
  8
0
390
0
  6
DOT
 62
     2
100
AcDbLine
 10
83.918942
 20
173.071607
 30
0.0
 11
83.918942
 21
171.930642
 31
0.0
  0
LINE
  5
5D0
100
AcDbEntity
  8
0
390
0
  6
DOT
 62
     2
100
AcDbLine
 10
73.545137
 20
161.831304
 30
0.0
 11
77.670137
 21
161.831304
 31
0.0
  0
LINE
  5
5D1
100
AcDbEntity
  8
0
390
0
  6
DOT
 62
     2
100
AcDbLine
 10
77.670157
 20
161.831304
 30
0.0
 11
78.819593
 21
161.831304
 31
0.0
  0
LINE
  5
5D2
100
AcDbEntity
  8
0
390
0
  6
DOT
 62
     2
100
AcDbLine
 10
78.819593
 20
166.831294
 30
0.0
 11
77.670157
 21
166.831294
 31
0.0
  0
LINE
  5
5D3
100
AcDbEntity
  8
0
390
0
  6
DOT
 62
     2
100
AcDbLine
 10
77.670137
 20
166.831294
 30
0.0
 11
73.545137
 21
166.831294
 31
0.0
  0
LINE
  5
5D4
100
AcDbEntity
  8
0
390
0
  6
DOT
 62
     2
100
AcDbLine
 10
83.918937
 20
173.071626
 30
0.0
 11
84.318937
 21
172.671626
 31
0.0
  0
LINE
  5
5D5
100
AcDbEntity
  8
0
390
0
  6
DOT
 62
     2
100
AcDbLine
 10
84.318937
 20
172.671626
 30
0.0
 11
84.418937
 21
172.571626
 31
0.0
  0
LINE
  5
5D6
100
AcDbEntity
  8
0
390
0
  6
DOT
 62
     2
100
AcDbLine
 10
84.418937
 20
172.571626
 30
0.0
 11
84.820565
 21
172.169998
 31
0.0
  0
LINE
  5
5D7
100
AcDbEntity
  8
0
390
0
  6
DOT
 62
     2
100
AcDbLine
 10
84.820565
 20
172.169998
 30
0.0
 11
85.159264
 21
171.831299
 31
0.0
  0
LINE
  5
5D8
100
AcDbEntity
  8
0
390
0
  6
DOT
 62
     2
100
AcDbLine
 10
85.159264
 20
171.831299
 30
0.0
 11
85.168937
 21
171.821626
 31
0.0
  0
LINE
  5
5D9
100
AcDbEntity
  8
0
390
0
  6
DOT
 62
     2
100
AcDbLine
 10
87.668937
 20
171.821626
 30
0.0
 11
87.676072
 21
171.828761
 31
0.0
  0
LINE
  5
5DA
100
AcDbEntity
  8
0
390
0
  6
DOT
 62
     2
100
AcDbLine
 10
87.676072
 20
171.828761
 30
0.0
 11
88.017309
 21
172.169998
 31
0.0
  0
LINE
  5
5DB
100
AcDbEntity
  8
0
390
0
  6
DOT
 62
     2
100
AcDbLine
 10
88.033206
 20
172.185895
 30
0.0
 11
88.518937
 21
172.671626
 31
0.0
  0
LINE
  5
5DC
100
AcDbEntity
  8
0
390
0
  6
DOT
 62
     2
100
AcDbLine
 10
88.518937
 20
172.671626
 30
0.0
 11
88.918937
 21
173.071626
 31
0.0
  0
LINE
  5
5DD
100
AcDbEntity
  8
0
390
0
  6
DOT
 62
     2
100
AcDbLine
 10
88.918937
 20
177.196626
 30
0.0
 11
88.518937
 21
177.396626
 31
0.0
  0
LINE
  5
5DE
100
AcDbEntity
  8
0
390
0
  6
DOT
 62
     2
100
AcDbLine
 10
88.518937
 20
177.396626
 30
0.0
 11
87.668937
 21
177.821626
 31
0.0
  0
LINE
  5
5DF
100
AcDbEntity
  8
0
390
0
  6
DOT
 62
     2
100
AcDbLine
 10
85.168937
 20
177.821626
 30
0.0
 11
84.318937
 21
177.396626
 31
0.0
  0
LINE
  5
5E0
100
AcDbEntity
  8
0
390
0
  6
DOT
 62
     2
100
AcDbLine
 10
84.318937
 20
177.396626
 30
0.0
 11
83.918937
 21
177.196626
 31
0.0
  0
LINE
  5
5E1
100
AcDbEntity
  8
0
390
0
  6
DOT
 62
     2
100
AcDbLine
 10
87.668937
 20
171.821626
 30
0.0
 11
87.318937
 21
172.023938
 31
0.0
  0
LINE
  5
5E2
100
AcDbEntity
  8
0
390
0
  6
DOT
 62
     2
100
AcDbLine
 10
87.318937
 20
172.023938
 30
0.0
 11
86.918942
 21
172.255149
 31
0.0
  0
LINE
  5
5E3
100
AcDbEntity
  8
0
390
0
  6
DOT
 62
     2
100
AcDbLine
 10
86.918942
 20
172.255149
 30
0.0
 11
86.418937
 21
172.544169
 31
0.0
  0
LINE
  5
5E4
100
AcDbEntity
  8
0
390
0
  6
DOT
 62
     2
100
AcDbLine
 10
86.418937
 20
172.544169
 30
0.0
 11
85.18567
 21
171.831299
 31
0.0
  0
LINE
  5
5E5
100
AcDbEntity
  8
0
390
0
  6
DOT
 62
     2
100
AcDbLine
 10
85.18567
 20
171.831299
 30
0.0
 11
85.168937
 21
171.821626
 31
0.0
  0
LINE
  5
5E6
100
AcDbEntity
  8
0
390
0
  6
DOT
 62
     2
100
AcDbLine
 10
77.670137
 20
161.831299
 30
0.0
 11
78.070137
 21
162.231299
 31
0.0
  0
LINE
  5
5E7
100
AcDbEntity
  8
0
390
0
  6
DOT
 62
     2
100
AcDbLine
 10
78.070137
 20
162.231299
 30
0.0
 11
78.578805
 21
162.739967
 31
0.0
  0
LINE
  5
5E8
100
AcDbEntity
  8
0
390
0
  6
DOT
 62
     2
100
AcDbLine
 10
78.578805
 20
162.739967
 30
0.0
 11
78.920137
 21
163.081299
 31
0.0
  0
LINE
  5
5E9
100
AcDbEntity
  8
0
390
0
  6
DOT
 62
     2
100
AcDbLine
 10
78.920137
 20
165.581299
 30
0.0
 11
78.578805
 21
165.922631
 31
0.0
  0
LINE
  5
5EA
100
AcDbEntity
  8
0
390
0
  6
DOT
 62
     2
100
AcDbLine
 10
78.578805
 20
165.922631
 30
0.0
 11
78.070137
 21
166.431299
 31
0.0
  0
LINE
  5
5EB
100
AcDbEntity
  8
0
390
0
  6
DOT
 62
     2
100
AcDbLine
 10
78.070137
 20
166.431299
 30
0.0
 11
77.670137
 21
166.831299
 31
0.0
  0
LINE
  5
5EC
100
AcDbEntity
  8
0
390
0
  6
DOT
 62
     2
100
AcDbLine
 10
73.545137
 20
166.831299
 30
0.0
 11
73.345137
 21
166.431299
 31
0.0
  0
LINE
  5
5ED
100
AcDbEntity
  8
0
390
0
  6
DOT
 62
     2
100
AcDbLine
 10
73.345137
 20
166.431299
 30
0.0
 11
72.920137
 21
165.581299
 31
0.0
  0
LINE
  5
5EE
100
AcDbEntity
  8
0
390
0
  6
DOT
 62
     2
100
AcDbLine
 10
72.920137
 20
163.081299
 30
0.0
 11
73.345137
 21
162.231299
 31
0.0
  0
LINE
  5
5EF
100
AcDbEntity
  8
0
390
0
  6
DOT
 62
     2
100
AcDbLine
 10
73.345137
 20
162.231299
 30
0.0
 11
73.545137
 21
161.831299
 31
0.0
  0
LINE
  5
5F0
100
AcDbEntity
  8
0
390
0
  6
DOT
 62
     2
100
AcDbLine
 10
78.920137
 20
165.581299
 30
0.0
 11
78.197594
 21
164.331299
 31
0.0
  0
LINE
  5
5F1
100
AcDbEntity
  8
0
390
0
  6
DOT
 62
     2
100
AcDbLine
 10
78.197594
 20
164.331299
 30
0.0
 11
78.920137
 21
163.081299
 31
0.0
  0
LINE
  5
5F2
100
AcDbEntity
  8
0
390
0
  6
DOT
 62
     2
100
AcDbLine
 10
73.345137
 20
162.231299
 30
0.0
 11
73.545117
 21
162.231299
 31
0.0
  0
LINE
  5
5F3
100
AcDbEntity
  8
0
390
0
  6
DOT
 62
     2
100
AcDbLine
 10
73.545137
 20
162.231299
 30
0.0
 11
78.070137
 21
162.231299
 31
0.0
  0
LINE
  5
5F4
100
AcDbEntity
  8
0
390
0
  6
DOT
 62
     2
100
AcDbLine
 10
78.070157
 20
162.231299
 30
0.0
 11
78.699481
 21
162.231299
 31
0.0
  0
LINE
  5
5F5
100
AcDbEntity
  8
0
390
0
  6
DOT
 62
     2
100
AcDbLine
 10
78.699481
 20
166.431299
 30
0.0
 11
78.070157
 21
166.431299
 31
0.0
  0
LINE
  5
5F6
100
AcDbEntity
  8
0
390
0
  6
DOT
 62
     2
100
AcDbLine
 10
78.070137
 20
166.431299
 30
0.0
 11
73.545137
 21
166.431299
 31
0.0
  0
LINE
  5
5F7
100
AcDbEntity
  8
0
390
0
  6
DOT
 62
     2
100
AcDbLine
 10
73.545117
 20
166.431299
 30
0.0
 11
73.345137
 21
166.431299
 31
0.0
  0
LINE
  5
5F8
100
AcDbEntity
  8
0
390
0
  6
DOT
 62
     2
100
AcDbLine
 10
84.318937
 20
177.396626
 30
0.0
 11
84.318937
 21
177.196646
 31
0.0
  0
LINE
  5
5F9
100
AcDbEntity
  8
0
390
0
  6
DOT
 62
     2
100
AcDbLine
 10
84.318937
 20
177.196626
 30
0.0
 11
84.318937
 21
172.671626
 31
0.0
  0
LINE
  5
5FA
100
AcDbEntity
  8
0
390
0
  6
DOT
 62
     2
100
AcDbLine
 10
84.318937
 20
172.671606
 30
0.0
 11
84.318937
 21
172.050755
 31
0.0
  0
CIRCLE
  5
5FB
100
AcDbEntity
  8
0
390
0
  6
Continuous
 62
     7
100
AcDbCircle
 10
86.418937
 20
64.565201
 30
0.0
 40
1.25
210
0.0
220
0.0
230
1.0
  0
LINE
  5
5FC
100
AcDbEntity
  8
0
390
0
  6
Continuous
 62
     7
100
AcDbLine
 10
73.545137
 20
62.465201
 30
0.0
 11
73.545137
 21
62.065196
 31
0.0
  0
LINE
  5
5FD
100
AcDbEntity
  8
0
390
0
  6
Continuous
 62
     7
100
AcDbLine
 10
73.545137
 20
67.065206
 30
0.0
 11
73.545137
 21
66.665201
 31
0.0
  0
LINE
  5
5FE
100
AcDbEntity
  8
0
390
0
  6
Continuous
 62
     2
100
AcDbLine
 10
73.545137
 20
66.665201
 30
0.0
 11
78.070137
 21
66.665201
 31
0.0
  0
LINE
  5
5FF
100
AcDbEntity
  8
0
390
0
  6
Continuous
 62
     2
100
AcDbLine
 10
78.070137
 20
62.465201
 30
0.0
 11
73.545137
 21
62.465201
 31
0.0
  0
LINE
  5
600
100
AcDbEntity
  8
0
390
0
  6
Continuous
 62
     7
100
AcDbLine
 10
73.016825
 20
66.008576
 30
0.0
 11
73.545137
 21
67.065201
 31
0.0
  0
POLYLINE
  5
601
100
AcDbEntity
  8
0
390
0
  6
Continuous
 62
     7
100
AcDb2dPolyline
 66
     1
 10
0.0
 20
0.0
 30
0.0
 40
0.1
 41
0.1
  0
VERTEX
  5
602
100
AcDbEntity
  8
0
390
0
 62
     7
100
AcDbVertex
100
AcDb2dVertex
 10
73.016825
 20
65.286889
 30
0.0
  0
VERTEX
  5
603
100
AcDbEntity
  8
0
390
0
 62
     7
100
AcDbVertex
100
AcDb2dVertex
 10
72.988966
 20
65.346445
 30
0.0
  0
VERTEX
  5
604
100
AcDbEntity
  8
0
390
0
 62
     7
100
AcDbVertex
100
AcDb2dVertex
 10
72.965101
 20
65.406431
 30
0.0
  0
VERTEX
  5
605
100
AcDbEntity
  8
0
390
0
 62
     7
100
AcDbVertex
100
AcDb2dVertex
 10
72.945706
 20
65.467156
 30
0.0
  0
VERTEX
  5
606
100
AcDbEntity
  8
0
390
0
 62
     7
100
AcDbVertex
100
AcDb2dVertex
 10
72.931459
 20
65.528233
 30
0.0
  0
VERTEX
  5
607
100
AcDbEntity
  8
0
390
0
 62
     7
100
AcDbVertex
100
AcDb2dVertex
 10
72.922722
 20
65.590955
 30
0.0
  0
VERTEX
  5
608
100
AcDbEntity
  8
0
390
0
 62
     7
100
AcDbVertex
100
AcDb2dVertex
 10
72.920167
 20
65.653814
 30
0.0
  0
VERTEX
  5
609
100
AcDbEntity
  8
0
390
0
 62
     7
100
AcDbVertex
100
AcDb2dVertex
 10
72.924006
 20
65.717281
 30
0.0
  0
VERTEX
  5
60A
100
AcDbEntity
  8
0
390
0
 62
     7
100
AcDbVertex
100
AcDb2dVertex
 10
72.9341
 20
65.780578
 30
0.0
  0
VERTEX
  5
60B
100
AcDbEntity
  8
0
390
0
 62
     7
100
AcDbVertex
100
AcDb2dVertex
 10
72.94843
 20
65.837908
 30
0.0
  0
VERTEX
  5
60C
100
AcDbEntity
  8
0
390
0
 62
     7
100
AcDbVertex
100
AcDb2dVertex
 10
72.967274
 20
65.895003
 30
0.0
  0
VERTEX
  5
60D
100
AcDbEntity
  8
0
390
0
 62
     7
100
AcDbVertex
100
AcDb2dVertex
 10
72.990246
 20
65.951956
 30
0.0
  0
VERTEX
  5
60E
100
AcDbEntity
  8
0
390
0
 62
     7
100
AcDbVertex
100
AcDb2dVertex
 10
73.016825
 20
66.008576
 30
0.0
  0
SEQEND
  5
60F
100
AcDbEntity
  8
0
390
0
  0
ARC
  5
610
100
AcDbEntity
  8
0
390
0
  6
Continuous
 62
     7
100
AcDbCircle
 10
75.667935
 20
64.565201
 30
0.0
 40
2.747584
210
0.0
220
0.0
230
1.0
100
AcDbArc
 50
164.771882
 51
195.228118
  0
POLYLINE
  5
611
100
AcDbEntity
  8
0
390
0
  6
Continuous
 62
     7
100
AcDb2dPolyline
 66
     1
 10
0.0
 20
0.0
 30
0.0
 40
0.1
 41
0.1
  0
VERTEX
  5
612
100
AcDbEntity
  8
0
390
0
 62
     7
100
AcDbVertex
100
AcDb2dVertex
 10
73.016825
 20
63.121825
 30
0.0
  0
VERTEX
  5
613
100
AcDbEntity
  8
0
390
0
 62
     7
100
AcDbVertex
100
AcDb2dVertex
 10
72.988966
 20
63.181382
 30
0.0
  0
VERTEX
  5
614
100
AcDbEntity
  8
0
390
0
 62
     7
100
AcDbVertex
100
AcDb2dVertex
 10
72.965101
 20
63.241367
 30
0.0
  0
VERTEX
  5
615
100
AcDbEntity
  8
0
390
0
 62
     7
100
AcDbVertex
100
AcDb2dVertex
 10
72.945706
 20
63.302092
 30
0.0
  0
VERTEX
  5
616
100
AcDbEntity
  8
0
390
0
 62
     7
100
AcDbVertex
100
AcDb2dVertex
 10
72.931459
 20
63.36317
 30
0.0
  0
VERTEX
  5
617
100
AcDbEntity
  8
0
390
0
 62
     7
100
AcDbVertex
100
AcDb2dVertex
 10
72.922722
 20
63.425891
 30
0.0
  0
VERTEX
  5
618
100
AcDbEntity
  8
0
390
0
 62
     7
100
AcDbVertex
100
AcDb2dVertex
 10
72.920167
 20
63.48875
 30
0.0
  0
VERTEX
  5
619
100
AcDbEntity
  8
0
390
0
 62
     7
100
AcDbVertex
100
AcDb2dVertex
 10
72.924006
 20
63.552217
 30
0.0
  0
VERTEX
  5
61A
100
AcDbEntity
  8
0
390
0
 62
     7
100
AcDbVertex
100
AcDb2dVertex
 10
72.9341
 20
63.615515
 30
0.0
  0
VERTEX
  5
61B
100
AcDbEntity
  8
0
390
0
 62
     7
100
AcDbVertex
100
AcDb2dVertex
 10
72.94843
 20
63.672845
 30
0.0
  0
VERTEX
  5
61C
100
AcDbEntity
  8
0
390
0
 62
     7
100
AcDbVertex
100
AcDb2dVertex
 10
72.967274
 20
63.729939
 30
0.0
  0
VERTEX
  5
61D
100
AcDbEntity
  8
0
390
0
 62
     7
100
AcDbVertex
100
AcDb2dVertex
 10
72.990246
 20
63.786892
 30
0.0
  0
VERTEX
  5
61E
100
AcDbEntity
  8
0
390
0
 62
     7
100
AcDbVertex
100
AcDb2dVertex
 10
73.016825
 20
63.843513
 30
0.0
  0
SEQEND
  5
61F
100
AcDbEntity
  8
0
390
0
  0
LINE
  5
620
100
AcDbEntity
  8
0
390
0
  6
Continuous
 62
     7
100
AcDbLine
 10
73.545137
 20
62.065201
 30
0.0
 11
73.016825
 21
63.121825
 31
0.0
  0
LINE
  5
621
100
AcDbEntity
  8
0
390
0
  6
Continuous
 62
     7
100
AcDbLine
 10
73.016825
 20
63.121825
 30
0.0
 11
75.920137
 21
63.121825
 31
0.0
  0
LINE
  5
622
100
AcDbEntity
  8
0
390
0
  6
Continuous
 62
     7
100
AcDbLine
 10
75.920137
 20
63.121825
 30
0.0
 11
75.920137
 21
66.008576
 31
0.0
  0
LINE
  5
623
100
AcDbEntity
  8
0
390
0
  6
Continuous
 62
     7
100
AcDbLine
 10
73.016825
 20
66.008576
 30
0.0
 11
75.920137
 21
66.008576
 31
0.0
  0
LINE
  5
624
100
AcDbEntity
  8
0
390
0
  6
Continuous
 62
     7
100
AcDbLine
 10
73.545137
 20
67.065201
 30
0.0
 11
77.670137
 21
67.065201
 31
0.0
  0
LINE
  5
625
100
AcDbEntity
  8
0
390
0
  6
Continuous
 62
     7
100
AcDbLine
 10
77.670137
 20
67.065201
 30
0.0
 11
78.070137
 21
66.665201
 31
0.0
  0
LINE
  5
626
100
AcDbEntity
  8
0
390
0
  6
Continuous
 62
     7
100
AcDbLine
 10
78.070137
 20
66.665201
 30
0.0
 11
78.920137
 21
65.815201
 31
0.0
  0
LINE
  5
627
100
AcDbEntity
  8
0
390
0
  6
Continuous
 62
     7
100
AcDbLine
 10
78.920137
 20
65.815201
 30
0.0
 11
78.197594
 21
64.565201
 31
0.0
  0
LINE
  5
628
100
AcDbEntity
  8
0
390
0
  6
Continuous
 62
     7
100
AcDbLine
 10
78.197594
 20
64.565201
 30
0.0
 11
78.920137
 21
63.315201
 31
0.0
  0
LINE
  5
629
100
AcDbEntity
  8
0
390
0
  6
Continuous
 62
     7
100
AcDbLine
 10
78.920137
 20
63.315201
 30
0.0
 11
78.070137
 21
62.465201
 31
0.0
  0
LINE
  5
62A
100
AcDbEntity
  8
0
390
0
  6
Continuous
 62
     7
100
AcDbLine
 10
78.070137
 20
62.465201
 30
0.0
 11
77.670137
 21
62.065201
 31
0.0
  0
LINE
  5
62B
100
AcDbEntity
  8
0
390
0
  6
Continuous
 62
     7
100
AcDbLine
 10
77.670137
 20
62.065201
 30
0.0
 11
73.545137
 21
62.065201
 31
0.0
  0
LINE
  5
62C
100
AcDbEntity
  8
0
390
0
  6
Continuous
 62
     7
100
AcDbLine
 10
78.920137
 20
65.815201
 30
0.0
 11
78.920137
 21
63.315201
 31
0.0
  0
LINE
  5
62D
100
AcDbEntity
  8
0
390
0
  6
Continuous
 62
     7
100
AcDbLine
 10
73.016825
 20
65.286889
 30
0.0
 11
75.920137
 21
65.286889
 31
0.0
  0
LINE
  5
62E
100
AcDbEntity
  8
0
390
0
  6
Continuous
 62
     7
100
AcDbLine
 10
73.016825
 20
63.843513
 30
0.0
 11
75.920137
 21
63.843513
 31
0.0
  0
LINE
  5
62F
100
AcDbEntity
  8
0
390
0
  6
Continuous
 62
     2
100
AcDbLine
 10
78.918937
 20
62.065206
 30
0.0
 11
77.670157
 21
62.065206
 31
0.0
  0
LINE
  5
630
100
AcDbEntity
  8
0
390
0
  6
Continuous
 62
     2
100
AcDbLine
 10
77.670142
 20
62.065206
 30
0.0
 11
73.545137
 21
62.065206
 31
0.0
  0
LINE
  5
631
100
AcDbEntity
  8
0
390
0
  6
Continuous
 62
     2
100
AcDbLine
 10
73.545118
 20
62.065206
 30
0.0
 11
71.418937
 21
62.065206
 31
0.0
  0
LINE
  5
632
100
AcDbEntity
  8
0
390
0
  6
Continuous
 62
     2
100
AcDbLine
 10
71.418937
 20
67.065196
 30
0.0
 11
73.545118
 21
67.065196
 31
0.0
  0
LINE
  5
633
100
AcDbEntity
  8
0
390
0
  6
Continuous
 62
     2
100
AcDbLine
 10
73.545137
 20
67.065196
 30
0.0
 11
77.670142
 21
67.065196
 31
0.0
  0
LINE
  5
634
100
AcDbEntity
  8
0
390
0
  6
Continuous
 62
     2
100
AcDbLine
 10
77.670157
 20
67.065196
 30
0.0
 11
78.918937
 21
67.065196
 31
0.0
  0
LINE
  5
635
100
AcDbEntity
  8
0
390
0
  6
Continuous
 62
     7
100
AcDbLine
 10
78.918937
 20
62.465201
 30
0.0
 11
78.070157
 21
62.465201
 31
0.0
  0
LINE
  5
636
100
AcDbEntity
  8
0
390
0
  6
Continuous
 62
     7
100
AcDbLine
 10
78.070137
 20
62.465201
 30
0.0
 11
73.545137
 21
62.465201
 31
0.0
  0
LINE
  5
637
100
AcDbEntity
  8
0
390
0
  6
Continuous
 62
     7
100
AcDbLine
 10
73.545117
 20
62.465201
 30
0.0
 11
73.345137
 21
62.465201
 31
0.0
  0
LINE
  5
638
100
AcDbEntity
  8
0
390
0
  6
Continuous
 62
     7
100
AcDbLine
 10
73.345137
 20
62.465201
 30
0.0
 11
71.418937
 21
62.465201
 31
0.0
  0
LINE
  5
639
100
AcDbEntity
  8
0
390
0
  6
Continuous
 62
     7
100
AcDbLine
 10
71.418937
 20
66.665201
 30
0.0
 11
73.345137
 21
66.665201
 31
0.0
  0
LINE
  5
63A
100
AcDbEntity
  8
0
390
0
  6
Continuous
 62
     7
100
AcDbLine
 10
73.345137
 20
66.665201
 30
0.0
 11
73.545117
 21
66.665201
 31
0.0
  0
LINE
  5
63B
100
AcDbEntity
  8
0
390
0
  6
Continuous
 62
     7
100
AcDbLine
 10
73.545137
 20
66.665201
 30
0.0
 11
78.070137
 21
66.665201
 31
0.0
  0
LINE
  5
63C
100
AcDbEntity
  8
0
390
0
  6
Continuous
 62
     7
100
AcDbLine
 10
78.070157
 20
66.665201
 30
0.0
 11
78.918937
 21
66.665201
 31
0.0
  0
HATCH
  5
63D
100
AcDbEntity
  8
0
390
0
 62
     3
100
AcDbHatch
 10
73.54513730341435
 20
62.065200666476613
 30
0.0
210
0.0
220
0.0
230
1.0
  2
ANSI31
 70
     0
 71
     0
 91
        1
 92
        1
 93
       11
 72
     1
 10
73.54513730341435
 20
62.065200666476613
 11
77.67013730341435
 21
62.065200666476613
 72
     1
 10
77.67013730341435
 20
62.065200666476613
 11
78.920137303414336
 21
63.315200666476613
 72
     1
 10
78.920137303414336
 20
63.315200666476613
 11
78.197593950414344
 21
64.565200666476613
 72
     1
 10
78.197593950414344
 20
64.565200666476613
 11
78.920137303414336
 21
65.815200666476613
 72
     1
 10
78.920137303414336
 20
65.815200666476613
 11
77.67013730341435
 21
67.065200666476613
 72
     1
 10
77.67013730341435
 20
67.065200666476613
 11
73.54513730341435
 21
67.065200666476613
 72
     1
 10
73.54513730341435
 20
67.065200666476613
 11
73.016825139901371
 21
66.00857633945067
 72
     1
 10
73.016825139901371
 20
66.00857633945067
 11
75.92013730341435
 21
66.00857633945067
 72
     1
 10
75.92013730341435
 20
66.00857633945067
 11
75.92013730341435
 21
63.12182499350255
 72
     1
 10
75.92013730341435
 20
63.12182499350255
 11
73.016825139901371
 21
63.12182499350255
 72
     1
 10
73.016825139901371
 20
63.12182499350255
 11
73.54513730341435
 21
62.065200666476613
 97
        0
 75
     0
 76
     1
 52
0.0
 41
2.725828
 77
     0
 78
     1
 53
45.0
 43
0.0
 44
0.0
 45
-0.2409314365066807
 46
0.2409314365066808
 79
     0
 98
        1
 10
0.0
 20
0.0
  0
LINE
  5
63E
100
AcDbEntity
  8
0
390
0
  6
DOT
 62
     2
100
AcDbLine
 10
204.314437
 20
177.196626
 30
0.0
 11
201.814432
 21
177.196626
 31
0.0
  0
LINE
  5
63F
100
AcDbEntity
  8
0
390
0
  6
DOT
 62
     2
100
AcDbLine
 10
201.814432
 20
177.196626
 30
0.0
 11
199.314427
 21
177.196626
 31
0.0
  0
ARC
  5
640
100
AcDbEntity
  8
0
390
0
  6
DOT
 62
     2
100
AcDbCircle
 10
201.814432
 20
164.331299
 30
0.0
 40
2.1
210
0.0
220
0.0
230
1.0
100
AcDbArc
 50
354.526587
 51
0.0
  0
LINE
  5
641
100
AcDbEntity
  8
0
390
0
  6
DOT
 62
     2
100
AcDbLine
 10
168.314432
 20
176.710895
 30
0.0
 11
165.814427
 21
176.710895
 31
0.0
  0
LINE
  5
642
100
AcDbEntity
  8
0
390
0
  6
DOT
 62
     2
100
AcDbLine
 10
204.314432
 20
177.196626
 30
0.0
 11
201.814432
 21
177.196626
 31
0.0
  0
POLYLINE
  5
643
100
AcDbEntity
  8
0
390
0
  6
DOT
 62
     2
100
AcDb2dPolyline
 66
     1
 10
0.0
 20
0.0
 30
0.0
 40
0.1
 41
0.1
  0
VERTEX
  5
644
100
AcDbEntity
  8
0
390
0
 62
     2
100
AcDbVertex
100
AcDb2dVertex
 10
203.257808
 20
177.724938
 30
0.0
  0
VERTEX
  5
645
100
AcDbEntity
  8
0
390
0
 62
     2
100
AcDbVertex
100
AcDb2dVertex
 10
203.198251
 20
177.752797
 30
0.0
  0
VERTEX
  5
646
100
AcDbEntity
  8
0
390
0
 62
     2
100
AcDbVertex
100
AcDb2dVertex
 10
203.138265
 20
177.776662
 30
0.0
  0
VERTEX
  5
647
100
AcDbEntity
  8
0
390
0
 62
     2
100
AcDbVertex
100
AcDb2dVertex
 10
203.07754
 20
177.796058
 30
0.0
  0
VERTEX
  5
648
100
AcDbEntity
  8
0
390
0
 62
     2
100
AcDbVertex
100
AcDb2dVertex
 10
203.016463
 20
177.810305
 30
0.0
  0
VERTEX
  5
649
100
AcDbEntity
  8
0
390
0
 62
     2
100
AcDbVertex
100
AcDb2dVertex
 10
202.953741
 20
177.819041
 30
0.0
  0
VERTEX
  5
64A
100
AcDbEntity
  8
0
390
0
 62
     2
100
AcDbVertex
100
AcDb2dVertex
 10
202.890883
 20
177.821597
 30
0.0
  0
VERTEX
  5
64B
100
AcDbEntity
  8
0
390
0
 62
     2
100
AcDbVertex
100
AcDb2dVertex
 10
202.827415
 20
177.817757
 30
0.0
  0
VERTEX
  5
64C
100
AcDbEntity
  8
0
390
0
 62
     2
100
AcDbVertex
100
AcDb2dVertex
 10
202.764118
 20
177.807664
 30
0.0
  0
VERTEX
  5
64D
100
AcDbEntity
  8
0
390
0
 62
     2
100
AcDbVertex
100
AcDb2dVertex
 10
202.706788
 20
177.793333
 30
0.0
  0
VERTEX
  5
64E
100
AcDbEntity
  8
0
390
0
 62
     2
100
AcDbVertex
100
AcDb2dVertex
 10
202.649693
 20
177.774489
 30
0.0
  0
VERTEX
  5
64F
100
AcDbEntity
  8
0
390
0
 62
     2
100
AcDbVertex
100
AcDb2dVertex
 10
202.592741
 20
177.751517
 30
0.0
  0
VERTEX
  5
650
100
AcDbEntity
  8
0
390
0
 62
     2
100
AcDbVertex
100
AcDb2dVertex
 10
202.53612
 20
177.724938
 30
0.0
  0
SEQEND
  5
651
100
AcDbEntity
  8
0
390
0
  0
LINE
  5
652
100
AcDbEntity
  8
0
390
0
  6
DOT
 62
     2
100
AcDbLine
 10
200.371056
 20
177.724938
 30
0.0
 11
200.429121
 21
177.752148
 31
0.0
  0
POLYLINE
  5
653
100
AcDbEntity
  8
0
390
0
  6
DOT
 62
     2
100
AcDb2dPolyline
 66
     1
 10
0.0
 20
0.0
 30
0.0
 40
0.1
 41
0.1
  0
VERTEX
  5
654
100
AcDbEntity
  8
0
390
0
 62
     2
100
AcDbVertex
100
AcDb2dVertex
 10
201.092744
 20
177.724938
 30
0.0
  0
VERTEX
  5
655
100
AcDbEntity
  8
0
390
0
 62
     2
100
AcDbVertex
100
AcDb2dVertex
 10
201.033187
 20
177.752797
 30
0.0
  0
VERTEX
  5
656
100
AcDbEntity
  8
0
390
0
 62
     2
100
AcDbVertex
100
AcDb2dVertex
 10
200.973202
 20
177.776662
 30
0.0
  0
VERTEX
  5
657
100
AcDbEntity
  8
0
390
0
 62
     2
100
AcDbVertex
100
AcDb2dVertex
 10
200.912477
 20
177.796058
 30
0.0
  0
VERTEX
  5
658
100
AcDbEntity
  8
0
390
0
 62
     2
100
AcDbVertex
100
AcDb2dVertex
 10
200.8514
 20
177.810305
 30
0.0
  0
VERTEX
  5
659
100
AcDbEntity
  8
0
390
0
 62
     2
100
AcDbVertex
100
AcDb2dVertex
 10
200.788678
 20
177.819041
 30
0.0
  0
VERTEX
  5
65A
100
AcDbEntity
  8
0
390
0
 62
     2
100
AcDbVertex
100
AcDb2dVertex
 10
200.725819
 20
177.821597
 30
0.0
  0
VERTEX
  5
65B
100
AcDbEntity
  8
0
390
0
 62
     2
100
AcDbVertex
100
AcDb2dVertex
 10
200.662352
 20
177.817757
 30
0.0
  0
VERTEX
  5
65C
100
AcDbEntity
  8
0
390
0
 62
     2
100
AcDbVertex
100
AcDb2dVertex
 10
200.599054
 20
177.807664
 30
0.0
  0
VERTEX
  5
65D
100
AcDbEntity
  8
0
390
0
 62
     2
100
AcDbVertex
100
AcDb2dVertex
 10
200.541725
 20
177.793333
 30
0.0
  0
VERTEX
  5
65E
100
AcDbEntity
  8
0
390
0
 62
     2
100
AcDbVertex
100
AcDb2dVertex
 10
200.48463
 20
177.774489
 30
0.0
  0
VERTEX
  5
65F
100
AcDbEntity
  8
0
390
0
 62
     2
100
AcDbVertex
100
AcDb2dVertex
 10
200.427677
 20
177.751517
 30
0.0
  0
VERTEX
  5
660
100
AcDbEntity
  8
0
390
0
 62
     2
100
AcDbVertex
100
AcDb2dVertex
 10
200.371056
 20
177.724938
 30
0.0
  0
SEQEND
  5
661
100
AcDbEntity
  8
0
390
0
  0
ARC
  5
662
100
AcDbEntity
  8
0
390
0
  6
DOT
 62
     2
100
AcDbCircle
 10
201.814432
 20
175.073828
 30
0.0
 40
2.747584
210
0.0
220
0.0
230
1.0
100
AcDbArc
 50
74.771882
 51
105.228118
  0
LINE
  5
663
100
AcDbEntity
  8
0
390
0
  6
DOT
 62
     2
100
AcDbLine
 10
201.814432
 20
177.196626
 30
0.0
 11
199.314432
 21
177.196626
 31
0.0
  0
LINE
  5
664
100
AcDbEntity
  8
0
390
0
  6
DOT
 62
     2
100
AcDbLine
 10
204.314432
 20
173.071626
 30
0.0
 11
201.814432
 21
173.071626
 31
0.0
  0
LINE
  5
665
100
AcDbEntity
  8
0
390
0
  6
DOT
 62
     2
100
AcDbLine
 10
201.814432
 20
173.071626
 30
0.0
 11
199.314432
 21
173.071626
 31
0.0
  0
LINE
  5
666
100
AcDbEntity
  8
0
390
0
  6
DOT
 62
     2
100
AcDbLine
 10
203.064432
 20
171.821626
 30
0.0
 11
201.814432
 21
171.821626
 31
0.0
  0
LINE
  5
667
100
AcDbEntity
  8
0
390
0
  6
DOT
 62
     2
100
AcDbLine
 10
201.814432
 20
171.821626
 30
0.0
 11
200.564432
 21
171.821626
 31
0.0
  0
LINE
  5
668
100
AcDbEntity
  8
0
390
0
  6
DOT
 62
     2
100
AcDbLine
 10
201.092744
 20
177.724938
 30
0.0
 11
201.092744
 21
177.196626
 31
0.0
  0
LINE
  5
669
100
AcDbEntity
  8
0
390
0
  6
DOT
 62
     2
100
AcDbLine
 10
201.092744
 20
177.196626
 30
0.0
 11
201.092744
 21
174.821626
 31
0.0
  0
LINE
  5
66A
100
AcDbEntity
  8
0
390
0
  6
DOT
 62
     2
100
AcDbLine
 10
200.371056
 20
174.821626
 30
0.0
 11
201.092744
 21
174.821626
 31
0.0
  0
LINE
  5
66B
100
AcDbEntity
  8
0
390
0
  6
DOT
 62
     2
100
AcDbLine
 10
201.092744
 20
174.821626
 30
0.0
 11
202.53612
 21
174.821626
 31
0.0
  0
LINE
  5
66C
100
AcDbEntity
  8
0
390
0
  6
DOT
 62
     2
100
AcDbLine
 10
202.53612
 20
174.821626
 30
0.0
 11
203.257808
 21
174.821626
 31
0.0
  0
LINE
  5
66D
100
AcDbEntity
  8
0
390
0
  6
DOT
 62
     2
100
AcDbLine
 10
202.53612
 20
177.724938
 30
0.0
 11
202.53612
 21
177.196626
 31
0.0
  0
LINE
  5
66E
100
AcDbEntity
  8
0
390
0
  6
DOT
 62
     2
100
AcDbLine
 10
202.53612
 20
177.196626
 30
0.0
 11
202.53612
 21
174.821626
 31
0.0
  0
LINE
  5
66F
100
AcDbEntity
  8
0
390
0
  6
DOT
 62
     2
100
AcDbLine
 10
203.257808
 20
177.724938
 30
0.0
 11
203.257808
 21
177.196626
 31
0.0
  0
LINE
  5
670
100
AcDbEntity
  8
0
390
0
  6
DOT
 62
     2
100
AcDbLine
 10
203.257808
 20
177.196626
 30
0.0
 11
203.257808
 21
174.821626
 31
0.0
  0
LINE
  5
671
100
AcDbEntity
  8
0
390
0
  6
DOT
 62
     2
100
AcDbLine
 10
200.371056
 20
177.724938
 30
0.0
 11
200.371056
 21
177.196626
 31
0.0
  0
LINE
  5
672
100
AcDbEntity
  8
0
390
0
  6
DOT
 62
     2
100
AcDbLine
 10
200.371056
 20
177.196626
 30
0.0
 11
200.371056
 21
174.821626
 31
0.0
  0
CIRCLE
  5
673
100
AcDbEntity
  8
0
390
0
  6
DOT
 62
     2
100
AcDbCircle
 10
201.814432
 20
164.331299
 30
0.0
 40
1.25
210
0.0
220
0.0
230
1.0
  0
ARC
  5
674
100
AcDbEntity
  8
0
390
0
  6
DOT
 62
     2
100
AcDbCircle
 10
201.814432
 20
164.331299
 30
0.0
 40
2.5
210
0.0
220
0.0
230
1.0
100
AcDbArc
 50
180.0
 51
188.418927
  0
ARC
  5
675
100
AcDbEntity
  8
0
390
0
  6
DOT
 62
     2
100
AcDbCircle
 10
201.814432
 20
164.331299
 30
0.0
 40
2.5
210
0.0
220
0.0
230
1.0
100
AcDbArc
 50
88.736478
 51
90.0
  0
LINE
  5
676
100
AcDbEntity
  8
0
390
0
  6
DOT
 62
     2
100
AcDbLine
 10
200.371056
 20
164.331299
 30
0.0
 11
201.092744
 21
165.581299
 31
0.0
  0
LINE
  5
677
100
AcDbEntity
  8
0
390
0
  6
DOT
 62
     2
100
AcDbLine
 10
201.092744
 20
165.581299
 30
0.0
 11
202.53612
 21
165.581299
 31
0.0
  0
LINE
  5
678
100
AcDbEntity
  8
0
390
0
  6
DOT
 62
     2
100
AcDbLine
 10
202.53612
 20
165.581299
 30
0.0
 11
203.257808
 21
164.331299
 31
0.0
  0
LINE
  5
679
100
AcDbEntity
  8
0
390
0
  6
DOT
 62
     2
100
AcDbLine
 10
203.257808
 20
164.331299
 30
0.0
 11
202.53612
 21
163.081299
 31
0.0
  0
LINE
  5
67A
100
AcDbEntity
  8
0
390
0
  6
DOT
 62
     2
100
AcDbLine
 10
202.53612
 20
163.081299
 30
0.0
 11
201.092744
 21
163.081299
 31
0.0
  0
LINE
  5
67B
100
AcDbEntity
  8
0
390
0
  6
DOT
 62
     2
100
AcDbLine
 10
201.092744
 20
163.081299
 30
0.0
 11
200.371056
 21
164.331299
 31
0.0
  0
LINE
  5
67C
100
AcDbEntity
  8
0
390
0
  6
DOT
 62
     2
100
AcDbLine
 10
203.914432
 20
172.671626
 30
0.0
 11
203.914432
 21
177.196626
 31
0.0
  0
LINE
  5
67D
100
AcDbEntity
  8
0
390
0
  6
DOT
 62
     2
100
AcDbLine
 10
199.714432
 20
177.196626
 30
0.0
 11
199.714432
 21
172.671626
 31
0.0
  0
LINE
  5
67E
100
AcDbEntity
  8
0
390
0
  6
DOT
 62
     2
100
AcDbLine
 10
199.314437
 20
173.071607
 30
0.0
 11
199.314437
 21
171.831299
 31
0.0
  0
LINE
  5
67F
100
AcDbEntity
  8
0
390
0
  6
DOT
 62
     2
100
AcDbLine
 10
204.314427
 20
171.831299
 30
0.0
 11
204.314427
 21
173.071607
 31
0.0
  0
LINE
  5
680
100
AcDbEntity
  8
0
390
0
  6
DOT
 62
     2
100
AcDbLine
 10
204.314432
 20
177.196626
 30
0.0
 11
203.914432
 21
177.396626
 31
0.0
  0
LINE
  5
681
100
AcDbEntity
  8
0
390
0
  6
DOT
 62
     2
100
AcDbLine
 10
203.914432
 20
177.396626
 30
0.0
 11
203.257808
 21
177.724938
 31
0.0
  0
LINE
  5
682
100
AcDbEntity
  8
0
390
0
  6
DOT
 62
     2
100
AcDbLine
 10
200.371056
 20
177.724938
 30
0.0
 11
199.714432
 21
177.396626
 31
0.0
  0
LINE
  5
683
100
AcDbEntity
  8
0
390
0
  6
DOT
 62
     2
100
AcDbLine
 10
199.714432
 20
177.396626
 30
0.0
 11
199.314432
 21
177.196626
 31
0.0
  0
LINE
  5
684
100
AcDbEntity
  8
0
390
0
  6
DOT
 62
     2
100
AcDbLine
 10
204.314432
 20
173.071626
 30
0.0
 11
204.314432
 21
177.196626
 31
0.0
  0
LINE
  5
685
100
AcDbEntity
  8
0
390
0
  6
DOT
 62
     2
100
AcDbLine
 10
199.314432
 20
177.196626
 30
0.0
 11
199.314432
 21
173.071626
 31
0.0
  0
LINE
  5
686
100
AcDbEntity
  8
0
390
0
  6
DOT
 62
     2
100
AcDbLine
 10
199.314432
 20
173.071626
 30
0.0
 11
199.714432
 21
172.671626
 31
0.0
  0
LINE
  5
687
100
AcDbEntity
  8
0
390
0
  6
DOT
 62
     2
100
AcDbLine
 10
199.714432
 20
172.671626
 30
0.0
 11
200.564432
 21
171.821626
 31
0.0
  0
LINE
  5
688
100
AcDbEntity
  8
0
390
0
  6
DOT
 62
     2
100
AcDbLine
 10
203.064432
 20
171.821626
 30
0.0
 11
203.914432
 21
172.671626
 31
0.0
  0
LINE
  5
689
100
AcDbEntity
  8
0
390
0
  6
DOT
 62
     2
100
AcDbLine
 10
203.914432
 20
172.671626
 30
0.0
 11
204.314432
 21
173.071626
 31
0.0
  0
LINE
  5
68A
100
AcDbEntity
  8
0
390
0
  6
DOT
 62
     2
100
AcDbLine
 10
203.064432
 20
171.821626
 30
0.0
 11
201.814432
 21
172.544169
 31
0.0
  0
LINE
  5
68B
100
AcDbEntity
  8
0
390
0
  6
DOT
 62
     2
100
AcDbLine
 10
201.814432
 20
172.544169
 30
0.0
 11
200.564432
 21
171.821626
 31
0.0
  0
LINE
  5
68C
100
AcDbEntity
  8
0
390
0
  6
DOT
 62
     2
100
AcDbLine
 10
165.814432
 20
176.710895
 30
0.0
 11
165.814432
 21
172.585895
 31
0.0
  0
LINE
  5
68D
100
AcDbEntity
  8
0
390
0
  6
DOT
 62
     2
100
AcDbLine
 10
199.714432
 20
177.396626
 30
0.0
 11
199.714432
 21
177.196646
 31
0.0
  0
LINE
  5
68E
100
AcDbEntity
  8
0
390
0
  6
DOT
 62
     2
100
AcDbLine
 10
199.714432
 20
172.671606
 30
0.0
 11
199.714432
 21
171.831299
 31
0.0
  0
LINE
  5
68F
100
AcDbEntity
  8
0
390
0
  6
DOT
 62
     2
100
AcDbLine
 10
203.914432
 20
177.196646
 30
0.0
 11
203.914432
 21
177.396626
 31
0.0
  0
LINE
  5
690
100
AcDbEntity
  8
0
390
0
  6
DOT
 62
     2
100
AcDbLine
 10
203.914432
 20
177.396626
 30
0.0
 11
203.914432
 21
179.331299
 31
0.0
  0
DIMENSION
  5
691
100
AcDbEntity
  8
0
390
0
100
AcDbDimension
  2
*D27
 10
94.418937
 20
117.913048
 30
0.0
 11
105.418937
 21
121.055094
 31
0.0
 71
     5
 72
     1
 41
1.0
 42
0.0
  3
Standard
100
AcDbAlignedDimension
 13
94.418937
 23
115.565201
 33
0.0
 14
116.418937
 24
115.565201
 34
0.0
100
AcDbRotatedDimension
1001
ACAD
1000
DSTYLE
1002
{
1070
   271
1070
     1
1070
   179
1070
     1
1002
}
  0
DIMENSION
  5
6A3
100
AcDbEntity
  8
0
390
0
100
AcDbDimension
  2
*D28
 10
89.418937
 20
123.14187
 30
0.0
 11
102.918937
 21
126.283916
 31
0.0
 71
     5
 72
     1
 41
1.0
 42
0.0
  3
Standard
100
AcDbAlignedDimension
 13
89.418937
 23
118.539391
 33
0.0
 14
116.418937
 24
115.565201
 34
0.0
100
AcDbRotatedDimension
1001
ACAD
1000
DSTYLE
1002
{
1070
   271
1070
     1
1070
   179
1070
     1
1002
}
  0
DIMENSION
  5
6B5
100
AcDbEntity
  8
0
390
0
100
AcDbDimension
  2
*D29
 10
116.418937
 20
128.740918
 30
0.0
 11
100.418937
 21
131.890918
 31
0.0
 71
     5
 72
     1
 41
1.0
 42
0.0
  3
Standard
100
AcDbAlignedDimension
 13
84.418937
 23
112.165201
 33
0.0
 14
116.418937
 24
115.565201
 34
0.0
100
AcDbRotatedDimension
1001
ACAD
1000
DSTYLE
1002
{
1070
   271
1070
     1
1070
   179
1070
     1
1002
}
  0
DIMENSION
  5
6C7
100
AcDbEntity
  8
0
390
0
100
AcDbDimension
  2
*D30
 10
44.331304
 20
78.565201
 30
0.0
 11
41.181304
 21
74.065201
 31
0.0
 71
     5
 72
     1
 41
1.0
 42
0.0
  3
Standard
100
AcDbAlignedDimension
 13
56.418937
 23
78.565201
 33
0.0
 14
56.418937
 24
69.565201
 34
0.0
 50
270.0
100
AcDbRotatedDimension
1001
ACAD
1000
DSTYLE
1002
{
1070
   271
1070
     1
1070
   179
1070
     1
1002
}
  0
ARC
  5
6D9
100
AcDbEntity
  8
0
390
0
  6
DOT
 62
     2
100
AcDbCircle
 10
89.418937
 20
164.331299
 30
0.0
 40
2.1
210
0.0
220
0.0
230
1.0
100
AcDbArc
 50
171.887416
 51
180.0
  0
ARC
  5
6DA
100
AcDbEntity
  8
0
390
0
  6
DOT
 62
     2
100
AcDbCircle
 10
89.418937
 20
164.331299
 30
0.0
 40
2.1
210
0.0
220
0.0
230
1.0
100
AcDbArc
 50
180.0
 51
184.962499
  0
LINE
  5
6DB
100
AcDbEntity
  8
0
390
0
  6
DOT
 62
     2
100
AcDbLine
 10
87.34339
 20
178.427677
 30
0.0
 11
87.333307
 21
178.429166
 31
0.0
  0
ARC
  5
6DC
100
AcDbEntity
  8
0
390
0
  6
Continuous
 62
     7
100
AcDbCircle
 10
89.418937
 20
192.374402
 30
0.0
 40
14.100359
210
0.0
220
0.0
230
1.0
100
AcDbArc
 50
261.434939
 51
278.565061
  0
LINE
  5
6DD
100
AcDbEntity
  8
0
390
0
  6
Continuous
 62
     7
100
AcDbLine
 10
84.418937
 20
178.431299
 30
0.0
 11
84.418937
 21
150.231299
 31
0.0
  0
LINE
  5
6DE
100
AcDbEntity
  8
0
390
0
  6
Continuous
 62
     7
100
AcDbLine
 10
87.333307
 20
178.429166
 30
0.0
 11
87.325863
 21
178.430269
 31
0.0
  0
CIRCLE
  5
6DF
100
AcDbEntity
  8
0
390
0
  6
Continuous
 62
     7
100
AcDbCircle
 10
89.418806
 20
164.330854
 30
0.0
 40
2.099922
210
0.0
220
0.0
230
1.0
  0
ARC
  5
6E0
100
AcDbEntity
  8
0
390
0
  6
Continuous
 62
     7
100
AcDbCircle
 10
86.418937
 20
164.331299
 30
0.0
 40
7.5
210
0.0
220
0.0
230
1.0
100
AcDbArc
 50
180.0
 51
254.53399
  0
ARC
  5
6E1
100
AcDbEntity
  8
0
390
0
  6
Continuous
 62
     7
100
AcDbCircle
 10
86.418937
 20
164.331299
 30
0.0
 40
8.0
210
0.0
220
0.0
230
1.0
100
AcDbArc
 50
104.477512
 51
255.522488
  0
ARC
  5
6E2
100
AcDbEntity
  8
0
390
0
  6
DOT
 62
     2
100
AcDbCircle
 10
86.418937
 20
164.331299
 30
0.0
 40
8.0
210
0.0
220
0.0
230
1.0
100
AcDbArc
 50
255.522488
 51
360.0
  0
LINE
  5
6E3
100
AcDbEntity
  8
0
390
0
  6
DOT
 62
     2
100
AcDbLine
 10
91.918932
 20
176.710915
 30
0.0
 11
91.918932
 21
178.431299
 31
0.0
  0
LINE
  5
6E4
100
AcDbEntity
  8
0
390
0
  6
DOT
 62
     2
100
AcDbLine
 10
88.017309
 20
172.169998
 30
0.0
 11
88.033206
 21
172.185895
 31
0.0
  0
LINE
  5
6E5
100
AcDbEntity
  8
0
390
0
  6
DOT
 62
     2
100
AcDbLine
 10
87.318937
 20
172.185895
 30
0.0
 11
87.951738
 21
171.553094
 31
0.0
  0
LINE
  5
6E6
100
AcDbEntity
  8
0
390
0
  6
DOT
 62
     2
100
AcDbLine
 10
90.886034
 20
171.552992
 30
0.0
 11
91.518937
 21
172.185895
 31
0.0
  0
LINE
  5
6E7
100
AcDbEntity
  8
0
390
0
  6
Continuous
 62
     7
100
AcDbLine
 10
87.319185
 20
178.431299
 30
0.0
 11
87.318937
 21
178.431299
 31
0.0
  0
LINE
  5
6E8
100
AcDbEntity
  8
0
390
0
  6
DOT
 62
     2
100
AcDbLine
 10
87.318937
 20
178.431299
 30
0.0
 11
86.919953
 21
178.431299
 31
0.0
  0
LINE
  5
6E9
100
AcDbEntity
  8
0
390
0
  6
DOT
 62
     2
100
AcDbLine
 10
86.919953
 20
178.431299
 30
0.0
 11
86.919033
 21
178.431299
 31
0.0
  0
LINE
  5
6EA
100
AcDbEntity
  8
0
390
0
  6
Continuous
 62
     7
100
AcDbLine
 10
86.918942
 20
178.431299
 30
0.0
 11
84.418937
 21
178.431299
 31
0.0
  0
LINE
  5
6EB
100
AcDbEntity
  8
0
390
0
  6
Continuous
 62
     7
100
AcDbLine
 10
94.418937
 20
178.431299
 30
0.0
 11
91.918932
 21
178.431299
 31
0.0
  0
LINE
  5
6EC
100
AcDbEntity
  8
0
390
0
  6
DOT
 62
     2
100
AcDbLine
 10
91.918932
 20
178.431299
 30
0.0
 11
91.518937
 21
178.431299
 31
0.0
  0
LINE
  5
6ED
100
AcDbEntity
  8
0
390
0
  6
Continuous
 62
     7
100
AcDbLine
 10
91.518937
 20
178.431299
 30
0.0
 11
91.51848
 21
178.431299
 31
0.0
  0
LINE
  5
6EE
100
AcDbEntity
  8
0
390
0
  6
Continuous
 62
     7
100
AcDbLine
 10
84.418937
 20
150.231299
 30
0.0
 11
94.418937
 21
150.231299
 31
0.0
  0
LINE
  5
6EF
100
AcDbEntity
  8
0
390
0
  6
DOT
 62
     2
100
AcDbLine
 10
116.418937
 20
178.331299
 30
0.0
 11
94.418937
 21
178.331299
 31
0.0
  0
LINE
  5
6F0
100
AcDbEntity
  8
0
390
0
  6
DOT
 62
     2
100
AcDbLine
 10
94.418937
 20
150.331299
 30
0.0
 11
116.418937
 21
150.331299
 31
0.0
  0
LINE
  5
6F1
100
AcDbEntity
  8
0
390
0
  6
Continuous
 62
     7
100
AcDbLine
 10
94.418937
 20
115.565201
 30
0.0
 11
94.418937
 21
112.165201
 31
0.0
  0
LINE
  5
6F2
100
AcDbEntity
  8
0
390
0
  6
Continuous
 62
     7
100
AcDbLine
 10
94.418937
 20
112.165201
 30
0.0
 11
94.418937
 21
112.065201
 31
0.0
  0
LINE
  5
6F3
100
AcDbEntity
  8
0
390
0
  6
Continuous
 62
     7
100
AcDbLine
 10
94.418937
 20
84.065201
 30
0.0
 11
94.418937
 21
83.965201
 31
0.0
  0
LINE
  5
6F4
100
AcDbEntity
  8
0
390
0
  6
Continuous
 62
     7
100
AcDbLine
 10
94.418937
 20
83.965201
 30
0.0
 11
94.418937
 21
80.565201
 31
0.0
  0
LINE
  5
6F5
100
AcDbEntity
  8
0
390
0
  6
Continuous
 62
     2
100
AcDbLine
 10
86.918942
 20
105.565201
 30
0.0
 11
87.956117
 21
105.285995
 31
0.0
  0
LINE
  5
6F6
100
AcDbEntity
  8
0
390
0
  6
Continuous
 62
     2
100
AcDbLine
 10
90.881467
 20
105.285936
 30
0.0
 11
91.918932
 21
105.565201
 31
0.0
  0
LINE
  5
6F7
100
AcDbEntity
  8
0
390
0
  6
Continuous
 62
     7
100
AcDbLine
 10
91.518937
 20
105.565201
 30
0.0
 11
91.041194
 21
105.445696
 31
0.0
  0
LINE
  5
6F8
100
AcDbEntity
  8
0
390
0
  6
Continuous
 62
     7
100
AcDbLine
 10
87.797086
 20
105.445607
 30
0.0
 11
87.318937
 21
105.565201
 31
0.0
  0
ARC
  5
6F9
100
AcDbEntity
  8
0
390
0
  6
Continuous
 62
     7
100
AcDbCircle
 10
89.418937
 20
126.108188
 30
0.0
 40
14.100245
210
0.0
220
0.0
230
1.0
100
AcDbArc
 50
261.434869
 51
278.565131
  0
ARC
  5
6FA
100
AcDbEntity
  8
0
390
0
  6
Continuous
 62
     7
100
AcDbCircle
 10
89.418921
 20
98.065201
 30
0.0
 40
2.1
210
0.0
220
0.0
230
1.0
100
AcDbArc
 50
270.46113
 51
89.999566
  0
LINE
  5
6FB
100
AcDbEntity
  8
0
390
0
  6
Continuous
 62
     7
100
AcDbLine
 10
89.435822
 20
95.965269
 30
0.0
 11
89.195455
 21
95.977126
 31
0.0
  0
ARC
  5
6FC
100
AcDbEntity
  8
0
390
0
  6
Continuous
 62
     7
100
AcDbCircle
 10
89.418937
 20
98.065201
 30
0.0
 40
2.1
210
0.0
220
0.0
230
0.9999999999999999
100
AcDbArc
 50
90.0
 51
263.891008
  0
LINE
  5
6FD
100
AcDbEntity
  8
0
390
0
  6
Continuous
 62
     7
100
AcDbLine
 10
91.518937
 20
112.165201
 30
0.0
 11
91.918932
 21
112.165201
 31
0.0
  0
LINE
  5
6FE
100
AcDbEntity
  8
0
390
0
  6
Continuous
 62
     7
100
AcDbLine
 10
91.918932
 20
112.165201
 30
0.0
 11
94.418937
 21
112.165201
 31
0.0
  0
LINE
  5
6FF
100
AcDbEntity
  8
0
390
0
  6
Continuous
 62
     7
100
AcDbLine
 10
84.418937
 20
112.165201
 30
0.0
 11
86.918942
 21
112.165201
 31
0.0
  0
LINE
  5
700
100
AcDbEntity
  8
0
390
0
  6
Continuous
 62
     7
100
AcDbLine
 10
86.918942
 20
112.165201
 30
0.0
 11
87.318937
 21
112.165201
 31
0.0
  0
LINE
  5
701
100
AcDbEntity
  8
0
390
0
  6
Continuous
 62
     7
100
AcDbLine
 10
94.418937
 20
83.965201
 30
0.0
 11
84.418937
 21
83.965201
 31
0.0
  0
LINE
  5
702
100
AcDbEntity
  8
0
390
0
  6
Continuous
 62
     7
100
AcDbLine
 10
94.418937
 20
112.065201
 30
0.0
 11
116.418937
 21
112.065201
 31
0.0
  0
LINE
  5
703
100
AcDbEntity
  8
0
390
0
  6
Continuous
 62
     7
100
AcDbLine
 10
94.418937
 20
112.165201
 30
0.0
 11
94.418937
 21
112.065201
 31
0.0
  0
LINE
  5
704
100
AcDbEntity
  8
0
390
0
  6
Continuous
 62
     7
100
AcDbLine
 10
116.418937
 20
84.065201
 30
0.0
 11
94.418937
 21
84.065201
 31
0.0
  0
LINE
  5
705
100
AcDbEntity
  8
0
390
0
  6
Continuous
 62
     7
100
AcDbLine
 10
94.418937
 20
84.065201
 30
0.0
 11
94.418937
 21
83.965201
 31
0.0
  0
LINE
  5
706
100
AcDbEntity
  8
0
390
0
  6
DOT
 62
     2
100
AcDbLine
 10
155.930875
 20
164.331299
 30
0.0
 11
155.930875
 21
161.831294
 31
0.0
  0
LINE
  5
707
100
AcDbEntity
  8
0
390
0
  6
DOT
 62
     2
100
AcDbLine
 10
166.871056
 20
177.239207
 30
0.0
 11
166.929121
 21
177.266417
 31
0.0
  0
LINE
  5
708
100
AcDbEntity
  8
0
390
0
  6
Continuous
 62
     7
100
AcDbLine
 10
169.564432
 20
171.335895
 30
0.0
 11
167.064432
 21
171.335895
 31
0.0
  0
LINE
  5
709
100
AcDbEntity
  8
0
390
0
  6
Continuous
 62
     7
100
AcDbLine
 10
161.305875
 20
165.581299
 30
0.0
 11
161.305875
 21
163.081299
 31
0.0
  0
CIRCLE
  5
70A
100
AcDbEntity
  8
0
390
0
  6
Continuous
 62
     7
100
AcDbCircle
 10
168.314432
 20
164.331299
 30
0.0
 40
14.0
210
0.0
220
0.0
230
1.0
  0
CIRCLE
  5
70B
100
AcDbEntity
  8
0
390
0
  6
Continuous
 62
     7
100
AcDbCircle
 10
168.314432
 20
164.331299
 30
0.0
 40
14.0
210
0.0
220
0.0
230
1.0
  0
CIRCLE
  5
70C
100
AcDbEntity
  8
0
390
0
  6
DOT
 62
     2
100
AcDbCircle
 10
168.314432
 20
164.331299
 30
0.0
 40
14.1
210
0.0
220
0.0
230
1.0
  0
LINE
  5
70D
100
AcDbEntity
  8
0
390
0
  6
Continuous
 62
     7
100
AcDbLine
 10
199.714432
 20
179.331299
 30
0.0
 11
199.717944
 21
179.330807
 31
0.0
  0
ARC
  5
70E
100
AcDbEntity
  8
0
390
0
  6
Continuous
 62
     7
100
AcDbCircle
 10
201.814432
 20
194.183951
 30
0.0
 40
15.000376
210
0.0
220
0.0
230
1.0
100
AcDbArc
 50
261.952357
 51
278.047643
  0
LINE
  5
70F
100
AcDbEntity
  8
0
390
0
  6
DOT
 62
     2
100
AcDbLine
 10
170.414432
 20
172.185895
 30
0.0
 11
170.414432
 21
176.710895
 31
0.0
  0
LINE
  5
710
100
AcDbEntity
  8
0
390
0
  6
DOT
 62
     2
100
AcDbLine
 10
166.214432
 20
176.710895
 30
0.0
 11
166.214432
 21
172.185895
 31
0.0
  0
LINE
  5
711
100
AcDbEntity
  8
0
390
0
  6
DOT
 62
     2
100
AcDbLine
 10
154.539454
 20
161.831304
 30
0.0
 11
155.930855
 21
161.831304
 31
0.0
  0
LINE
  5
712
100
AcDbEntity
  8
0
390
0
  6
DOT
 62
     2
100
AcDbLine
 10
165.814437
 20
178.106277
 30
0.0
 11
165.814437
 21
176.710915
 31
0.0
  0
LINE
  5
713
100
AcDbEntity
  8
0
390
0
  6
DOT
 62
     2
100
AcDbLine
 10
199.314437
 20
177.196626
 30
0.0
 11
199.314437
 21
173.071621
 31
0.0
  0
LINE
  5
714
100
AcDbEntity
  8
0
390
0
  6
DOT
 62
     2
100
AcDbLine
 10
204.314427
 20
173.071621
 30
0.0
 11
204.314427
 21
177.196626
 31
0.0
  0
LINE
  5
715
100
AcDbEntity
  8
0
390
0
  6
DOT
 62
     2
100
AcDbLine
 10
166.214432
 20
172.185895
 30
0.0
 11
166.736828
 21
171.663499
 31
0.0
  0
LINE
  5
716
100
AcDbEntity
  8
0
390
0
  6
DOT
 62
     2
100
AcDbLine
 10
169.892036
 20
171.663499
 30
0.0
 11
170.414432
 21
172.185895
 31
0.0
  0
LINE
  5
717
100
AcDbEntity
  8
0
390
0
  6
DOT
 62
     2
100
AcDbLine
 10
160.455875
 20
162.231299
 30
0.0
 11
160.981531
 21
162.756955
 31
0.0
  0
LINE
  5
718
100
AcDbEntity
  8
0
390
0
  6
DOT
 62
     2
100
AcDbLine
 10
160.981531
 20
162.756955
 30
0.0
 11
160.981603
 21
162.757027
 31
0.0
  0
LINE
  5
719
100
AcDbEntity
  8
0
390
0
  6
DOT
 62
     2
100
AcDbLine
 10
160.981531
 20
165.905643
 30
0.0
 11
160.455875
 21
166.431299
 31
0.0
  0
LINE
  5
71A
100
AcDbEntity
  8
0
390
0
  6
DOT
 62
     2
100
AcDbLine
 10
155.730875
 20
162.231299
 30
0.0
 11
155.930855
 21
162.231299
 31
0.0
  0
LINE
  5
71B
100
AcDbEntity
  8
0
390
0
  6
DOT
 62
     2
100
AcDbLine
 10
155.930855
 20
166.431299
 30
0.0
 11
155.730875
 21
166.431299
 31
0.0
  0
LINE
  5
71C
100
AcDbEntity
  8
0
390
0
  6
DOT
 62
     2
100
AcDbLine
 10
166.214432
 20
176.910895
 30
0.0
 11
166.214432
 21
176.710915
 31
0.0
  0
LINE
  5
71D
100
AcDbEntity
  8
0
390
0
  6
DOT
 62
     2
100
AcDbLine
 10
170.414432
 20
176.710915
 30
0.0
 11
170.414432
 21
176.910895
 31
0.0
  0
ELLIPSE
  5
71E
100
AcDbEntity
  8
0
390
0
  6
Continuous
 62
     7
100
AcDbEllipse
 10
267.588622
 20
155.825438
 30
0.0
 11
4.1999999999999815
 21
7.2746133917892806
 31
0.0
210
0.0
220
0.0
230
1.0
 40
0.57735
 41
0.0
 42
0.7853981633974507
  0
ELLIPSE
  5
71F
100
AcDbEntity
  8
0
390
0
  6
Continuous
 62
     7
100
AcDbEllipse
 10
267.588622
 20
155.825438
 30
0.0
 11
4.1999999999999815
 21
7.2746133917892806
 31
0.0
210
0.0
220
0.0
230
1.0
 40
0.57735
 41
3.141592653589802
 42
6.28318530717958
  0
ELLIPSE
  5
720
100
AcDbEntity
  8
0
390
0
  6
Continuous
 62
     7
100
AcDbEllipse
 10
267.588622
 20
155.825438
 30
0.0
 11
4.1999999999999815
 21
7.2746133917892806
 31
0.0
210
0.0
220
0.0
230
1.0
 40
0.57735
 41
0.7853981633974507
 42
3.1415926535898029
  0
ELLIPSE
  5
721
100
AcDbEntity
  8
0
390
0
  6
Continuous
 62
     7
100
AcDbEllipse
 10
254.012172
 20
163.663805
 30
0.0
 11
4.2300000000000111
 21
7.326574916016348
 31
0.0
210
0.0
220
0.0
230
1.0
 40
0.57735
 41
0.0
 42
3.1415926535897989
  0
POLYLINE
  5
722
100
AcDbEntity
  8
0
390
0
  6
Continuous
 62
     7
100
AcDb2dPolyline
 66
     1
 10
0.0
 20
0.0
 30
0.0
 40
0.1
 41
0.1
  0
VERTEX
  5
723
100
AcDbEntity
  8
0
390
0
 62
     7
100
AcDbVertex
100
AcDb2dVertex
 10
255.352684
 20
169.916523
 30
0.0
  0
VERTEX
  5
724
100
AcDbEntity
  8
0
390
0
 62
     7
100
AcDbVertex
100
AcDb2dVertex
 10
255.312625
 20
169.898076
 30
0.0
  0
VERTEX
  5
725
100
AcDbEntity
  8
0
390
0
 62
     7
100
AcDbVertex
100
AcDb2dVertex
 10
255.273923
 20
169.878418
 30
0.0
  0
VERTEX
  5
726
100
AcDbEntity
  8
0
390
0
 62
     7
100
AcDbVertex
100
AcDb2dVertex
 10
255.236676
 20
169.8576
 30
0.0
  0
VERTEX
  5
727
100
AcDbEntity
  8
0
390
0
 62
     7
100
AcDbVertex
100
AcDb2dVertex
 10
255.200983
 20
169.835673
 30
0.0
  0
VERTEX
  5
728
100
AcDbEntity
  8
0
390
0
 62
     7
100
AcDbVertex
100
AcDb2dVertex
 10
255.165911
 20
169.811965
 30
0.0
  0
VERTEX
  5
729
100
AcDbEntity
  8
0
390
0
 62
     7
100
AcDbVertex
100
AcDb2dVertex
 10
255.13255
 20
169.787129
 30
0.0
  0
VERTEX
  5
72A
100
AcDbEntity
  8
0
390
0
 62
     7
100
AcDbVertex
100
AcDb2dVertex
 10
255.100988
 20
169.761239
 30
0.0
  0
VERTEX
  5
72B
100
AcDbEntity
  8
0
390
0
 62
     7
100
AcDbVertex
100
AcDb2dVertex
 10
255.071314
 20
169.734368
 30
0.0
  0
VERTEX
  5
72C
100
AcDbEntity
  8
0
390
0
 62
     7
100
AcDbVertex
100
AcDb2dVertex
 10
255.044321
 20
169.707348
 30
0.0
  0
VERTEX
  5
72D
100
AcDbEntity
  8
0
390
0
 62
     7
100
AcDbVertex
100
AcDb2dVertex
 10
255.019157
 20
169.679463
 30
0.0
  0
VERTEX
  5
72E
100
AcDbEntity
  8
0
390
0
 62
     7
100
AcDbVertex
100
AcDb2dVertex
 10
254.995883
 20
169.650796
 30
0.0
  0
VERTEX
  5
72F
100
AcDbEntity
  8
0
390
0
 62
     7
100
AcDbVertex
100
AcDb2dVertex
 10
254.97456
 20
169.621428
 30
0.0
  0
VERTEX
  5
730
100
AcDbEntity
  8
0
390
0
 62
     7
100
AcDbVertex
100
AcDb2dVertex
 10
254.954684
 20
169.59052
 30
0.0
  0
VERTEX
  5
731
100
AcDbEntity
  8
0
390
0
 62
     7
100
AcDbVertex
100
AcDb2dVertex
 10
254.936907
 20
169.558948
 30
0.0
  0
VERTEX
  5
732
100
AcDbEntity
  8
0
390
0
 62
     7
100
AcDbVertex
100
AcDb2dVertex
 10
254.921271
 20
169.526813
 30
0.0
  0
VERTEX
  5
733
100
AcDbEntity
  8
0
390
0
 62
     7
100
AcDbVertex
100
AcDb2dVertex
 10
254.907821
 20
169.494214
 30
0.0
  0
VERTEX
  5
734
100
AcDbEntity
  8
0
390
0
 62
     7
100
AcDbVertex
100
AcDb2dVertex
 10
254.896803
 20
169.461942
 30
0.0
  0
VERTEX
  5
735
100
AcDbEntity
  8
0
390
0
 62
     7
100
AcDbVertex
100
AcDb2dVertex
 10
254.887891
 20
169.429311
 30
0.0
  0
VERTEX
  5
736
100
AcDbEntity
  8
0
390
0
 62
     7
100
AcDbVertex
100
AcDb2dVertex
 10
254.881102
 20
169.396417
 30
0.0
  0
VERTEX
  5
737
100
AcDbEntity
  8
0
390
0
 62
     7
100
AcDbVertex
100
AcDb2dVertex
 10
254.876458
 20
169.36336
 30
0.0
  0
VERTEX
  5
738
100
AcDbEntity
  8
0
390
0
 62
     7
100
AcDbVertex
100
AcDb2dVertex
 10
254.873927
 20
169.329233
 30
0.0
  0
VERTEX
  5
739
100
AcDbEntity
  8
0
390
0
 62
     7
100
AcDbVertex
100
AcDb2dVertex
 10
254.873492
 20
169.308208
 30
0.0
  0
SEQEND
  5
73A
100
AcDbEntity
  8
0
390
0
  0
POLYLINE
  5
73B
100
AcDbEntity
  8
0
390
0
  6
Continuous
 62
     7
100
AcDb2dPolyline
 66
     1
 10
0.0
 20
0.0
 30
0.0
 40
0.1
 41
0.1
  0
VERTEX
  5
73C
100
AcDbEntity
  8
0
390
0
 62
     7
100
AcDbVertex
100
AcDb2dVertex
 10
249.267416
 20
159.616822
 30
0.0
  0
VERTEX
  5
73D
100
AcDbEntity
  8
0
390
0
 62
     7
100
AcDbVertex
100
AcDb2dVertex
 10
249.26044
 20
159.492868
 30
0.0
  0
VERTEX
  5
73E
100
AcDbEntity
  8
0
390
0
 62
     7
100
AcDbVertex
100
AcDb2dVertex
 10
249.269407
 20
159.359778
 30
0.0
 42
0.235279
  0
VERTEX
  5
73F
100
AcDbEntity
  8
0
390
0
 62
     7
100
AcDbVertex
100
AcDb2dVertex
 10
250.35566
 20
157.926332
 30
0.0
  0
VERTEX
  5
740
100
AcDbEntity
  8
0
390
0
 62
     7
100
AcDbVertex
100
AcDb2dVertex
 10
250.462525
 20
157.889041
 30
0.0
  0
VERTEX
  5
741
100
AcDbEntity
  8
0
390
0
 62
     7
100
AcDbVertex
100
AcDb2dVertex
 10
250.561578
 20
157.869212
 30
0.0
  0
VERTEX
  5
742
100
AcDbEntity
  8
0
390
0
 62
     7
100
AcDbVertex
100
AcDb2dVertex
 10
250.683137
 20
157.869321
 30
0.0
  0
VERTEX
  5
743
100
AcDbEntity
  8
0
390
0
 62
     7
100
AcDbVertex
100
AcDb2dVertex
 10
250.79015
 20
157.900478
 30
0.0
  0
VERTEX
  5
744
100
AcDbEntity
  8
0
390
0
 62
     7
100
AcDbVertex
100
AcDb2dVertex
 10
250.814635
 20
157.913294
 30
0.0
  0
SEQEND
  5
745
100
AcDbEntity
  8
0
390
0
  0
POLYLINE
  5
746
100
AcDbEntity
  8
0
390
0
  6
Continuous
 62
     7
100
AcDb2dPolyline
 66
     1
 10
0.0
 20
0.0
 30
0.0
 40
0.1
 41
0.1
  0
VERTEX
  5
747
100
AcDbEntity
  8
0
390
0
 62
     7
100
AcDbVertex
100
AcDb2dVertex
 10
249.554634
 20
160.095677
 30
0.0
  0
VERTEX
  5
748
100
AcDbEntity
  8
0
390
0
 62
     7
100
AcDbVertex
100
AcDb2dVertex
 10
249.549109
 20
160.092433
 30
0.0
  0
VERTEX
  5
749
100
AcDbEntity
  8
0
390
0
 62
     7
100
AcDbVertex
100
AcDb2dVertex
 10
249.520289
 20
160.07399
 30
0.0
  0
VERTEX
  5
74A
100
AcDbEntity
  8
0
390
0
 62
     7
100
AcDbVertex
100
AcDb2dVertex
 10
249.492712
 20
160.053645
 30
0.0
  0
VERTEX
  5
74B
100
AcDbEntity
  8
0
390
0
 62
     7
100
AcDbVertex
100
AcDb2dVertex
 10
249.466929
 20
160.031877
 30
0.0
  0
VERTEX
  5
74C
100
AcDbEntity
  8
0
390
0
 62
     7
100
AcDbVertex
100
AcDb2dVertex
 10
249.442414
 20
160.008333
 30
0.0
  0
VERTEX
  5
74D
100
AcDbEntity
  8
0
390
0
 62
     7
100
AcDbVertex
100
AcDb2dVertex
 10
249.419242
 20
159.98308
 30
0.0
  0
VERTEX
  5
74E
100
AcDbEntity
  8
0
390
0
 62
     7
100
AcDbVertex
100
AcDb2dVertex
 10
249.397487
 20
159.95619
 30
0.0
  0
VERTEX
  5
74F
100
AcDbEntity
  8
0
390
0
 62
     7
100
AcDbVertex
100
AcDb2dVertex
 10
249.376617
 20
159.926831
 30
0.0
  0
VERTEX
  5
750
100
AcDbEntity
  8
0
390
0
 62
     7
100
AcDbVertex
100
AcDb2dVertex
 10
249.357315
 20
159.8958
 30
0.0
  0
VERTEX
  5
751
100
AcDbEntity
  8
0
390
0
 62
     7
100
AcDbVertex
100
AcDb2dVertex
 10
249.339646
 20
159.863191
 30
0.0
  0
VERTEX
  5
752
100
AcDbEntity
  8
0
390
0
 62
     7
100
AcDbVertex
100
AcDb2dVertex
 10
249.323674
 20
159.829099
 30
0.0
  0
VERTEX
  5
753
100
AcDbEntity
  8
0
390
0
 62
     7
100
AcDbVertex
100
AcDb2dVertex
 10
249.308074
 20
159.789819
 30
0.0
  0
VERTEX
  5
754
100
AcDbEntity
  8
0
390
0
 62
     7
100
AcDbVertex
100
AcDb2dVertex
 10
249.294598
 20
159.748801
 30
0.0
  0
VERTEX
  5
755
100
AcDbEntity
  8
0
390
0
 62
     7
100
AcDbVertex
100
AcDb2dVertex
 10
249.283298
 20
159.706196
 30
0.0
  0
VERTEX
  5
756
100
AcDbEntity
  8
0
390
0
 62
     7
100
AcDbVertex
100
AcDb2dVertex
 10
249.27422
 20
159.662154
 30
0.0
  0
VERTEX
  5
757
100
AcDbEntity
  8
0
390
0
 62
     7
100
AcDbVertex
100
AcDb2dVertex
 10
249.267416
 20
159.616822
 30
0.0
  0
SEQEND
  5
758
100
AcDbEntity
  8
0
390
0
  0
LINE
  5
759
100
AcDbEntity
  8
0
390
0
  6
Continuous
 62
     7
100
AcDbLine
 10
250.814635
 20
157.913294
 30
0.0
 11
250.883648
 21
157.965905
 31
0.0
  0
POLYLINE
  5
75A
100
AcDbEntity
  8
0
390
0
  6
Continuous
 62
     7
100
AcDb2dPolyline
 66
     1
 10
0.0
 20
0.0
 30
0.0
 40
0.1
 41
0.1
  0
VERTEX
  5
75B
100
AcDbEntity
  8
0
390
0
 62
     7
100
AcDbVertex
100
AcDb2dVertex
 10
250.999799
 20
158.842653
 30
0.0
 42
0.177797
  0
VERTEX
  5
75C
100
AcDbEntity
  8
0
390
0
 62
     7
100
AcDbVertex
100
AcDb2dVertex
 10
250.292764
 20
160.00525
 30
0.0
  0
VERTEX
  5
75D
100
AcDbEntity
  8
0
390
0
 62
     7
100
AcDbVertex
100
AcDb2dVertex
 10
250.182738
 20
160.072069
 30
0.0
  0
VERTEX
  5
75E
100
AcDbEntity
  8
0
390
0
 62
     7
100
AcDbVertex
100
AcDb2dVertex
 10
250.067934
 20
160.122776
 30
0.0
  0
VERTEX
  5
75F
100
AcDbEntity
  8
0
390
0
 62
     7
100
AcDbVertex
100
AcDb2dVertex
 10
249.9561
 20
160.15389
 30
0.0
  0
VERTEX
  5
760
100
AcDbEntity
  8
0
390
0
 62
     7
100
AcDbVertex
100
AcDb2dVertex
 10
249.846797
 20
160.166397
 30
0.0
  0
VERTEX
  5
761
100
AcDbEntity
  8
0
390
0
 62
     7
100
AcDbVertex
100
AcDb2dVertex
 10
249.739785
 20
160.160063
 30
0.0
  0
VERTEX
  5
762
100
AcDbEntity
  8
0
390
0
 62
     7
100
AcDbVertex
100
AcDb2dVertex
 10
249.641241
 20
160.135502
 30
0.0
  0
VERTEX
  5
763
100
AcDbEntity
  8
0
390
0
 62
     7
100
AcDbVertex
100
AcDb2dVertex
 10
249.554634
 20
160.095677
 30
0.0
  0
SEQEND
  5
764
100
AcDbEntity
  8
0
390
0
  0
POLYLINE
  5
765
100
AcDbEntity
  8
0
390
0
  6
Continuous
 62
     7
100
AcDb2dPolyline
 66
     1
 10
0.0
 20
0.0
 30
0.0
 40
0.1
 41
0.1
  0
VERTEX
  5
766
100
AcDbEntity
  8
0
390
0
 62
     7
100
AcDbVertex
100
AcDb2dVertex
 10
257.393492
 20
169.308208
 30
0.0
  0
VERTEX
  5
767
100
AcDbEntity
  8
0
390
0
 62
     7
100
AcDbVertex
100
AcDb2dVertex
 10
257.370158
 20
169.433048
 30
0.0
  0
VERTEX
  5
768
100
AcDbEntity
  8
0
390
0
 62
     7
100
AcDbVertex
100
AcDb2dVertex
 10
257.311462
 20
169.540783
 30
0.0
  0
VERTEX
  5
769
100
AcDbEntity
  8
0
390
0
 62
     7
100
AcDbVertex
100
AcDb2dVertex
 10
257.220131
 20
169.642736
 30
0.0
  0
VERTEX
  5
76A
100
AcDbEntity
  8
0
390
0
 62
     7
100
AcDbVertex
100
AcDb2dVertex
 10
257.129166
 20
169.716607
 30
0.0
 42
0.233627
  0
VERTEX
  5
76B
100
AcDbEntity
  8
0
390
0
 62
     7
100
AcDbVertex
100
AcDb2dVertex
 10
255.352684
 20
169.916523
 30
0.0
  0
SEQEND
  5
76C
100
AcDbEntity
  8
0
390
0
  0
POLYLINE
  5
76D
100
AcDbEntity
  8
0
390
0
  6
Continuous
 62
     7
100
AcDb2dPolyline
 66
     1
 10
0.0
 20
0.0
 30
0.0
 40
0.1
 41
0.1
  0
VERTEX
  5
76E
100
AcDbEntity
  8
0
390
0
 62
     7
100
AcDbVertex
100
AcDb2dVertex
 10
254.873492
 20
169.308208
 30
0.0
  0
VERTEX
  5
76F
100
AcDbEntity
  8
0
390
0
 62
     7
100
AcDbVertex
100
AcDb2dVertex
 10
254.886365
 20
169.193628
 30
0.0
  0
VERTEX
  5
770
100
AcDbEntity
  8
0
390
0
 62
     7
100
AcDbVertex
100
AcDb2dVertex
 10
254.918495
 20
169.09582
 30
0.0
  0
VERTEX
  5
771
100
AcDbEntity
  8
0
390
0
 62
     7
100
AcDbVertex
100
AcDb2dVertex
 10
254.971414
 20
168.999526
 30
0.0
  0
VERTEX
  5
772
100
AcDbEntity
  8
0
390
0
 62
     7
100
AcDbVertex
100
AcDb2dVertex
 10
255.041871
 20
168.911505
 30
0.0
  0
VERTEX
  5
773
100
AcDbEntity
  8
0
390
0
 62
     7
100
AcDbVertex
100
AcDb2dVertex
 10
255.129598
 20
168.831401
 30
0.0
  0
VERTEX
  5
774
100
AcDbEntity
  8
0
390
0
 62
     7
100
AcDbVertex
100
AcDb2dVertex
 10
255.235496
 20
168.75929
 30
0.0
  0
VERTEX
  5
775
100
AcDbEntity
  8
0
390
0
 62
     7
100
AcDbVertex
100
AcDb2dVertex
 10
255.351358
 20
168.700276
 30
0.0
 42
0.171159
  0
VERTEX
  5
776
100
AcDbEntity
  8
0
390
0
 62
     7
100
AcDbVertex
100
AcDb2dVertex
 10
256.681231
 20
168.683174
 30
0.0
  0
SEQEND
  5
777
100
AcDbEntity
  8
0
390
0
  0
LINE
  5
778
100
AcDbEntity
  8
0
390
0
  6
Continuous
 62
     7
100
AcDbLine
 10
257.382421
 20
169.22208
 30
0.0
 11
257.393492
 21
169.308208
 31
0.0
  0
LINE
  5
779
100
AcDbEntity
  8
0
390
0
  6
Continuous
 62
     7
100
AcDbLine
 10
259.375214
 20
170.336218
 30
0.0
 11
258.242172
 21
170.99038
 31
0.0
  0
LINE
  5
77A
100
AcDbEntity
  8
0
390
0
  6
Continuous
 62
     7
100
AcDbLine
 10
249.782172
 20
156.33723
 30
0.0
 11
250.915214
 21
155.683068
 31
0.0
  0
INSERT
  5
780
100
AcDbEntity
  8
0
390
0
100
AcDbBlockReference
  2
AID2777
 10
0.0
 20
0.0
 30
0.0
  0
INSERT
  5
786
100
AcDbEntity
  8
0
390
0
100
AcDbBlockReference
  2
AID2783
 10
0.0
 20
0.0
 30
0.0
  0
DIMENSION
  5
787
100
AcDbEntity
  8
0
390
0
100
AcDbDimension
  2
*D33
 10
81.217827
 20
112.165201
 30
0.0
 11
77.908737
 21
98.065201
 31
0.0
 71
     5
 72
     1
 41
1.0
 42
0.0
  3
Standard
100
AcDbAlignedDimension
 13
84.418937
 23
112.165201
 33
0.0
 14
84.418937
 24
83.965201
 34
0.0
 50
270.0
100
AcDbRotatedDimension
1001
ACAD
1000
DSTYLE
1002
{
1070
     3
1000
%%c<>
1070
   271
1070
     1
1070
   179
1070
     1
1002
}
  0
DIMENSION
  5
799
100
AcDbEntity
  8
0
390
0
100
AcDbDimension
  2
*D34
 10
78.418937
 20
77.096544
 30
0.0
 11
86.418937
 21
80.405635
 31
0.0
 71
     5
 72
     1
 41
1.0
 42
0.0
  3
Standard
100
AcDbAlignedDimension
 13
78.418937
 23
76.565201
 33
0.0
 14
94.418937
 24
76.565201
 34
0.0
100
AcDbRotatedDimension
1001
ACAD
1000
DSTYLE
1002
{
1070
     3
1000
%%c<>
1070
   271
1070
     1
1070
   179
1070
     1
1002
}
  0
INSERT
  5
7B2
100
AcDbEntity
  8
0
390
0
100
AcDbBlockReference
  2
AID2803
 10
0.0
 20
0.0
 30
0.0
  0
INSERT
  5
7BC
100
AcDbEntity
  8
0
390
0
100
AcDbBlockReference
  2
AID2809
 10
0.0
 20
0.0
 30
0.0
  0
INSERT
  5
7C6
100
AcDbEntity
  8
0
390
0
100
AcDbBlockReference
  2
AID2815
 10
0.0
 20
0.0
 30
0.0
  0
INSERT
  5
7D0
100
AcDbEntity
  8
0
390
0
100
AcDbBlockReference
  2
AID2821
 10
0.0
 20
0.0
 30
0.0
  0
MTEXT
  5
7D1
100
AcDbEntity
  8
0
390
0
 62
     7
100
AcDbMText
 10
94.106377
 20
17.277045
 30
0.0
 40
3.0
 41
3.027273
 71
     7
 72
     1
  1
4
210
0.0
220
0.0
230
1.0
 73
     1
 44
1.0
  0
ENDSEC
  0
SECTION
  2
OBJECTS
  0
DICTIONARY
  5
19
100
AcDbDictionary
280
     0
281
     1
  3
ACAD_GROUP
350
1A
  3
ACAD_MLINESTYLE
350
1B
  3
ACAD_LAYOUT
350
1E
  3
ACAD_PLOTSETTINGS
350
22
  3
ACAD_PLOTSTYLENAME
350
1F
  3
ACAD_WIPEOUT_VARS
350
23
  0
DICTIONARY
  5
1A
102
{ACAD_REACTORS
330
19
102
}
100
AcDbDictionary
280
     0
281
     1
  0
DICTIONARY
  5
1B
102
{ACAD_REACTORS
330
19
102
}
100
AcDbDictionary
280
     0
281
     1
  3
Standard
350
1C
  0
MLINESTYLE
  5
1C
102
{ACAD_REACTORS
330
1B
102
}
100
AcDbMlineStyle
  2
Standard
 70
     0
  3

 62
     0
 51
90.0
 52
90.0
 71
     2
 49
0.5
 62
   256
  6
ByLayer
 49
-0.5
 62
   256
  6
ByLayer
  0
ACDBDICTIONARYWDFLT
  5
1F
102
{ACAD_REACTORS
330
19
102
}
100
AcDbDictionary
281
     1
  3
Normal
350
1D
100
AcDbDictionaryWithDefault
340
1D
  0
ACDBPLACEHOLDER
  5
1D
102
{ACAD_REACTORS
330
1F
102
}
  0
LAYOUT
  5
20
102
{ACAD_REACTORS
330
1E
102
}
100
AcDbPlotSettings
  1

  2

  4

  6

 40
0.0
 41
0.0
 42
0.0
 43
0.0
 44
0.0
 45
0.0
 46
0.0
 47
0.0
 48
0.0
 49
0.0
140
0.0
141
0.0
142
1.0
143
1.0
 70
  1024
 72
     0
 73
     0
 74
     0
  7

 75
     0
147
1.0
148
0.0
149
0.0
100
AcDbLayout
  1
Model
 70
     0
 71
     1
 10
0.0
 20
0.0
 11
0.0
 21
0.0
 12
0.0
 22
0.0
 32
0.0
 14
0.0
 24
0.0
 34
0.0
 15
0.0
 25
0.0
 35
0.0
146
0.0
 13
0.0
 23
0.0
 33
0.0
 16
0.0
 26
0.0
 36
0.0
 17
0.0
 27
0.0
 37
0.0
 76
     0
330
A
331
0
345
0
346
0
  0
LAYOUT
  5
21
102
{ACAD_REACTORS
330
1E
102
}
100
AcDbPlotSettings
  1

  2

  4

  6

 40
0.0
 41
0.0
 42
0.0
 43
0.0
 44
0.0
 45
0.0
 46
0.0
 47
0.0
 48
0.0
 49
0.0
140
0.0
141
0.0
142
1.0
143
1.0
 70
     0
 72
     0
 73
     0
 74
     0
  7

 75
     0
147
1.0
148
0.0
149
0.0
100
AcDbLayout
  1
Layout1
 70
     0
 71
     2
 10
0.0
 20
0.0
 11
0.0
 21
0.0
 12
0.0
 22
0.0
 32
0.0
 14
0.0
 24
0.0
 34
0.0
 15
0.0
 25
0.0
 35
0.0
146
0.0
 13
0.0
 23
0.0
 33
0.0
 16
0.0
 26
0.0
 36
0.0
 17
0.0
 27
0.0
 37
0.0
 76
     0
330
B
331
0
345
0
346
0
  0
DICTIONARY
  5
1E
102
{ACAD_REACTORS
330
19
102
}
100
AcDbDictionary
280
     0
281
     1
  3
Layout1
350
21
  3
Model
350
20
  0
DICTIONARY
  5
22
102
{ACAD_REACTORS
330
19
102
}
100
AcDbDictionary
280
     0
281
     1
  0
WIPEOUTVARIABLES
  5
23
100
AcDbWipeoutVariables
 70
     1
  0
ENDSEC
  0
EOF
