  0
SECTION
  2
HEADER
  9
$ACADVER
  1
AC1015
  9
$ACADMAINTVER
 70
     6
  9
$DWGCODEPAGE
  3
DOS932
  9
$INSBASE
 10
0.0
 20
0.0
 30
0.0
  9
$EXTMIN
 10
0.0
 20
0.0
 30
0.0
  9
$EXTMAX
 10
297.0
 20
200.0
 30
10.0
  9
$LIMMIN
 10
0.0
 20
0.0
  9
$LIMMAX
 10
297.0
 20
200.0
  9
$ORTHOMODE
 70
     0
  9
$REGENMODE
 70
     1
  9
$FILLMODE
 70
     1
  9
$QTEXTMODE
 70
     0
  9
$MIRRTEXT
 70
     1
  9
$LTSCALE
 40
10.0
  9
$ATTMODE
 70
     1
  9
$TEXTSIZE
 40
0.2
  9
$TRACEWID
 40
0.05
  9
$TEXTSTYLE
  7
Standard
  9
$CLAYER
  8
0
  9
$CELTYPE
  6
Continuous
  9
$CECOLOR
 62
   256
  9
$CELTSCALE
 40
1.0
  9
$DISPSILH
 70
     0
  9
$DIMSCALE
 40
1.0
  9
$DIMASZ
 40
1.05
  9
$DIMEXO
 40
1.05
  9
$DIMDLI
 40
0.38
  9
$DIMRND
 40
0.0
  9
$DIMDLE
 40
0.0
  9
$DIMEXE
 40
1.05
  9
$DIMTP
 40
0.0
  9
$DIMTM
 40
0.0
  9
$DIMTXT
 40
3.5
  9
$DIMCEN
 40
0.09
  9
$DIMTSZ
 40
0.0
  9
$DIMTOL
 70
     0
  9
$DIMLIM
 70
     0
  9
$DIMTIH
 70
     0
  9
$DIMTOH
 70
     0
  9
$DIMSE1
 70
     0
  9
$DIMSE2
 70
     0
  9
$DIMTAD
 70
     1
  9
$DIMZIN
 70
     0
  9
$DIMBLK
  1

  9
$DIMASO
 70
     1
  9
$DIMSHO
 70
     1
  9
$DIMPOST
  1

  9
$DIMAPOST
  1

  9
$DIMALT
 70
     0
  9
$DIMALTD
 70
     2
  9
$DIMALTF
 40
25.4
  9
$DIMLFAC
 40
1.0
  9
$DIMTOFL
 70
     0
  9
$DIMTVP
 40
0.0
  9
$DIMTIX
 70
     0
  9
$DIMSOXD
 70
     0
  9
$DIMSAH
 70
     0
  9
$DIMBLK1
  1

  9
$DIMBLK2
  1

  9
$DIMSTYLE
  2
Standard
  9
$DIMCLRD
 70
     7
  9
$DIMCLRE
 70
     7
  9
$DIMCLRT
 70
     7
  9
$DIMTFAC
 40
0.5
  9
$DIMGAP
 40
1.75
  9
$DIMJUST
 70
     0
  9
$DIMSD1
 70
     0
  9
$DIMSD2
 70
     0
  9
$DIMTOLJ
 70
     1
  9
$DIMTZIN
 70
     0
  9
$DIMALTZ
 70
     0
  9
$DIMALTTZ
 70
     0
  9
$DIMUPT
 70
     0
  9
$DIMDEC
 70
     1
  9
$DIMTDEC
 70
     4
  9
$DIMALTU
 70
     2
  9
$DIMALTTD
 70
     2
  9
$DIMTXSTY
  7
Standard
  9
$DIMAUNIT
 70
     0
  9
$DIMADEC
 70
     0
  9
$DIMALTRND
 40
0.0
  9
$DIMAZIN
 70
     0
  9
$DIMDSEP
 70
     0
  9
$DIMATFIT
 70
     3
  9
$DIMFRAC
 70
     0
  9
$DIMLDRBLK
  1

  9
$DIMLUNIT
 70
     2
  9
$DIMLWD
 70
     0
  9
$DIMLWE
 70
     0
  9
$DIMTMOVE
 70
     0
  9
$LUNITS
 70
     2
  9
$LUPREC
 70
     4
  9
$SKETCHINC
 40
0.1
  9
$FILLETRAD
 40
0.0
  9
$AUNITS
 70
     0
  9
$AUPREC
 70
     0
  9
$MENU
  1
acad
  9
$ELEVATION
 40
0.0
  9
$PELEVATION
 40
0.0
  9
$THICKNESS
 40
0.0
  9
$LIMCHECK
 70
     0
  9
$CHAMFERA
 40
0.0
  9
$CHAMFERB
 40
0.0
  9
$CHAMFERC
 40
0.0
  9
$CHAMFERD
 40
0.0
  9
$SKPOLY
 70
     0
  9
$TDCREATE
 40
2458393.365069444
  9
$TDUCREATE
 40
0.000000000
  9
$TDUPDATE
 40
2458392.989756945
  9
$TDUUPDATE
 40
0.000000000
  9
$TDINDWG
 40
0.0000000000
  9
$TDUSRTIMER
 40
0.0000000000
  9
$USRTIMER
 70
     1
  9
$ANGBASE
 50
0.0
  9
$ANGDIR
 70
     0
  9
$PDMODE
 70
     0
  9
$PDSIZE
 40
0.0
  9
$PLINEWID
 40
0.0
  9
$SPLFRAME
 70
     0
  9
$SPLINETYPE
 70
     6
  9
$SPLINESEGS
 70
     8
  9
$HANDSEED
  5
5CE
  9
$SURFTAB1
 70
     6
  9
$SURFTAB2
 70
     6
  9
$SURFTYPE
 70
     6
  9
$SURFU
 70
     6
  9
$SURFV
 70
     6
  9
$UCSBASE
  2

  9
$UCSNAME
  2

  9
$UCSORG
 10
0.0
 20
0.0
 30
0.0
  9
$UCSXDIR
 10
1.0
 20
0.0
 30
0.0
  9
$UCSYDIR
 10
0.0
 20
1.0
 30
0.0
  9
$UCSORTHOREF
  2

  9
$UCSORTHOVIEW
 70
     0
  9
$UCSORGTOP
 10
0.0
 20
0.0
 30
0.0
  9
$UCSORGBOTTOM
 10
0.0
 20
0.0
 30
0.0
  9
$UCSORGLEFT
 10
0.0
 20
0.0
 30
0.0
  9
$UCSORGRIGHT
 10
0.0
 20
0.0
 30
0.0
  9
$UCSORGFRONT
 10
0.0
 20
0.0
 30
0.0
  9
$UCSORGBACK
 10
0.0
 20
0.0
 30
0.0
  9
$PUCSBASE
  2

  9
$PUCSNAME
  2

  9
$PUCSORG
 10
0.0
 20
0.0
 30
0.0
  9
$PUCSXDIR
 10
1.0
 20
0.0
 30
0.0
  9
$PUCSYDIR
 10
0.0
 20
1.0
 30
0.0
  9
$PUCSORTHOREF
  2

  9
$PUCSORTHOVIEW
 70
     0
  9
$PUCSORGTOP
 10
0.0
 20
0.0
 30
0.0
  9
$PUCSORGBOTTOM
 10
0.0
 20
0.0
 30
0.0
  9
$PUCSORGLEFT
 10
0.0
 20
0.0
 30
0.0
  9
$PUCSORGRIGHT
 10
0.0
 20
0.0
 30
0.0
  9
$PUCSORGFRONT
 10
0.0
 20
0.0
 30
0.0
  9
$PUCSORGBACK
 10
0.0
 20
0.0
 30
0.0
  9
$USERI1
 70
     0
  9
$USERI2
 70
     0
  9
$USERI3
 70
     0
  9
$USERI4
 70
     0
  9
$USERI5
 70
     0
  9
$USERR1
 40
0.0
  9
$USERR2
 40
0.0
  9
$USERR3
 40
0.0
  9
$USERR4
 40
0.0
  9
$USERR5
 40
0.0
  9
$WORLDVIEW
 70
     1
  9
$SHADEDGE
 70
     3
  9
$SHADEDIF
 70
    70
  9
$TILEMODE
 70
     1
  9
$MAXACTVP
 70
    16
  9
$PINSBASE
 10
0.0
 20
0.0
 30
0.0
  9
$PLIMCHECK
 70
     0
  9
$PEXTMIN
 10
1.000000E+20
 20
1.000000E+20
 30
1.000000E+20
  9
$PEXTMAX
 10
-1.000000E+20
 20
-1.000000E+20
 30
-1.000000E+20
  9
$PLIMMIN
 10
0.0
 20
0.0
  9
$PLIMMAX
 10
12.0
 20
9.0
  9
$UNITMODE
 70
     0
  9
$VISRETAIN
 70
     0
  9
$PLINEGEN
 70
     1
  9
$PSLTSCALE
 70
     0
  9
$TREEDEPTH
 70
  3020
  9
$CMLSTYLE
  2
Standard
  9
$CMLJUST
 70
     0
  9
$CMLSCALE
 40
1.0
  9
$PROXYGRAPHICS
 70
     0
  9
$MEASUREMENT
 70
     1
  9
$CELWEIGHT
370
     0
  9
$ENDCAPS
280
     0
  9
$JOINSTYLE
280
     0
  9
$LWDISPLAY
290
     0
  9
$INSUNITS
 70
     0
  9
$HYPERLINKBASE
  1

  9
$STYLESHEET
  1

  9
$XEDIT
290
     1
  9
$CEPSNTYPE
380
     0
  9
$PSTYLEMODE
290
     1
  9
$FINGERPRINTGUID
  2

  9
$VERSIONGUID
  2

  9
$EXTNAMES
290
     1
  9
$PSVPSCALE
 40
0.0
  0
ENDSEC
  0
SECTION
  2
CLASSES
  0
CLASS
  1
LWPOLYLINE
  2
AcDbPolyline
  3
AutoCAD 2000
 90
        0
280
     0
281
     1
  0
CLASS
  1
IMAGE
  2
AcDbRasterImage
  3
ISM
 90
      127
280
     0
281
     1
  0
CLASS
  1
OLE2FRAME
  2
AcDbOle2Frame
  3
AutoCAD 2000
 90
        0
280
     0
281
     1
  0
CLASS
  1
HATCH
  2
AcDbHatch
  3
AutoCAD 2000
 90
        0
280
     0
281
     1
  0
CLASS
  1
DICTIONARYVAR
  2
AcDbDictionaryVar
  3
AutoCAD 2000
 90
        0
280
     0
281
     0
  0
CLASS
  1
RASTERVARIABLES
  2
AcDbRasterVariables
  3
ISM
 90
        0
280
     0
281
     0
  0
CLASS
  1
IMAGEDEF
  2
AcDbRasterImageDef
  3
ISM
 90
        0
280
     0
281
     0
  0
CLASS
  1
IMAGEDEF_REACTOR
  2
AcDbRasterImageDefReactor
  3
ISM
 90
        1
280
     0
281
     0
  0
CLASS
  1
IDBUFFER
  2
AcDbIdBuffer
  3
AutoCAD 2000
 90
        0
280
     0
281
     0
  0
CLASS
  1
SPATIAL_FILTER
  2
AcDbSpatialFilter
  3
AutoCAD 2000
 90
        0
280
     0
281
     0
  0
CLASS
  1
XRECORD
  2
AcDbXrecord
  3
AutoCAD 2000
 90
        0
280
     0
281
     0
  0
CLASS
  1
SORTENTSTABLE
  2
AcDbSortentsTable
  3
AutoCAD 2000
 90
        0
280
     0
281
     0
  0
CLASS
  1
LAYER_INDEX
  2
AcDbLayerIndex
  3
AutoCAD 2000
 90
        0
280
     0
281
     0
  0
CLASS
  1
SPATIAL_INDEX
  2
AcDbSpatialIndex
  3
AutoCAD 2000
 90
        0
280
     0
281
     0
  0
CLASS
  1
OBJECT_PTR
  2
CAseDLPNTableRecord
  3
"ASE-LPNTableRecord"
 90
        1
280
     0
281
     0
  0
CLASS
  1
LAYOUT
  2
AcDbLayout
  3
AutoCAD 2000
 90
        0
280
     0
281
     0
  0
CLASS
  1
PLOTSETTINGS
  2
AcDbPlotSettings
  3
AutoCAD 2000
 90
        0
280
     0
281
     0
  0
CLASS
  1
ACDBDICTIONARYWDFLT
  2
AcDbDictionaryWithDefault
  3
AutoCAD 2000
 90
        0
280
     0
281
     0
  0
CLASS
  1
ACDBPLACEHOLDER
  2
AcDbPlaceHolder
  3
AutoCAD 2000
 90
        0
280
     0
281
     0
  0
CLASS
  1
VBA_PROJECT
  2
AcDbVbaProject
  3
acadvba
 90
        0
280
     0
281
     0
  0
CLASS
  1
WIPEOUT
  2
AcDbWipeout
  3
WipeOut|AutoCAD Express Tool|expresstools@autodesk.com
 90
      127
280
     0
281
     1
  0
CLASS
  1
WIPEOUTVARIABLES
  2
AcDbWipeoutVariables
  3
WipeOut|AutoCAD Express Tool|expresstools@autodesk.com
 90
        0
280
     0
281
     0
  0
CLASS
  1
RTEXT
  2
RText
  3
RText|AutoCAD Express Tool|expresstools@autodesk.com
 90
        0
280
     0
281
     1
  0
CLASS
  1
ARCALIGNEDTEXT
  2
AcDbArcAlignedText
  3
ATEXT|AutoCAD Express Tool|expresstools@autodesk.com
 90
        0
280
     0
281
     1
  0
ENDSEC
  0
SECTION
  2
TABLES
  0
TABLE
  2
VPORT
  5
7
100
AcDbSymbolTable
 70
     1
  0
VPORT
  5
15
100
AcDbSymbolTableRecord
100
AcDbViewportTableRecord
  2
*ACTIVE
 70
     0
 10
0.0
 20
0.0
 11
1.0
 21
1.0
 12
6.591288
 22
4.579184
 13
0.0
 23
0.0
 14
1.0
 24
1.0
 15
0.0
 25
0.0
 16
0.0
 26
0.0
 36
1.0
 17
0.0
 27
0.0
 37
0.0
 40
9.158369
 41
0.688564
 42
50.0
 43
0.0
 44
0.0
 50
0.0
 51
0.0
 71
     0
 72
   100
 73
     1
 74
     1
 75
     0
 76
     0
 77
     0
 78
     0
281
     0
 65
     0
110
0.0
120
0.0
130
0.0
111
1.0
121
0.0
131
0.0
112
0.0
122
1.0
132
0.0
345
0
346
0
 79
     0
146
0.0
  0
ENDTAB
  0
TABLE
  2
LTYPE
  5
4
100
AcDbSymbolTable
 70
     5
  0
LTYPE
  5
11
100
AcDbSymbolTableRecord
100
AcDbLinetypeTableRecord
  2
ByBlock
 70
    64
  3

 72
    65
 73
     0
 40
0.0
  0
LTYPE
  5
12
100
AcDbSymbolTableRecord
100
AcDbLinetypeTableRecord
  2
ByLayer
 70
    64
  3

 72
    65
 73
     0
 40
0.0
  0
LTYPE
  5
13
100
AcDbSymbolTableRecord
100
AcDbLinetypeTableRecord
  2
Continuous
 70
    64
  3
Solid line
 72
    65
 73
     0
 40
0.0
  0
LTYPE
  5
10B
100
AcDbSymbolTableRecord
100
AcDbLinetypeTableRecord
  2
CENTER
 70
    64
  3
____ _ ____ _ ____ _ ____ _ ____ _ ____ _ ____
 72
    65
 73
     4
 40
2.0
 49
1.25
 74
     0
 49
-0.25
 74
     0
 49
0.25
 74
     0
 49
-0.25
 74
     0
  0
LTYPE
  5
2D2
100
AcDbSymbolTableRecord
100
AcDbLinetypeTableRecord
  2
DOT
 70
    64
  3
..............................................
 72
    65
 73
     2
 40
0.5
 49
0.25
 74
     0
 49
-0.25
 74
     0
  0
ENDTAB
  0
TABLE
  2
LAYER
  5
2
100
AcDbSymbolTable
 70
     1
  0
LAYER
  5
14
100
AcDbSymbolTableRecord
100
AcDbLayerTableRecord
  2
0
 70
     0
 62
     7
  6
Continuous
290
     1
370
    -3
390
1D
  0
ENDTAB
  0
TABLE
  2
STYLE
  5
3
100
AcDbSymbolTable
 70
     2
  0
STYLE
  5
17
100
AcDbSymbolTableRecord
100
AcDbTextStyleTableRecord
  2
Standard
 70
     0
 40
0.0
 41
1.0
 50
0.0
 71
     0
 42
0.0
  3
ＭＳ Ｐゴシック
  4

1001
ACAD
1000
ＭＳ Ｐゴシック
1071
        1
  0
STYLE
  5
166
100
AcDbSymbolTableRecord
100
AcDbTextStyleTableRecord
  2
TopStyle2
 70
     0
 40
0.0
 41
1.0
 50
0.0
 71
     0
 42
0.0
  3
HG丸ｺﾞｼｯｸM-PRO
  4

1001
ACAD
1000
HG丸ｺﾞｼｯｸM-PRO
1071
        2
  0
ENDTAB
  0
TABLE
  2
VIEW
  5
5
100
AcDbSymbolTable
 70
     0
  0
ENDTAB
  0
TABLE
  2
UCS
  5
6
100
AcDbSymbolTable
 70
     0
  0
ENDTAB
  0
TABLE
  2
APPID
  5
8
100
AcDbSymbolTable
 70
     2
  0
APPID
  5
16
100
AcDbSymbolTableRecord
100
AcDbRegAppTableRecord
  2
ACAD
 70
     0
  0
APPID
  5
26
100
AcDbSymbolTableRecord
100
AcDbRegAppTableRecord
  2
TOPsolid_Draft
 70
     0
  0
ENDTAB
  0
TABLE
  2
DIMSTYLE
  5
9
100
AcDbSymbolTable
 70
     1
100
AcDbDimStyleTable
 71
     0
  0
DIMSTYLE
105
18
100
AcDbSymbolTableRecord
100
AcDbDimStyleTableRecord
  2
Standard
 70
     0
  3

  4

 40
1.0
 41
1.05
 42
1.05
 43
0.38
 44
1.05
 45
0.0
 46
0.0
 47
0.0
 48
0.0
 71
     0
 72
     0
 73
     0
 74
     0
 75
     0
 76
     0
 77
     1
 78
     0
 79
     0
140
3.5
141
0.09
142
0.0
143
25.4
144
1.0
145
0.0
146
0.5
147
1.75
148
0.0
170
     0
171
     2
172
     0
173
     0
174
     0
175
     0
176
     7
177
     7
178
     7
179
     0
271
     1
272
     4
273
     2
274
     2
275
     0
276
     0
277
     2
278
    46
279
     0
280
     0
281
     0
282
     0
283
     1
284
     0
285
     0
286
     0
288
     0
289
     3
340
17
341
0
342
0
343
0
344
0
371
    -2
372
    -2
  0
ENDTAB
  0
TABLE
  2
BLOCK_RECORD
  5
1
100
AcDbSymbolTable
 70
    23
  0
BLOCK_RECORD
  5
A
100
AcDbSymbolTableRecord
100
AcDbBlockTableRecord
  2
*MODEL_SPACE
340
20
  0
BLOCK_RECORD
  5
B
100
AcDbSymbolTableRecord
100
AcDbBlockTableRecord
  2
*PAPER_SPACE
340
21
  0
BLOCK_RECORD
  5
27
100
AcDbSymbolTableRecord
100
AcDbBlockTableRecord
  2
$DFT_DRAWING
340
0
102
{BLKREFS
331
58
102
}
  0
BLOCK_RECORD
  5
29
100
AcDbSymbolTableRecord
100
AcDbBlockTableRecord
  2
$DFT_DRAWING950
340
0
102
{BLKREFS
331
56
102
}
  0
BLOCK_RECORD
  5
59
100
AcDbSymbolTableRecord
100
AcDbBlockTableRecord
  2
AID85
340
0
102
{BLKREFS
331
80
102
}
  0
BLOCK_RECORD
  5
8E
100
AcDbSymbolTableRecord
100
AcDbBlockTableRecord
  2
AID185
340
0
102
{BLKREFS
331
B8
102
}
  0
BLOCK_RECORD
  5
C1
100
AcDbSymbolTableRecord
100
AcDbBlockTableRecord
  2
AID280
340
0
102
{BLKREFS
331
CA
102
}
  0
BLOCK_RECORD
  5
CB
100
AcDbSymbolTableRecord
100
AcDbBlockTableRecord
  2
AID285
340
0
102
{BLKREFS
331
D4
102
}
  0
BLOCK_RECORD
  5
D5
100
AcDbSymbolTableRecord
100
AcDbBlockTableRecord
  2
AID290
340
0
102
{BLKREFS
331
DE
102
}
  0
BLOCK_RECORD
  5
DF
100
AcDbSymbolTableRecord
100
AcDbBlockTableRecord
  2
AID295
340
0
102
{BLKREFS
331
E8
102
}
  0
BLOCK_RECORD
  5
E9
100
AcDbSymbolTableRecord
100
AcDbBlockTableRecord
  2
AID300
340
0
102
{BLKREFS
331
F2
102
}
  0
BLOCK_RECORD
  5
101
100
AcDbSymbolTableRecord
100
AcDbBlockTableRecord
  2
AID333
340
0
102
{BLKREFS
331
10F
102
}
  0
BLOCK_RECORD
  5
112
100
AcDbSymbolTableRecord
100
AcDbBlockTableRecord
  2
AID349
340
0
102
{BLKREFS
331
124
102
}
  0
BLOCK_RECORD
  5
169
100
AcDbSymbolTableRecord
100
AcDbBlockTableRecord
  2
AID514
340
0
102
{BLKREFS
331
2D1
102
}
  0
BLOCK_RECORD
  5
407
100
AcDbSymbolTableRecord
100
AcDbBlockTableRecord
  2
*D12
340
0
  0
BLOCK_RECORD
  5
41A
100
AcDbSymbolTableRecord
100
AcDbBlockTableRecord
  2
*D13
340
0
  0
BLOCK_RECORD
  5
42C
100
AcDbSymbolTableRecord
100
AcDbBlockTableRecord
  2
*D14
340
0
  0
BLOCK_RECORD
  5
43E
100
AcDbSymbolTableRecord
100
AcDbBlockTableRecord
  2
*D15
340
0
  0
BLOCK_RECORD
  5
451
100
AcDbSymbolTableRecord
100
AcDbBlockTableRecord
  2
*D16
340
0
  0
BLOCK_RECORD
  5
463
100
AcDbSymbolTableRecord
100
AcDbBlockTableRecord
  2
*D17
340
0
  0
BLOCK_RECORD
  5
499
100
AcDbSymbolTableRecord
100
AcDbBlockTableRecord
  2
AID1975
340
0
102
{BLKREFS
331
4A1
102
}
  0
BLOCK_RECORD
  5
59E
100
AcDbSymbolTableRecord
100
AcDbBlockTableRecord
  2
*D19
340
0
  0
BLOCK_RECORD
  5
5AF
100
AcDbSymbolTableRecord
100
AcDbBlockTableRecord
  2
AID2189
340
0
102
{BLKREFS
331
5B4
102
}
  0
BLOCK_RECORD
  5
5B5
100
AcDbSymbolTableRecord
100
AcDbBlockTableRecord
  2
AID2195
340
0
102
{BLKREFS
331
5BE
102
}
  0
BLOCK_RECORD
  5
5BF
100
AcDbSymbolTableRecord
100
AcDbBlockTableRecord
  2
AID2201
340
0
102
{BLKREFS
331
5C8
102
}
  0
ENDTAB
  0
ENDSEC
  0
SECTION
  2
BLOCKS
  0
BLOCK
  5
D
100
AcDbEntity
  8
0
390
0
100
AcDbBlockBegin
  2
*MODEL_SPACE
 70
     0
 10
0.0
 20
0.0
 30
0.0
  3
*MODEL_SPACE
  1

  0
ENDBLK
  5
E
100
AcDbEntity
  8
0
390
0
100
AcDbBlockEnd
  0
BLOCK
  5
F
100
AcDbEntity
 67
     1
  8
0
390
0
100
AcDbBlockBegin
  2
*PAPER_SPACE
 70
     0
 10
0.0
 20
0.0
 30
0.0
  3
*PAPER_SPACE
  1

  0
ENDBLK
  5
10
100
AcDbEntity
 67
     1
  8
0
390
0
100
AcDbBlockEnd
  0
BLOCK
  5
28
100
AcDbEntity
  8
0
390
0
100
AcDbBlockBegin
  2
$DFT_DRAWING
 70
     0
 10
0.0
 20
0.0
 30
0.0
  3
D_FRAME_DRAWING
  1

  0
INSERT
  5
56
100
AcDbEntity
  8
0
390
0
100
AcDbBlockReference
  2
$DFT_DRAWING950
 10
0.0
 20
0.0
 30
0.0
  0
ENDBLK
  5
57
100
AcDbEntity
  8
0
390
0
100
AcDbBlockEnd
  0
BLOCK
  5
2A
100
AcDbEntity
  8
0
390
0
100
AcDbBlockBegin
  2
$DFT_DRAWING950
 70
     0
 10
0.0
 20
0.0
 30
0.0
  3
#draft drawing
  1

  0
LINE
  5
2B
100
AcDbEntity
  8
0
390
0
  6
Continuous
 62
     8
100
AcDbLine
 10
10.0
 20
10.0
 30
0.0
 11
287.0
 21
10.0
 31
0.0
  0
LINE
  5
2C
100
AcDbEntity
  8
0
390
0
  6
Continuous
 62
     8
100
AcDbLine
 10
287.0
 20
10.0
 30
0.0
 11
287.0
 21
200.0
 31
0.0
  0
LINE
  5
2D
100
AcDbEntity
  8
0
390
0
  6
Continuous
 62
     8
100
AcDbLine
 10
287.0
 20
200.0
 30
0.0
 11
10.0
 21
200.0
 31
0.0
  0
LINE
  5
2E
100
AcDbEntity
  8
0
390
0
  6
Continuous
 62
     8
100
AcDbLine
 10
10.0
 20
200.0
 30
0.0
 11
10.0
 21
10.0
 31
0.0
  0
LINE
  5
2F
100
AcDbEntity
  8
0
390
0
  6
Continuous
 62
     8
100
AcDbLine
 10
74.25
 20
200.0
 30
0.0
 11
74.25
 21
205.0
 31
0.0
  0
MTEXT
  5
30
100
AcDbEntity
  8
0
390
0
 62
     8
100
AcDbMText
 10
37.125
 20
205.0
 30
0.0
 40
3.5
 41
0.408333
 71
     2
 72
     1
  1
1
210
0.0
220
0.0
230
1.0
 73
     1
 44
1.0
  0
LINE
  5
31
100
AcDbEntity
  8
0
390
0
  6
Continuous
 62
     8
100
AcDbLine
 10
74.25
 20
10.0
 30
0.0
 11
74.25
 21
5.0
 31
0.0
  0
MTEXT
  5
32
100
AcDbEntity
  8
0
390
0
 62
     8
100
AcDbMText
 10
37.125
 20
5.0
 30
0.0
 40
3.5
 41
0.408333
 71
     8
 72
     1
  1
1
210
0.0
220
0.0
230
1.0
 73
     1
 44
1.0
  0
LINE
  5
33
100
AcDbEntity
  8
0
390
0
  6
Continuous
 62
     8
100
AcDbLine
 10
148.5
 20
200.0
 30
0.0
 11
148.5
 21
205.0
 31
0.0
  0
MTEXT
  5
34
100
AcDbEntity
  8
0
390
0
 62
     8
100
AcDbMText
 10
111.375
 20
205.0
 30
0.0
 40
3.5
 41
2.547222
 71
     2
 72
     1
  1
2
210
0.0
220
0.0
230
1.0
 73
     1
 44
1.0
  0
LINE
  5
35
100
AcDbEntity
  8
0
390
0
  6
Continuous
 62
     8
100
AcDbLine
 10
222.75
 20
200.0
 30
0.0
 11
222.75
 21
205.0
 31
0.0
  0
MTEXT
  5
36
100
AcDbEntity
  8
0
390
0
 62
     8
100
AcDbMText
 10
185.625
 20
205.0
 30
0.0
 40
3.5
 41
2.723437
 71
     2
 72
     1
  1
3
210
0.0
220
0.0
230
1.0
 73
     1
 44
1.0
  0
LINE
  5
37
100
AcDbEntity
  8
0
390
0
  6
Continuous
 62
     8
100
AcDbLine
 10
222.75
 20
10.0
 30
0.0
 11
222.75
 21
5.0
 31
0.0
  0
MTEXT
  5
38
100
AcDbEntity
  8
0
390
0
 62
     8
100
AcDbMText
 10
259.875
 20
205.0
 30
0.0
 40
3.5
 41
2.716146
 71
     2
 72
     1
  1
4
210
0.0
220
0.0
230
1.0
 73
     1
 44
1.0
  0
MTEXT
  5
39
100
AcDbEntity
  8
0
390
0
 62
     8
100
AcDbMText
 10
259.875
 20
5.0
 30
0.0
 40
3.5
 41
2.716146
 71
     8
 72
     1
  1
4
210
0.0
220
0.0
230
1.0
 73
     1
 44
1.0
  0
LINE
  5
3A
100
AcDbEntity
  8
0
390
0
  6
Continuous
 62
     8
100
AcDbLine
 10
287.0
 20
157.5
 30
0.0
 11
292.0
 21
157.5
 31
0.0
  0
MTEXT
  5
3B
100
AcDbEntity
  8
0
390
0
 62
     8
100
AcDbMText
 10
292.0
 20
183.75
 30
0.0
 40
3.5
 41
3.137923
 71
     6
 72
     1
  1
A
210
0.0
220
0.0
230
1.0
 73
     1
 44
1.0
  0
LINE
  5
3C
100
AcDbEntity
  8
0
390
0
  6
Continuous
 62
     8
100
AcDbLine
 10
10.0
 20
157.5
 30
0.0
 11
5.0
 21
157.5
 31
0.0
  0
MTEXT
  5
3D
100
AcDbEntity
  8
0
390
0
 62
     8
100
AcDbMText
 10
5.0
 20
183.75
 30
0.0
 40
3.5
 41
3.137923
 71
     4
 72
     1
  1
A
210
0.0
220
0.0
230
1.0
 73
     1
 44
1.0
  0
LINE
  5
3E
100
AcDbEntity
  8
0
390
0
  6
Continuous
 62
     8
100
AcDbLine
 10
287.0
 20
105.0
 30
0.0
 11
292.0
 21
105.0
 31
0.0
  0
MTEXT
  5
3F
100
AcDbEntity
  8
0
390
0
 62
     8
100
AcDbMText
 10
292.0
 20
131.25
 30
0.0
 40
3.5
 41
2.527778
 71
     6
 72
     1
  1
B
210
0.0
220
0.0
230
1.0
 73
     1
 44
1.0
  0
LINE
  5
40
100
AcDbEntity
  8
0
390
0
  6
Continuous
 62
     8
100
AcDbLine
 10
10.0
 20
105.0
 30
0.0
 11
5.0
 21
105.0
 31
0.0
  0
MTEXT
  5
41
100
AcDbEntity
  8
0
390
0
 62
     8
100
AcDbMText
 10
5.0
 20
131.25
 30
0.0
 40
3.5
 41
2.527778
 71
     4
 72
     1
  1
B
210
0.0
220
0.0
230
1.0
 73
     1
 44
1.0
  0
LINE
  5
42
100
AcDbEntity
  8
0
390
0
  6
Continuous
 62
     8
100
AcDbLine
 10
287.0
 20
52.5
 30
0.0
 11
292.0
 21
52.5
 31
0.0
  0
MTEXT
  5
43
100
AcDbEntity
  8
0
390
0
 62
     8
100
AcDbMText
 10
292.0
 20
78.75
 30
0.0
 40
3.5
 41
2.966797
 71
     6
 72
     1
  1
C
210
0.0
220
0.0
230
1.0
 73
     1
 44
1.0
  0
LINE
  5
44
100
AcDbEntity
  8
0
390
0
  6
Continuous
 62
     8
100
AcDbLine
 10
10.0
 20
52.5
 30
0.0
 11
5.0
 21
52.5
 31
0.0
  0
MTEXT
  5
45
100
AcDbEntity
  8
0
390
0
 62
     8
100
AcDbMText
 10
5.0
 20
78.75
 30
0.0
 40
3.5
 41
2.966797
 71
     4
 72
     1
  1
C
210
0.0
220
0.0
230
1.0
 73
     1
 44
1.0
  0
MTEXT
  5
46
100
AcDbEntity
  8
0
390
0
 62
     8
100
AcDbMText
 10
292.0
 20
26.25
 30
0.0
 40
3.5
 41
2.722222
 71
     6
 72
     1
  1
D
210
0.0
220
0.0
230
1.0
 73
     1
 44
1.0
  0
MTEXT
  5
47
100
AcDbEntity
  8
0
390
0
 62
     8
100
AcDbMText
 10
5.0
 20
26.25
 30
0.0
 40
3.5
 41
2.722222
 71
     4
 72
     1
  1
D
210
0.0
220
0.0
230
1.0
 73
     1
 44
1.0
  0
LINE
  5
48
100
AcDbEntity
  8
0
390
0
  6
Continuous
 62
     8
100
AcDbLine
 10
148.5
 20
10.0
 30
0.0
 11
148.5
 21
5.0
 31
0.0
  0
LINE
  5
49
100
AcDbEntity
  8
0
390
0
  6
Continuous
 62
     8
100
AcDbLine
 10
158.5
 20
10.0
 30
0.0
 11
158.5
 21
5.0
 31
0.0
  0
LINE
  5
4A
100
AcDbEntity
  8
0
390
0
  6
Continuous
 62
     8
100
AcDbLine
 10
138.5
 20
10.0
 30
0.0
 11
138.5
 21
5.0
 31
0.0
  0
LINE
  5
4B
100
AcDbEntity
  8
0
390
0
  6
Continuous
 62
     8
100
AcDbLine
 10
168.5
 20
10.0
 30
0.0
 11
168.5
 21
5.0
 31
0.0
  0
LINE
  5
4C
100
AcDbEntity
  8
0
390
0
  6
Continuous
 62
     8
100
AcDbLine
 10
128.5
 20
10.0
 30
0.0
 11
128.5
 21
5.0
 31
0.0
  0
LINE
  5
4D
100
AcDbEntity
  8
0
390
0
  6
Continuous
 62
     8
100
AcDbLine
 10
178.5
 20
10.0
 30
0.0
 11
178.5
 21
5.0
 31
0.0
  0
LINE
  5
4E
100
AcDbEntity
  8
0
390
0
  6
Continuous
 62
     8
100
AcDbLine
 10
118.5
 20
10.0
 30
0.0
 11
118.5
 21
5.0
 31
0.0
  0
LINE
  5
4F
100
AcDbEntity
  8
0
390
0
  6
Continuous
 62
     8
100
AcDbLine
 10
188.5
 20
10.0
 30
0.0
 11
188.5
 21
5.0
 31
0.0
  0
LINE
  5
50
100
AcDbEntity
  8
0
390
0
  6
Continuous
 62
     8
100
AcDbLine
 10
108.5
 20
10.0
 30
0.0
 11
108.5
 21
5.0
 31
0.0
  0
LINE
  5
51
100
AcDbEntity
  8
0
390
0
  6
Continuous
 62
     8
100
AcDbLine
 10
198.5
 20
10.0
 30
0.0
 11
198.5
 21
5.0
 31
0.0
  0
LINE
  5
52
100
AcDbEntity
  8
0
390
0
  6
Continuous
 62
     8
100
AcDbLine
 10
98.5
 20
10.0
 30
0.0
 11
98.5
 21
5.0
 31
0.0
  0
LINE
  5
53
100
AcDbEntity
  8
0
390
0
  6
Continuous
 62
     8
100
AcDbLine
 10
198.5
 20
10.0
 30
0.0
 11
98.5
 21
10.0
 31
0.0
  0
LINE
  5
54
100
AcDbEntity
  8
0
390
0
  6
Continuous
 62
     8
100
AcDbLine
 10
198.5
 20
5.0
 30
0.0
 11
98.5
 21
5.0
 31
0.0
  0
ENDBLK
  5
55
100
AcDbEntity
  8
0
390
0
100
AcDbBlockEnd
  0
BLOCK
  5
5A
100
AcDbEntity
  8
0
390
0
100
AcDbBlockBegin
  2
AID85
 70
     0
 10
0.0
 20
0.0
 30
0.0
  3
#draft border with alignment
  1

  0
LINE
  5
5B
100
AcDbEntity
  8
0
390
0
  6
Continuous
 62
     7
100
AcDbLine
 10
172.0
 20
10.0
 30
0.0
 11
287.0
 21
10.0
 31
0.0
  0
LINE
  5
5C
100
AcDbEntity
  8
0
390
0
  6
Continuous
 62
     7
100
AcDbLine
 10
172.0
 20
58.0
 30
0.0
 11
287.0
 21
58.0
 31
0.0
  0
LINE
  5
5D
100
AcDbEntity
  8
0
390
0
  6
Continuous
 62
     7
100
AcDbLine
 10
172.0
 20
10.0
 30
0.0
 11
172.0
 21
58.0
 31
0.0
  0
LINE
  5
5E
100
AcDbEntity
  8
0
390
0
  6
Continuous
 62
     7
100
AcDbLine
 10
287.0
 20
10.0
 30
0.0
 11
287.0
 21
58.0
 31
0.0
  0
LINE
  5
5F
100
AcDbEntity
  8
0
390
0
  6
Continuous
 62
     9
100
AcDbLine
 10
287.0
 20
51.856682
 30
0.0
 11
172.0
 21
51.856682
 31
0.0
  0
LINE
  5
60
100
AcDbEntity
  8
0
390
0
  6
Continuous
 62
     9
100
AcDbLine
 10
287.0
 20
40.642313
 30
0.0
 11
172.0
 21
40.642313
 31
0.0
  0
LINE
  5
61
100
AcDbEntity
  8
0
390
0
  6
Continuous
 62
     9
100
AcDbLine
 10
287.0
 20
36.542169
 30
0.0
 11
172.0
 21
36.542169
 31
0.0
  0
LINE
  5
62
100
AcDbEntity
  8
0
390
0
  6
Continuous
 62
     9
100
AcDbLine
 10
287.0
 20
28.480012
 30
0.0
 11
172.0
 21
28.480012
 31
0.0
  0
LINE
  5
63
100
AcDbEntity
  8
0
390
0
  6
Continuous
 62
     9
100
AcDbLine
 10
191.06501
 20
10.0
 30
0.0
 11
191.06501
 21
28.480012
 31
0.0
  0
LINE
  5
64
100
AcDbEntity
  8
0
390
0
  6
Continuous
 62
     9
100
AcDbLine
 10
210.163182
 20
10.0
 30
0.0
 11
210.163182
 21
28.480012
 31
0.0
  0
LINE
  5
65
100
AcDbEntity
  8
0
390
0
  6
Continuous
 62
     9
100
AcDbLine
 10
229.261081
 20
10.0
 30
0.0
 11
229.261081
 21
28.480012
 31
0.0
  0
LINE
  5
66
100
AcDbEntity
  8
0
390
0
  6
Continuous
 62
     9
100
AcDbLine
 10
287.0
 20
21.382604
 30
0.0
 11
229.261081
 21
21.382604
 31
0.0
  0
LINE
  5
67
100
AcDbEntity
  8
0
390
0
  6
Continuous
 62
     9
100
AcDbLine
 10
248.767874
 20
21.382604
 30
0.0
 11
248.767874
 21
28.480012
 31
0.0
  0
LINE
  5
68
100
AcDbEntity
  8
0
390
0
  6
Continuous
 62
     9
100
AcDbLine
 10
229.261081
 20
24.671098
 30
0.0
 11
210.163182
 21
24.671098
 31
0.0
  0
LINE
  5
69
100
AcDbEntity
  8
0
390
0
  6
Continuous
 62
     9
100
AcDbLine
 10
210.163182
 20
24.668855
 30
0.0
 11
191.06501
 21
24.668855
 31
0.0
  0
LINE
  5
6A
100
AcDbEntity
  8
0
390
0
  6
Continuous
 62
     9
100
AcDbLine
 10
191.06501
 20
24.668855
 30
0.0
 11
172.0
 21
24.668855
 31
0.0
  0
LINE
  5
6B
100
AcDbEntity
  8
0
390
0
  6
Continuous
 62
     9
100
AcDbLine
 10
191.06501
 20
28.480012
 30
0.0
 11
191.06501
 21
36.542169
 31
0.0
  0
LINE
  5
6C
100
AcDbEntity
  8
0
390
0
  6
Continuous
 62
     9
100
AcDbLine
 10
210.163182
 20
28.480012
 30
0.0
 11
210.163182
 21
36.542169
 31
0.0
  0
LINE
  5
6D
100
AcDbEntity
  8
0
390
0
  6
Continuous
 62
     9
100
AcDbLine
 10
229.261081
 20
28.480012
 30
0.0
 11
229.261081
 21
36.542169
 31
0.0
  0
LINE
  5
6E
100
AcDbEntity
  8
0
390
0
  6
Continuous
 62
     9
100
AcDbLine
 10
248.767874
 20
28.480012
 30
0.0
 11
248.767874
 21
36.542169
 31
0.0
  0
LINE
  5
6F
100
AcDbEntity
  8
0
390
0
  6
Continuous
 62
     9
100
AcDbLine
 10
267.887786
 20
28.480012
 30
0.0
 11
267.887786
 21
36.542169
 31
0.0
  0
LINE
  5
70
100
AcDbEntity
  8
0
390
0
  6
Continuous
 62
     9
100
AcDbLine
 10
191.06501
 20
36.542169
 30
0.0
 11
191.06501
 21
40.642313
 31
0.0
  0
LINE
  5
71
100
AcDbEntity
  8
0
390
0
  6
Continuous
 62
     9
100
AcDbLine
 10
210.163182
 20
36.542169
 30
0.0
 11
210.163182
 21
40.642313
 31
0.0
  0
LINE
  5
72
100
AcDbEntity
  8
0
390
0
  6
Continuous
 62
     9
100
AcDbLine
 10
229.261081
 20
36.542169
 30
0.0
 11
229.261081
 21
40.642313
 31
0.0
  0
LINE
  5
73
100
AcDbEntity
  8
0
390
0
  6
Continuous
 62
     9
100
AcDbLine
 10
248.767874
 20
36.542169
 30
0.0
 11
248.767874
 21
40.642313
 31
0.0
  0
LINE
  5
74
100
AcDbEntity
  8
0
390
0
  6
Continuous
 62
     9
100
AcDbLine
 10
267.887786
 20
36.542169
 30
0.0
 11
267.887786
 21
40.642313
 31
0.0
  0
LINE
  5
75
100
AcDbEntity
  8
0
390
0
  6
Continuous
 62
     9
100
AcDbLine
 10
189.056259
 20
40.642313
 30
0.0
 11
189.056259
 21
51.856682
 31
0.0
  0
LINE
  5
76
100
AcDbEntity
  8
0
390
0
  6
Continuous
 62
     9
100
AcDbLine
 10
229.258465
 20
40.642313
 30
0.0
 11
229.258465
 21
51.856682
 31
0.0
  0
LINE
  5
77
100
AcDbEntity
  8
0
390
0
  6
Continuous
 62
     9
100
AcDbLine
 10
247.674009
 20
40.642313
 30
0.0
 11
247.674009
 21
51.856682
 31
0.0
  0
LINE
  5
78
100
AcDbEntity
  8
0
390
0
  6
Continuous
 62
     9
100
AcDbLine
 10
247.674009
 20
46.249498
 30
0.0
 11
287.0
 21
46.249498
 31
0.0
  0
LINE
  5
79
100
AcDbEntity
  8
0
390
0
  6
Continuous
 62
     9
100
AcDbLine
 10
229.258465
 20
46.249498
 30
0.0
 11
247.674009
 21
46.249498
 31
0.0
  0
LINE
  5
7A
100
AcDbEntity
  8
0
390
0
  6
Continuous
 62
     9
100
AcDbLine
 10
189.056259
 20
46.249498
 30
0.0
 11
229.258465
 21
46.249498
 31
0.0
  0
LINE
  5
7B
100
AcDbEntity
  8
0
390
0
  6
Continuous
 62
     9
100
AcDbLine
 10
172.0
 20
46.249498
 30
0.0
 11
189.056259
 21
46.249498
 31
0.0
  0
LINE
  5
7C
100
AcDbEntity
  8
0
390
0
  6
Continuous
 62
     9
100
AcDbLine
 10
189.056015
 20
51.856682
 30
0.0
 11
189.056015
 21
58.0
 31
0.0
  0
LINE
  5
7D
100
AcDbEntity
  8
0
390
0
  6
Continuous
 62
     9
100
AcDbLine
 10
229.257297
 20
51.856682
 30
0.0
 11
229.257297
 21
58.0
 31
0.0
  0
LINE
  5
7E
100
AcDbEntity
  8
0
390
0
  6
Continuous
 62
     9
100
AcDbLine
 10
247.673427
 20
51.856682
 30
0.0
 11
247.673427
 21
58.0
 31
0.0
  0
ENDBLK
  5
7F
100
AcDbEntity
  8
0
390
0
100
AcDbBlockEnd
  0
BLOCK
  5
8F
100
AcDbEntity
  8
0
390
0
100
AcDbBlockBegin
  2
AID185
 70
     0
 10
0.0
 20
0.0
 30
0.0
  3
#draft border with alignment
  1

  0
LINE
  5
90
100
AcDbEntity
  8
0
390
0
  6
Continuous
 62
     7
100
AcDbLine
 10
88.0
 20
10.0
 30
0.0
 11
172.0
 21
10.0
 31
0.0
  0
LINE
  5
91
100
AcDbEntity
  8
0
390
0
  6
Continuous
 62
     7
100
AcDbLine
 10
88.0
 20
43.99
 30
0.0
 11
172.0
 21
43.99
 31
0.0
  0
LINE
  5
92
100
AcDbEntity
  8
0
390
0
  6
Continuous
 62
     7
100
AcDbLine
 10
88.0
 20
10.0
 30
0.0
 11
88.0
 21
43.99
 31
0.0
  0
LINE
  5
93
100
AcDbEntity
  8
0
390
0
  6
Continuous
 62
     7
100
AcDbLine
 10
172.0
 20
10.0
 30
0.0
 11
172.0
 21
43.99
 31
0.0
  0
LINE
  5
94
100
AcDbEntity
  8
0
390
0
  6
Continuous
 62
     9
100
AcDbLine
 10
88.0
 20
15.665
 30
0.0
 11
172.0
 21
15.665
 31
0.0
  0
LINE
  5
95
100
AcDbEntity
  8
0
390
0
  6
Continuous
 62
     9
100
AcDbLine
 10
88.0
 20
21.33
 30
0.0
 11
172.0
 21
21.33
 31
0.0
  0
LINE
  5
96
100
AcDbEntity
  8
0
390
0
  6
Continuous
 62
     9
100
AcDbLine
 10
88.0
 20
26.995
 30
0.0
 11
172.0
 21
26.995
 31
0.0
  0
LINE
  5
97
100
AcDbEntity
  8
0
390
0
  6
Continuous
 62
     9
100
AcDbLine
 10
88.0
 20
32.66
 30
0.0
 11
172.0
 21
32.66
 31
0.0
  0
LINE
  5
98
100
AcDbEntity
  8
0
390
0
  6
Continuous
 62
     9
100
AcDbLine
 10
88.0
 20
38.325
 30
0.0
 11
172.0
 21
38.325
 31
0.0
  0
LINE
  5
99
100
AcDbEntity
  8
0
390
0
  6
Continuous
 62
     9
100
AcDbLine
 10
162.664654
 20
10.0
 30
0.0
 11
162.664654
 21
15.665
 31
0.0
  0
LINE
  5
9A
100
AcDbEntity
  8
0
390
0
  6
Continuous
 62
     9
100
AcDbLine
 10
153.324515
 20
10.0
 30
0.0
 11
153.324515
 21
15.665
 31
0.0
  0
LINE
  5
9B
100
AcDbEntity
  8
0
390
0
  6
Continuous
 62
     9
100
AcDbLine
 10
143.986913
 20
10.0
 30
0.0
 11
143.986913
 21
15.665
 31
0.0
  0
LINE
  5
9C
100
AcDbEntity
  8
0
390
0
  6
Continuous
 62
     9
100
AcDbLine
 10
97.742741
 20
10.0
 30
0.0
 11
97.742741
 21
15.665
 31
0.0
  0
LINE
  5
9D
100
AcDbEntity
  8
0
390
0
  6
Continuous
 62
     9
100
AcDbLine
 10
128.983997
 20
10.0
 30
0.0
 11
128.983997
 21
15.665
 31
0.0
  0
LINE
  5
9E
100
AcDbEntity
  8
0
390
0
  6
Continuous
 62
     9
100
AcDbLine
 10
162.664654
 20
15.665
 30
0.0
 11
162.664654
 21
21.33
 31
0.0
  0
LINE
  5
9F
100
AcDbEntity
  8
0
390
0
  6
Continuous
 62
     9
100
AcDbLine
 10
153.324515
 20
15.665
 30
0.0
 11
153.324515
 21
21.33
 31
0.0
  0
LINE
  5
A0
100
AcDbEntity
  8
0
390
0
  6
Continuous
 62
     9
100
AcDbLine
 10
143.986913
 20
15.665
 30
0.0
 11
143.986913
 21
21.33
 31
0.0
  0
LINE
  5
A1
100
AcDbEntity
  8
0
390
0
  6
Continuous
 62
     9
100
AcDbLine
 10
97.742741
 20
15.665
 30
0.0
 11
97.742741
 21
21.33
 31
0.0
  0
LINE
  5
A2
100
AcDbEntity
  8
0
390
0
  6
Continuous
 62
     9
100
AcDbLine
 10
128.983997
 20
15.665
 30
0.0
 11
128.983997
 21
21.33
 31
0.0
  0
LINE
  5
A3
100
AcDbEntity
  8
0
390
0
  6
Continuous
 62
     9
100
AcDbLine
 10
162.664654
 20
21.33
 30
0.0
 11
162.664654
 21
26.995
 31
0.0
  0
LINE
  5
A4
100
AcDbEntity
  8
0
390
0
  6
Continuous
 62
     9
100
AcDbLine
 10
153.324515
 20
21.33
 30
0.0
 11
153.324515
 21
26.995
 31
0.0
  0
LINE
  5
A5
100
AcDbEntity
  8
0
390
0
  6
Continuous
 62
     9
100
AcDbLine
 10
143.986913
 20
21.33
 30
0.0
 11
143.986913
 21
26.995
 31
0.0
  0
LINE
  5
A6
100
AcDbEntity
  8
0
390
0
  6
Continuous
 62
     9
100
AcDbLine
 10
97.742741
 20
21.33
 30
0.0
 11
97.742741
 21
26.995
 31
0.0
  0
LINE
  5
A7
100
AcDbEntity
  8
0
390
0
  6
Continuous
 62
     9
100
AcDbLine
 10
128.983997
 20
21.33
 30
0.0
 11
128.983997
 21
26.995
 31
0.0
  0
LINE
  5
A8
100
AcDbEntity
  8
0
390
0
  6
Continuous
 62
     9
100
AcDbLine
 10
162.664654
 20
26.995
 30
0.0
 11
162.664654
 21
32.66
 31
0.0
  0
LINE
  5
A9
100
AcDbEntity
  8
0
390
0
  6
Continuous
 62
     9
100
AcDbLine
 10
153.324515
 20
26.995
 30
0.0
 11
153.324515
 21
32.66
 31
0.0
  0
LINE
  5
AA
100
AcDbEntity
  8
0
390
0
  6
Continuous
 62
     9
100
AcDbLine
 10
143.986913
 20
26.995
 30
0.0
 11
143.986913
 21
32.66
 31
0.0
  0
LINE
  5
AB
100
AcDbEntity
  8
0
390
0
  6
Continuous
 62
     9
100
AcDbLine
 10
97.742741
 20
26.995
 30
0.0
 11
97.742741
 21
32.66
 31
0.0
  0
LINE
  5
AC
100
AcDbEntity
  8
0
390
0
  6
Continuous
 62
     9
100
AcDbLine
 10
128.983997
 20
26.995
 30
0.0
 11
128.983997
 21
32.66
 31
0.0
  0
LINE
  5
AD
100
AcDbEntity
  8
0
390
0
  6
Continuous
 62
     9
100
AcDbLine
 10
162.664654
 20
32.66
 30
0.0
 11
162.664654
 21
38.325
 31
0.0
  0
LINE
  5
AE
100
AcDbEntity
  8
0
390
0
  6
Continuous
 62
     9
100
AcDbLine
 10
153.324515
 20
32.66
 30
0.0
 11
153.324515
 21
38.325
 31
0.0
  0
LINE
  5
AF
100
AcDbEntity
  8
0
390
0
  6
Continuous
 62
     9
100
AcDbLine
 10
143.986913
 20
32.66
 30
0.0
 11
143.986913
 21
38.325
 31
0.0
  0
LINE
  5
B0
100
AcDbEntity
  8
0
390
0
  6
Continuous
 62
     9
100
AcDbLine
 10
97.742741
 20
32.66
 30
0.0
 11
97.742741
 21
38.325
 31
0.0
  0
LINE
  5
B1
100
AcDbEntity
  8
0
390
0
  6
Continuous
 62
     9
100
AcDbLine
 10
128.983997
 20
32.66
 30
0.0
 11
128.983997
 21
38.325
 31
0.0
  0
LINE
  5
B2
100
AcDbEntity
  8
0
390
0
  6
Continuous
 62
     9
100
AcDbLine
 10
162.664654
 20
38.325
 30
0.0
 11
162.664654
 21
43.99
 31
0.0
  0
LINE
  5
B3
100
AcDbEntity
  8
0
390
0
  6
Continuous
 62
     9
100
AcDbLine
 10
153.324515
 20
38.325
 30
0.0
 11
153.324515
 21
43.99
 31
0.0
  0
LINE
  5
B4
100
AcDbEntity
  8
0
390
0
  6
Continuous
 62
     9
100
AcDbLine
 10
143.986913
 20
38.325
 30
0.0
 11
143.986913
 21
43.99
 31
0.0
  0
LINE
  5
B5
100
AcDbEntity
  8
0
390
0
  6
Continuous
 62
     9
100
AcDbLine
 10
97.742741
 20
38.325
 30
0.0
 11
97.742741
 21
43.99
 31
0.0
  0
LINE
  5
B6
100
AcDbEntity
  8
0
390
0
  6
Continuous
 62
     9
100
AcDbLine
 10
128.983997
 20
38.325
 30
0.0
 11
128.983997
 21
43.99
 31
0.0
  0
ENDBLK
  5
B7
100
AcDbEntity
  8
0
390
0
100
AcDbBlockEnd
  0
BLOCK
  5
C2
100
AcDbEntity
  8
0
390
0
100
AcDbBlockBegin
  2
AID280
 70
     0
 10
0.0
 20
0.0
 30
0.0
  3
D_GROUP
  1

  0
MTEXT
  5
C3
100
AcDbEntity
  8
0
390
0
 62
     2
100
AcDbMText
 10
90.370058
 20
17.216139
 30
0.0
 40
2.0
 41
0.963636
 71
     7
 72
     1
  1
1
210
0.0
220
0.0
230
1.0
 73
     1
 44
1.0
  0
POLYLINE
  5
C4
100
AcDbEntity
  8
0
390
0
  6
Continuous
 62
     2
100
AcDb2dPolyline
 66
     1
 10
0.0
 20
0.0
 30
0.0
 70
     1
 40
0.1
 41
0.1
  0
VERTEX
  5
C5
100
AcDbEntity
  8
0
390
0
 62
     2
100
AcDbVertex
100
AcDb2dVertex
 10
92.87137
 20
16.752503
 30
0.0
  0
VERTEX
  5
C6
100
AcDbEntity
  8
0
390
0
 62
     2
100
AcDbVertex
100
AcDb2dVertex
 10
90.856421
 20
20.242497
 30
0.0
  0
VERTEX
  5
C7
100
AcDbEntity
  8
0
390
0
 62
     2
100
AcDbVertex
100
AcDb2dVertex
 10
88.841472
 20
16.752503
 30
0.0
  0
SEQEND
  5
C8
100
AcDbEntity
  8
0
390
0
  0
ENDBLK
  5
C9
100
AcDbEntity
  8
0
390
0
100
AcDbBlockEnd
  0
BLOCK
  5
CC
100
AcDbEntity
  8
0
390
0
100
AcDbBlockBegin
  2
AID285
 70
     0
 10
0.0
 20
0.0
 30
0.0
  3
D_GROUP
  1

  0
MTEXT
  5
CD
100
AcDbEntity
  8
0
390
0
 62
     2
100
AcDbMText
 10
90.051876
 20
22.697343
 30
0.0
 40
2.0
 41
1.854545
 71
     7
 72
     1
  1
2
210
0.0
220
0.0
230
1.0
 73
     1
 44
1.0
  0
POLYLINE
  5
CE
100
AcDbEntity
  8
0
390
0
  6
Continuous
 62
     2
100
AcDb2dPolyline
 66
     1
 10
0.0
 20
0.0
 30
0.0
 70
     1
 40
0.1
 41
0.1
  0
VERTEX
  5
CF
100
AcDbEntity
  8
0
390
0
 62
     2
100
AcDbVertex
100
AcDb2dVertex
 10
92.87137
 20
22.224615
 30
0.0
  0
VERTEX
  5
D0
100
AcDbEntity
  8
0
390
0
 62
     2
100
AcDbVertex
100
AcDb2dVertex
 10
90.633694
 20
26.100385
 30
0.0
  0
VERTEX
  5
D1
100
AcDbEntity
  8
0
390
0
 62
     2
100
AcDbVertex
100
AcDb2dVertex
 10
88.396018
 20
22.224615
 30
0.0
  0
SEQEND
  5
D2
100
AcDbEntity
  8
0
390
0
  0
ENDBLK
  5
D3
100
AcDbEntity
  8
0
390
0
100
AcDbBlockEnd
  0
BLOCK
  5
D6
100
AcDbEntity
  8
0
390
0
100
AcDbBlockBegin
  2
AID290
 70
     0
 10
0.0
 20
0.0
 30
0.0
  3
D_GROUP
  1

  0
MTEXT
  5
D7
100
AcDbEntity
  8
0
390
0
 62
     2
100
AcDbMText
 10
90.041379
 20
28.371434
 30
0.0
 40
2.0
 41
1.854545
 71
     7
 72
     1
  1
3
210
0.0
220
0.0
230
1.0
 73
     1
 44
1.0
  0
POLYLINE
  5
D8
100
AcDbEntity
  8
0
390
0
  6
Continuous
 62
     2
100
AcDb2dPolyline
 66
     1
 10
0.0
 20
0.0
 30
0.0
 70
     1
 40
0.1
 41
0.1
  0
VERTEX
  5
D9
100
AcDbEntity
  8
0
390
0
 62
     2
100
AcDbVertex
100
AcDb2dVertex
 10
92.87137
 20
27.880525
 30
0.0
  0
VERTEX
  5
DA
100
AcDbEntity
  8
0
390
0
 62
     2
100
AcDbVertex
100
AcDb2dVertex
 10
90.623197
 20
31.774475
 30
0.0
  0
VERTEX
  5
DB
100
AcDbEntity
  8
0
390
0
 62
     2
100
AcDbVertex
100
AcDb2dVertex
 10
88.375023
 20
27.880525
 30
0.0
  0
SEQEND
  5
DC
100
AcDbEntity
  8
0
390
0
  0
ENDBLK
  5
DD
100
AcDbEntity
  8
0
390
0
100
AcDbBlockEnd
  0
BLOCK
  5
E0
100
AcDbEntity
  8
0
390
0
100
AcDbBlockBegin
  2
AID295
 70
     0
 10
0.0
 20
0.0
 30
0.0
  3
D_GROUP
  1

  0
MTEXT
  5
E1
100
AcDbEntity
  8
0
390
0
 62
     2
100
AcDbMText
 10
90.006421
 20
33.991914
 30
0.0
 40
2.0
 41
2.018182
 71
     7
 72
     1
  1
4
210
0.0
220
0.0
230
1.0
 73
     1
 44
1.0
  0
POLYLINE
  5
E2
100
AcDbEntity
  8
0
390
0
  6
Continuous
 62
     2
100
AcDb2dPolyline
 66
     1
 10
0.0
 20
0.0
 30
0.0
 70
     1
 40
0.1
 41
0.1
  0
VERTEX
  5
E3
100
AcDbEntity
  8
0
390
0
 62
     2
100
AcDbVertex
100
AcDb2dVertex
 10
92.87137
 20
33.519187
 30
0.0
  0
VERTEX
  5
E4
100
AcDbEntity
  8
0
390
0
 62
     2
100
AcDbVertex
100
AcDb2dVertex
 10
90.592785
 20
37.465813
 30
0.0
  0
VERTEX
  5
E5
100
AcDbEntity
  8
0
390
0
 62
     2
100
AcDbVertex
100
AcDb2dVertex
 10
88.3142
 20
33.519187
 30
0.0
  0
SEQEND
  5
E6
100
AcDbEntity
  8
0
390
0
  0
ENDBLK
  5
E7
100
AcDbEntity
  8
0
390
0
100
AcDbBlockEnd
  0
BLOCK
  5
EA
100
AcDbEntity
  8
0
390
0
100
AcDbBlockBegin
  2
AID300
 70
     0
 10
0.0
 20
0.0
 30
0.0
  3
D_GROUP
  1

  0
MTEXT
  5
EB
100
AcDbEntity
  8
0
390
0
 62
     2
100
AcDbMText
 10
90.051876
 20
39.710525
 30
0.0
 40
2.0
 41
1.854545
 71
     7
 72
     1
  1
5
210
0.0
220
0.0
230
1.0
 73
     1
 44
1.0
  0
POLYLINE
  5
EC
100
AcDbEntity
  8
0
390
0
  6
Continuous
 62
     2
100
AcDb2dPolyline
 66
     1
 10
0.0
 20
0.0
 30
0.0
 70
     1
 40
0.1
 41
0.1
  0
VERTEX
  5
ED
100
AcDbEntity
  8
0
390
0
 62
     2
100
AcDbVertex
100
AcDb2dVertex
 10
92.87137
 20
39.219615
 30
0.0
  0
VERTEX
  5
EE
100
AcDbEntity
  8
0
390
0
 62
     2
100
AcDbVertex
100
AcDb2dVertex
 10
90.633694
 20
43.095385
 30
0.0
  0
VERTEX
  5
EF
100
AcDbEntity
  8
0
390
0
 62
     2
100
AcDbVertex
100
AcDb2dVertex
 10
88.396018
 20
39.219615
 30
0.0
  0
SEQEND
  5
F0
100
AcDbEntity
  8
0
390
0
  0
ENDBLK
  5
F1
100
AcDbEntity
  8
0
390
0
100
AcDbBlockEnd
  0
BLOCK
  5
102
100
AcDbEntity
  8
0
390
0
100
AcDbBlockBegin
  2
AID333
 70
     0
 10
0.0
 20
0.0
 30
0.0
  3
D_GROUP
  1

  0
CIRCLE
  5
103
100
AcDbEntity
  8
0
390
0
  6
Continuous
 62
     7
100
AcDbCircle
 10
234.514478
 20
32.511091
 30
0.0
 40
1.5
210
0.0
220
0.0
230
1.0
  0
CIRCLE
  5
104
100
AcDbEntity
  8
0
390
0
  6
Continuous
 62
     7
100
AcDbCircle
 10
234.514478
 20
32.511091
 30
0.0
 40
3.0
210
0.0
220
0.0
230
1.0
  0
POLYLINE
  5
105
100
AcDbEntity
  8
0
390
0
  6
Continuous
 62
     7
100
AcDb2dPolyline
 66
     1
 10
0.0
 20
0.0
 30
0.0
 70
     1
 40
0.1
 41
0.1
  0
VERTEX
  5
106
100
AcDbEntity
  8
0
390
0
 62
     7
100
AcDbVertex
100
AcDb2dVertex
 10
239.514478
 20
31.011091
 30
0.0
  0
VERTEX
  5
107
100
AcDbEntity
  8
0
390
0
 62
     7
100
AcDbVertex
100
AcDb2dVertex
 10
239.514478
 20
34.011091
 30
0.0
  0
VERTEX
  5
108
100
AcDbEntity
  8
0
390
0
 62
     7
100
AcDbVertex
100
AcDb2dVertex
 10
246.514478
 20
35.511091
 30
0.0
  0
VERTEX
  5
109
100
AcDbEntity
  8
0
390
0
 62
     7
100
AcDbVertex
100
AcDb2dVertex
 10
246.514478
 20
29.511091
 30
0.0
  0
SEQEND
  5
10A
100
AcDbEntity
  8
0
390
0
  0
LINE
  5
10C
100
AcDbEntity
  8
0
390
0
  6
CENTER
 62
     1
100
AcDbLine
 10
230.514478
 20
32.511091
 30
0.0
 11
247.514478
 21
32.511091
 31
0.0
  0
LINE
  5
10D
100
AcDbEntity
  8
0
390
0
  6
CENTER
 62
     1
100
AcDbLine
 10
234.514478
 20
28.511091
 30
0.0
 11
234.514478
 21
36.511091
 31
0.0
  0
ENDBLK
  5
10E
100
AcDbEntity
  8
0
390
0
100
AcDbBlockEnd
  0
BLOCK
  5
113
100
AcDbEntity
  8
0
390
0
100
AcDbBlockBegin
  2
AID349
 70
     0
 10
0.0
 20
0.0
 30
0.0
  3
#draft border with alignment
  1

  0
LINE
  5
114
100
AcDbEntity
  8
0
390
0
  6
Continuous
 62
     7
100
AcDbLine
 10
10.0
 20
10.0
 30
0.0
 11
88.0
 21
10.0
 31
0.0
  0
LINE
  5
115
100
AcDbEntity
  8
0
390
0
  6
Continuous
 62
     7
100
AcDbLine
 10
10.0
 20
43.99
 30
0.0
 11
88.0
 21
43.99
 31
0.0
  0
LINE
  5
116
100
AcDbEntity
  8
0
390
0
  6
Continuous
 62
     7
100
AcDbLine
 10
10.0
 20
10.0
 30
0.0
 11
10.0
 21
43.99
 31
0.0
  0
LINE
  5
117
100
AcDbEntity
  8
0
390
0
  6
Continuous
 62
     7
100
AcDbLine
 10
88.0
 20
10.0
 30
0.0
 11
88.0
 21
43.99
 31
0.0
  0
LINE
  5
118
100
AcDbEntity
  8
0
390
0
  6
Continuous
 62
     9
100
AcDbLine
 10
88.0
 20
37.089693
 30
0.0
 11
10.0
 21
37.089693
 31
0.0
  0
LINE
  5
119
100
AcDbEntity
  8
0
390
0
  6
Continuous
 62
     9
100
AcDbLine
 10
10.0
 20
13.869956
 30
0.0
 11
88.0
 21
13.869956
 31
0.0
  0
LINE
  5
11A
100
AcDbEntity
  8
0
390
0
  6
Continuous
 62
     9
100
AcDbLine
 10
10.0
 20
17.739912
 30
0.0
 11
88.0
 21
17.739912
 31
0.0
  0
LINE
  5
11B
100
AcDbEntity
  8
0
390
0
  6
Continuous
 62
     9
100
AcDbLine
 10
10.0
 20
21.609869
 30
0.0
 11
88.0
 21
21.609869
 31
0.0
  0
LINE
  5
11C
100
AcDbEntity
  8
0
390
0
  6
Continuous
 62
     9
100
AcDbLine
 10
10.0
 20
25.479825
 30
0.0
 11
88.0
 21
25.479825
 31
0.0
  0
LINE
  5
11D
100
AcDbEntity
  8
0
390
0
  6
Continuous
 62
     9
100
AcDbLine
 10
10.0
 20
29.349781
 30
0.0
 11
88.0
 21
29.349781
 31
0.0
  0
LINE
  5
11E
100
AcDbEntity
  8
0
390
0
  6
Continuous
 62
     9
100
AcDbLine
 10
10.0
 20
33.219737
 30
0.0
 11
88.0
 21
33.219737
 31
0.0
  0
LINE
  5
11F
100
AcDbEntity
  8
0
390
0
  6
Continuous
 62
     9
100
AcDbLine
 10
68.5
 20
10.0
 30
0.0
 11
68.5
 21
37.089693
 31
0.0
  0
LINE
  5
120
100
AcDbEntity
  8
0
390
0
  6
Continuous
 62
     9
100
AcDbLine
 10
49.0
 20
10.0
 30
0.0
 11
49.0
 21
37.089693
 31
0.0
  0
LINE
  5
121
100
AcDbEntity
  8
0
390
0
  6
Continuous
 62
     9
100
AcDbLine
 10
29.5
 20
10.0
 30
0.0
 11
29.5
 21
37.089693
 31
0.0
  0
LINE
  5
122
100
AcDbEntity
  8
0
390
0
  6
Continuous
 62
     9
100
AcDbLine
 10
49.0
 20
37.089693
 30
0.0
 11
49.0
 21
43.99
 31
0.0
  0
ENDBLK
  5
123
100
AcDbEntity
  8
0
390
0
100
AcDbBlockEnd
  0
BLOCK
  5
16A
100
AcDbEntity
  8
0
390
0
100
AcDbBlockBegin
  2
AID514
 70
     0
 10
0.0
 20
0.0
 30
0.0
  3
D_GROUP
  1

  0
LINE
  5
16B
100
AcDbEntity
  8
0
390
0
  6
Continuous
 62
     1
100
AcDbLine
 10
240.664325
 20
11.201902
 30
0.0
 11
240.664325
 21
13.105743
 31
0.0
  0
LINE
  5
16C
100
AcDbEntity
  8
0
390
0
  6
Continuous
 62
     1
100
AcDbLine
 10
240.95526
 20
12.523695
 30
0.0
 11
240.955259
 21
12.053134
 31
0.0
  0
ARC
  5
16D
100
AcDbEntity
  8
0
390
0
  6
Continuous
 62
     1
100
AcDbCircle
 10
241.582544
 20
12.269939
 30
0.0
 40
0.663695
210
0.0
220
0.0
230
1.0
100
AcDbArc
 50
199.066441
 51
267.345817
  0
ARC
  5
16E
100
AcDbEntity
  8
0
390
0
  6
Continuous
 62
     1
100
AcDbCircle
 10
241.554391
 20
12.140962
 30
0.0
 40
0.534012
210
0.0
220
0.0
230
1.0
100
AcDbArc
 50
269.722984
 51
320.258813
  0
ARC
  5
16F
100
AcDbEntity
  8
0
390
0
  6
Continuous
 62
     1
100
AcDbCircle
 10
241.405781
 20
12.254125
 30
0.0
 40
0.720676
210
0.0
220
0.0
230
1.0
100
AcDbArc
 50
320.894405
 51
2.749691
  0
ARC
  5
170
100
AcDbEntity
  8
0
390
0
  6
Continuous
 62
     1
100
AcDbCircle
 10
241.399479
 20
12.308293
 30
0.0
 40
0.726413
210
0.0
220
0.0
230
1.0
100
AcDbArc
 50
358.454215
 51
45.095683
  0
ARC
  5
171
100
AcDbEntity
  8
0
390
0
  6
Continuous
 62
     1
100
AcDbCircle
 10
241.546441
 20
12.44385
 30
0.0
 40
0.526722
210
0.0
220
0.0
230
1.0
100
AcDbArc
 50
46.009269
 51
89.41606
  0
ARC
  5
172
100
AcDbEntity
  8
0
390
0
  6
Continuous
 62
     1
100
AcDbCircle
 10
241.599959
 20
12.28464
 30
0.0
 40
0.687593
210
0.0
220
0.0
230
1.0
100
AcDbArc
 50
94.015492
 51
159.655151
  0
ARC
  5
173
100
AcDbEntity
  8
0
390
0
  6
Continuous
 62
     1
100
AcDbCircle
 10
240.81487
 20
13.08542
 30
0.0
 40
0.151911
210
0.0
220
0.0
230
1.0
100
AcDbArc
 50
91.936155
 51
172.312003
  0
ARC
  5
174
100
AcDbEntity
  8
0
390
0
  6
Continuous
 62
     1
100
AcDbCircle
 10
240.808489
 20
13.088609
 30
0.0
 40
0.148641
210
0.0
220
0.0
230
1.0
100
AcDbArc
 50
350.904155
 51
89.518465
  0
LINE
  5
175
100
AcDbEntity
  8
0
390
0
  6
Continuous
 62
     1
100
AcDbLine
 10
240.95526
 20
13.065111
 30
0.0
 11
240.95526
 21
12.940368
 31
0.0
  0
ARC
  5
176
100
AcDbEntity
  8
0
390
0
  6
Continuous
 62
     1
100
AcDbCircle
 10
241.583359
 20
12.425055
 30
0.0
 40
0.812438
210
0.0
220
0.0
230
1.0
100
AcDbArc
 50
91.416039
 51
140.633374
  0
ARC
  5
177
100
AcDbEntity
  8
0
390
0
  6
Continuous
 62
     1
100
AcDbCircle
 10
241.575478
 20
12.412098
 30
0.0
 40
0.825237
210
0.0
220
0.0
230
1.0
100
AcDbArc
 50
40.770944
 51
90.846792
  0
ARC
  5
178
100
AcDbEntity
  8
0
390
0
  6
Continuous
 62
     1
100
AcDbCircle
 10
241.467082
 20
12.312153
 30
0.0
 40
0.972608
210
0.0
220
0.0
230
0.9999999999999999
100
AcDbArc
 50
358.618135
 51
41.05987
  0
ARC
  5
179
100
AcDbEntity
  8
0
390
0
  6
Continuous
 62
     1
100
AcDbCircle
 10
241.436319
 20
12.263932
 30
0.0
 40
1.003394
210
0.0
220
0.0
230
1.0
100
AcDbArc
 50
319.60085
 51
1.41429
  0
ARC
  5
17A
100
AcDbEntity
  8
0
390
0
  6
Continuous
 62
     1
100
AcDbCircle
 10
241.596185
 20
12.144396
 30
0.0
 40
0.804274
210
0.0
220
0.0
230
0.9999999999999999
100
AcDbArc
 50
268.465954
 51
318.704783
  0
ARC
  5
17B
100
AcDbEntity
  8
0
390
0
  6
Continuous
 62
     1
100
AcDbCircle
 10
241.565804
 20
12.142439
 30
0.0
 40
0.802078
210
0.0
220
0.0
230
1.0
100
AcDbArc
 50
220.429708
 51
270.632212
  0
LINE
  5
17C
100
AcDbEntity
  8
0
390
0
  6
Continuous
 62
     1
100
AcDbLine
 10
240.95526
 20
11.62228
 30
0.0
 11
240.95526
 21
11.161263
 31
0.0
  0
ARC
  5
17D
100
AcDbEntity
  8
0
390
0
  6
Continuous
 62
     1
100
AcDbCircle
 10
240.804838
 20
11.181571
 30
0.0
 40
0.151787
210
0.0
220
0.0
230
1.0
100
AcDbArc
 50
271.849995
 51
352.311246
  0
ARC
  5
17E
100
AcDbEntity
  8
0
390
0
  6
Continuous
 62
     1
100
AcDbCircle
 10
240.811025
 20
11.178425
 30
0.0
 40
0.148567
210
0.0
220
0.0
230
1.0
100
AcDbArc
 50
170.907764
 51
269.503551
  0
ARC
  5
17F
100
AcDbEntity
  8
0
390
0
  6
Continuous
 62
     1
100
AcDbCircle
 10
245.917136
 20
12.12295
 30
0.0
 40
0.516136
210
0.0
220
0.0
230
1.0
100
AcDbArc
 50
217.640476
 51
268.656661
  0
LINE
  5
180
100
AcDbEntity
  8
0
390
0
  6
Continuous
 62
     1
100
AcDbLine
 10
245.375763
 20
12.48675
 30
0.0
 11
246.387815
 21
12.48675
 31
0.0
  0
ARC
  5
181
100
AcDbEntity
  8
0
390
0
  6
Continuous
 62
     1
100
AcDbCircle
 10
245.937833
 20
12.490903
 30
0.0
 40
0.450002
210
0.0
220
0.0
230
1.0
100
AcDbArc
 50
359.471136
 51
44.064126
  0
ARC
  5
182
100
AcDbEntity
  8
0
390
0
  6
Continuous
 62
     1
100
AcDbCircle
 10
245.900209
 20
12.496455
 30
0.0
 40
0.474135
210
0.0
220
0.0
230
1.0
100
AcDbArc
 50
40.417661
 51
90.79093
  0
ARC
  5
183
100
AcDbEntity
  8
0
390
0
  6
Continuous
 62
     1
100
AcDbCircle
 10
245.910196
 20
12.469249
 30
0.0
 40
0.501568
210
0.0
220
0.0
230
1.0
100
AcDbArc
 50
91.888859
 51
141.550866
  0
ARC
  5
184
100
AcDbEntity
  8
0
390
0
  6
Continuous
 62
     1
100
AcDbCircle
 10
245.998521
 20
12.368407
 30
0.0
 40
0.633902
210
0.0
220
0.0
230
1.0
100
AcDbArc
 50
139.376252
 51
169.240424
  0
ARC
  5
185
100
AcDbEntity
  8
0
390
0
  6
Continuous
 62
     1
100
AcDbCircle
 10
245.926394
 20
12.074115
 30
0.0
 40
0.467646
210
0.0
220
0.0
230
1.0
100
AcDbArc
 50
267.382381
 51
321.729349
  0
ARC
  5
186
100
AcDbEntity
  8
0
390
0
  6
Continuous
 62
     1
100
AcDbCircle
 10
245.811268
 20
12.155968
 30
0.0
 40
0.608769
210
0.0
220
0.0
230
1.0
100
AcDbArc
 50
322.392308
 51
345.783734
  0
LINE
  5
187
100
AcDbEntity
  8
0
390
0
  6
Continuous
 62
     1
100
AcDbLine
 10
246.403606
 20
12.010499
 30
0.0
 11
246.401394
 21
12.006465
 31
0.0
  0
ARC
  5
188
100
AcDbEntity
  8
0
390
0
  6
Continuous
 62
     1
100
AcDbCircle
 10
246.527126
 20
11.962634
 30
0.0
 40
0.132469
210
0.0
220
0.0
230
1.0
100
AcDbArc
 50
62.446966
 51
158.818237
  0
ARC
  5
189
100
AcDbEntity
  8
0
390
0
  6
Continuous
 62
     1
100
AcDbCircle
 10
246.500579
 20
11.94322
 30
0.0
 40
0.162614
210
0.0
220
0.0
230
1.0
100
AcDbArc
 50
340.786653
 51
57.311474
  0
ARC
  5
18A
100
AcDbEntity
  8
0
390
0
  6
Continuous
 62
     1
100
AcDbCircle
 10
245.773135
 20
12.157353
 30
0.0
 40
0.920759
210
0.0
220
0.0
230
1.0
100
AcDbArc
 50
322.009682
 51
343.101282
  0
ARC
  5
18B
100
AcDbEntity
  8
0
390
0
  6
Continuous
 62
     1
100
AcDbCircle
 10
245.969424
 20
12.019935
 30
0.0
 40
0.681591
210
0.0
220
0.0
230
1.0
100
AcDbArc
 50
265.538429
 51
320.957107
  0
ARC
  5
18C
100
AcDbEntity
  8
0
390
0
  6
Continuous
 62
     1
100
AcDbCircle
 10
245.897452
 20
12.149859
 30
0.0
 40
0.809671
210
0.0
220
0.0
230
0.9999999999999999
100
AcDbArc
 50
221.474595
 51
271.341162
  0
ARC
  5
18D
100
AcDbEntity
  8
0
390
0
  6
Continuous
 62
     1
100
AcDbCircle
 10
246.092175
 20
12.2788
 30
0.0
 40
1.041467
210
0.0
220
0.0
230
1.0
100
AcDbArc
 50
177.311019
 51
219.694362
  0
ARC
  5
18E
100
AcDbEntity
  8
0
390
0
  6
Continuous
 62
     1
100
AcDbCircle
 10
245.993658
 20
12.336997
 30
0.0
 40
0.941849
210
0.0
220
0.0
230
1.0
100
AcDbArc
 50
138.266347
 51
180.567996
  0
ARC
  5
18F
100
AcDbEntity
  8
0
390
0
  6
Continuous
 62
     1
100
AcDbCircle
 10
245.889708
 20
12.444793
 30
0.0
 40
0.7926
210
0.0
220
0.0
230
0.9999999999999999
100
AcDbArc
 50
88.89191
 51
139.079317
  0
ARC
  5
190
100
AcDbEntity
  8
0
390
0
  6
Continuous
 62
     1
100
AcDbCircle
 10
245.921241
 20
12.471927
 30
0.0
 40
0.765489
210
0.0
220
0.0
230
1.0
100
AcDbArc
 50
41.277619
 51
91.212982
  0
ARC
  5
191
100
AcDbEntity
  8
0
390
0
  6
Continuous
 62
     1
100
AcDbCircle
 10
245.892358
 20
12.438835
 30
0.0
 40
0.809047
210
0.0
220
0.0
230
1.0
100
AcDbArc
 50
359.453444
 51
41.689446
  0
ARC
  5
192
100
AcDbEntity
  8
0
390
0
  6
Continuous
 62
     1
100
AcDbCircle
 10
246.514184
 20
12.408633
 30
0.0
 40
0.18853
210
0.0
220
0.0
230
0.9999999999999999
100
AcDbArc
 50
271.251899
 51
6.84946
  0
LINE
  5
193
100
AcDbEntity
  8
0
390
0
  6
Continuous
 62
     1
100
AcDbLine
 10
245.368424
 20
12.220149
 30
0.0
 11
246.518303
 21
12.220149
 31
0.0
  0
ARC
  5
194
100
AcDbEntity
  8
0
390
0
  6
Continuous
 62
     1
100
AcDbCircle
 10
246.036588
 20
12.217013
 30
0.0
 40
0.668171
210
0.0
220
0.0
230
1.0
100
AcDbArc
 50
179.731089
 51
217.772082
  0
ARC
  5
195
100
AcDbEntity
  8
0
390
0
  6
Continuous
 62
     1
100
AcDbCircle
 10
237.931733
 20
12.322851
 30
0.0
 40
0.688489
210
0.0
220
0.0
230
1.0
100
AcDbArc
 50
358.241243
 51
42.774355
  0
ARC
  5
196
100
AcDbEntity
  8
0
390
0
  6
Continuous
 62
     1
100
AcDbCircle
 10
238.022116
 20
12.402448
 30
0.0
 40
0.568098
210
0.0
220
0.0
230
1.0
100
AcDbArc
 50
43.072127
 51
89.881097
  0
ARC
  5
197
100
AcDbEntity
  8
0
390
0
  6
Continuous
 62
     1
100
AcDbCircle
 10
238.023194
 20
12.405602
 30
0.0
 40
0.564943
210
0.0
220
0.0
230
1.0
100
AcDbArc
 50
89.989817
 51
140.482884
  0
ARC
  5
198
100
AcDbEntity
  8
0
390
0
  6
Continuous
 62
     1
100
AcDbCircle
 10
238.107663
 20
12.325297
 30
0.0
 40
0.681253
210
0.0
220
0.0
230
0.9999999999999999
100
AcDbArc
 50
139.793085
 51
181.983258
  0
CIRCLE
  5
199
100
AcDbEntity
  8
0
390
0
  6
Continuous
 62
     1
100
AcDbCircle
 10
238.02337
 20
12.288828
 30
0.0
 40
0.910411
210
0.0
220
0.0
230
1.0
  0
ARC
  5
19A
100
AcDbEntity
  8
0
390
0
  6
Continuous
 62
     1
100
AcDbCircle
 10
238.036526
 20
12.167073
 30
0.0
 40
0.560273
210
0.0
220
0.0
230
1.0
100
AcDbArc
 50
268.646801
 51
319.007629
  0
ARC
  5
19B
100
AcDbEntity
  8
0
390
0
  6
Continuous
 62
     1
100
AcDbCircle
 10
237.879496
 20
12.261612
 30
0.0
 40
0.741488
210
0.0
220
0.0
230
1.0
100
AcDbArc
 50
321.453788
 51
3.100733
  0
ARC
  5
19C
100
AcDbEntity
  8
0
390
0
  6
Continuous
 62
     1
100
AcDbCircle
 10
238.187273
 20
12.268115
 30
0.0
 40
0.761197
210
0.0
220
0.0
230
1.0
100
AcDbArc
 50
177.469701
 51
217.992212
  0
ARC
  5
19D
100
AcDbEntity
  8
0
390
0
  6
Continuous
 62
     1
100
AcDbCircle
 10
238.00939
 20
12.165097
 30
0.0
 40
0.558313
210
0.0
220
0.0
230
1.0
100
AcDbArc
 50
220.898494
 51
271.42703
  0
ARC
  5
19E
100
AcDbEntity
  8
0
390
0
  6
Continuous
 62
     1
100
AcDbCircle
 10
244.151845
 20
12.416829
 30
0.0
 40
0.820446
210
0.0
220
0.0
230
1.0
100
AcDbArc
 50
90.497142
 51
135.467515
  0
ARC
  5
19F
100
AcDbEntity
  8
0
390
0
  6
Continuous
 62
     1
100
AcDbCircle
 10
244.173203
 20
12.499248
 30
0.0
 40
0.738546
210
0.0
220
0.0
230
1.0
100
AcDbArc
 50
42.984286
 51
92.209764
  0
ARC
  5
1A0
100
AcDbEntity
  8
0
390
0
  6
Continuous
 62
     1
100
AcDbCircle
 10
244.075928
 20
12.504201
 30
0.0
 40
0.809358
210
0.0
220
0.0
230
1.0
100
AcDbArc
 50
356.655397
 51
38.026562
  0
LINE
  5
1A1
100
AcDbEntity
  8
0
390
0
  6
Continuous
 62
     1
100
AcDbLine
 10
244.883907
 20
12.456982
 30
0.0
 11
244.883909
 21
11.471864
 31
0.0
  0
ARC
  5
1A2
100
AcDbEntity
  8
0
390
0
  6
Continuous
 62
     1
100
AcDbCircle
 10
244.733435
 20
11.492166
 30
0.0
 40
0.151837
210
0.0
220
0.0
230
1.0
100
AcDbArc
 50
271.869229
 51
352.316001
  0
ARC
  5
1A3
100
AcDbEntity
  8
0
390
0
  6
Continuous
 62
     1
100
AcDbCircle
 10
243.317844
 20
11.492136
 30
0.0
 40
0.151806
210
0.0
220
0.0
230
1.0
100
AcDbArc
 50
271.856202
 51
7.697154
  0
LINE
  5
1A4
100
AcDbEntity
  8
0
390
0
  6
Continuous
 62
     1
100
AcDbLine
 10
243.468283
 20
12.463131
 30
0.0
 11
243.468282
 21
11.512468
 31
0.0
  0
ARC
  5
1A5
100
AcDbEntity
  8
0
390
0
  6
Continuous
 62
     1
100
AcDbCircle
 10
244.219851
 20
12.210897
 30
0.0
 40
0.792766
210
0.0
220
0.0
230
1.0
100
AcDbArc
 50
139.318632
 51
161.44769
  0
ARC
  5
1A6
100
AcDbEntity
  8
0
390
0
  6
Continuous
 62
     1
100
AcDbCircle
 10
244.108841
 20
12.354823
 30
0.0
 40
0.615862
210
0.0
220
0.0
230
1.0
100
AcDbArc
 50
88.776775
 51
142.742776
  0
ARC
  5
1A7
100
AcDbEntity
  8
0
390
0
  6
Continuous
 62
     1
100
AcDbCircle
 10
244.136917
 20
12.515945
 30
0.0
 40
0.454845
210
0.0
220
0.0
230
1.0
100
AcDbArc
 50
41.411226
 51
91.880972
  0
ARC
  5
1A8
100
AcDbEntity
  8
0
390
0
  6
Continuous
 62
     1
100
AcDbCircle
 10
243.982092
 20
12.45794
 30
0.0
 40
0.61217
210
0.0
220
0.0
230
0.9999999999999999
100
AcDbArc
 50
356.27304
 51
35.889176
  0
LINE
  5
1A9
100
AcDbEntity
  8
0
390
0
  6
Continuous
 62
     1
100
AcDbLine
 10
244.592968
 20
11.512468
 30
0.0
 11
244.592967
 21
12.418148
 31
0.0
  0
ARC
  5
1AA
100
AcDbEntity
  8
0
390
0
  6
Continuous
 62
     1
100
AcDbCircle
 10
244.739609
 20
11.488924
 30
0.0
 40
0.148519
210
0.0
220
0.0
230
1.0
100
AcDbArc
 50
170.878787
 51
269.528688
  0
LINE
  5
1AB
100
AcDbEntity
  8
0
390
0
  6
Continuous
 62
     1
100
AcDbLine
 10
243.509661
 20
12.929831
 30
0.0
 11
243.566987
 21
12.992219
 31
0.0
  0
LINE
  5
1AC
100
AcDbEntity
  8
0
390
0
  6
Continuous
 62
     1
100
AcDbLine
 10
243.468282
 20
12.877655
 30
0.0
 11
243.509661
 21
12.929831
 31
0.0
  0
LINE
  5
1AD
100
AcDbEntity
  8
0
390
0
  6
Continuous
 62
     1
100
AcDbLine
 10
243.468283
 20
13.065111
 30
0.0
 11
243.468282
 21
12.877655
 31
0.0
  0
ARC
  5
1AE
100
AcDbEntity
  8
0
390
0
  6
Continuous
 62
     1
100
AcDbCircle
 10
243.321514
 20
13.088612
 30
0.0
 40
0.148638
210
0.0
220
0.0
230
1.0
100
AcDbArc
 50
350.903117
 51
89.519339
  0
ARC
  5
1AF
100
AcDbEntity
  8
0
390
0
  6
Continuous
 62
     1
100
AcDbCircle
 10
243.327794
 20
13.085412
 30
0.0
 40
0.151916
210
0.0
220
0.0
230
1.0
100
AcDbArc
 50
91.898674
 51
187.679004
  0
LINE
  5
1B0
100
AcDbEntity
  8
0
390
0
  6
Continuous
 62
     1
100
AcDbLine
 10
243.177241
 20
11.512468
 30
0.0
 11
243.17724
 21
13.065112
 31
0.0
  0
ARC
  5
1B1
100
AcDbEntity
  8
0
390
0
  6
Continuous
 62
     1
100
AcDbCircle
 10
243.323977
 20
11.489005
 30
0.0
 40
0.1486
210
0.0
220
0.0
230
1.0
100
AcDbArc
 50
170.915515
 51
269.531091
  0
ARC
  5
1B2
100
AcDbEntity
  8
0
390
0
  6
Continuous
 62
     1
100
AcDbCircle
 10
242.795312
 20
13.085469
 30
0.0
 40
0.151915
210
0.0
220
0.0
230
1.0
100
AcDbArc
 50
91.93329
 51
172.299235
  0
LINE
  5
1B3
100
AcDbEntity
  8
0
390
0
  6
Continuous
 62
     1
100
AcDbLine
 10
242.644767
 20
11.512521
 30
0.0
 11
242.644766
 21
13.105825
 31
0.0
  0
ARC
  5
1B4
100
AcDbEntity
  8
0
390
0
  6
Continuous
 62
     1
100
AcDbCircle
 10
242.791471
 20
11.489031
 30
0.0
 40
0.148573
210
0.0
220
0.0
230
1.0
100
AcDbArc
 50
170.902946
 51
269.504554
  0
ARC
  5
1B5
100
AcDbEntity
  8
0
390
0
  6
Continuous
 62
     1
100
AcDbCircle
 10
242.785211
 20
11.492239
 30
0.0
 40
0.151857
210
0.0
220
0.0
230
0.9999999999999999
100
AcDbArc
 50
271.877763
 51
352.324516
  0
LINE
  5
1B6
100
AcDbEntity
  8
0
390
0
  6
Continuous
 62
     1
100
AcDbLine
 10
242.935706
 20
13.065111
 30
0.0
 11
242.935707
 21
11.471956
 31
0.0
  0
ARC
  5
1B7
100
AcDbEntity
  8
0
390
0
  6
Continuous
 62
     1
100
AcDbCircle
 10
242.78888
 20
13.088609
 30
0.0
 40
0.148694
210
0.0
220
0.0
230
1.0
100
AcDbArc
 50
350.90764
 51
89.496464
  0
ARC
  5
1B8
100
AcDbEntity
  8
0
390
0
  6
Continuous
 62
     1
100
AcDbCircle
 10
240.256193
 20
12.754972
 30
0.0
 40
0.163015
210
0.0
220
0.0
230
1.0
100
AcDbArc
 50
298.956364
 51
359.591462
  0
ARC
  5
1B9
100
AcDbEntity
  8
0
390
0
  6
Continuous
 62
     1
100
AcDbCircle
 10
240.02243
 20
12.733546
 30
0.0
 40
0.397291
210
0.0
220
0.0
230
1.0
100
AcDbArc
 50
2.923702
 51
42.663687
  0
ARC
  5
1BA
100
AcDbEntity
  8
0
390
0
  6
Continuous
 62
     1
100
AcDbCircle
 10
239.750565
 20
12.447047
 30
0.0
 40
0.791805
210
0.0
220
0.0
230
1.0
100
AcDbArc
 50
44.57678
 51
93.651322
  0
ARC
  5
1BB
100
AcDbEntity
  8
0
390
0
  6
Continuous
 62
     1
100
AcDbCircle
 10
239.639393
 20
12.495523
 30
0.0
 40
0.744205
210
0.0
220
0.0
230
1.0
100
AcDbArc
 50
85.31798
 51
134.235296
  0
ARC
  5
1BC
100
AcDbEntity
  8
0
390
0
  6
Continuous
 62
     1
100
AcDbCircle
 10
239.491352
 20
12.682576
 30
0.0
 40
0.507499
210
0.0
220
0.0
230
1.0
100
AcDbArc
 50
136.993432
 51
179.168797
  0
ARC
  5
1BD
100
AcDbEntity
  8
0
390
0
  6
Continuous
 62
     1
100
AcDbCircle
 10
239.496953
 20
12.735179
 30
0.0
 40
0.515037
210
0.0
220
0.0
230
1.0
100
AcDbArc
 50
185.039304
 51
266.133785
  0
LINE
  5
1BE
100
AcDbEntity
  8
0
390
0
  6
Continuous
 62
     1
100
AcDbLine
 10
239.965552
 20
12.117572
 30
0.0
 11
239.462226
 21
12.221314
 31
0.0
  0
ARC
  5
1BF
100
AcDbEntity
  8
0
390
0
  6
Continuous
 62
     1
100
AcDbCircle
 10
239.94908
 20
11.861402
 30
0.0
 40
0.256699
210
0.0
220
0.0
230
1.0
100
AcDbArc
 50
2.968107
 51
86.320918
  0
ARC
  5
1C0
100
AcDbEntity
  8
0
390
0
  6
Continuous
 62
     1
100
AcDbCircle
 10
240.026188
 20
11.864445
 30
0.0
 40
0.17954
210
0.0
220
0.0
230
1.0
100
AcDbArc
 50
309.943715
 51
3.272213
  0
ARC
  5
1C1
100
AcDbEntity
  8
0
390
0
  6
Continuous
 62
     1
100
AcDbCircle
 10
239.787363
 20
12.188562
 30
0.0
 40
0.581903
210
0.0
220
0.0
230
1.0
100
AcDbArc
 50
268.168642
 51
307.482092
  0
ARC
  5
1C2
100
AcDbEntity
  8
0
390
0
  6
Continuous
 62
     1
100
AcDbCircle
 10
239.721123
 20
12.143939
 30
0.0
 40
0.539093
210
0.0
220
0.0
230
1.0
100
AcDbArc
 50
227.304262
 51
275.070283
  0
ARC
  5
1C3
100
AcDbEntity
  8
0
390
0
  6
Continuous
 62
     1
100
AcDbCircle
 10
239.644964
 20
12.013756
 30
0.0
 40
0.393098
210
0.0
220
0.0
230
0.9999999999999999
100
AcDbArc
 50
195.548696
 51
222.590534
  0
LINE
  5
1C4
100
AcDbEntity
  8
0
390
0
  6
Continuous
 62
     1
100
AcDbLine
 10
239.260812
 20
11.927935
 30
0.0
 11
239.266252
 21
11.908383
 31
0.0
  0
ARC
  5
1C5
100
AcDbEntity
  8
0
390
0
  6
Continuous
 62
     1
100
AcDbCircle
 10
239.125876
 20
11.89039
 30
0.0
 40
0.140062
210
0.0
220
0.0
230
1.0
100
AcDbArc
 50
15.548696
 51
117.281689
  0
ARC
  5
1C6
100
AcDbEntity
  8
0
390
0
  6
Continuous
 62
     1
100
AcDbCircle
 10
239.164085
 20
11.866358
 30
0.0
 40
0.180399
210
0.0
220
0.0
230
1.0
100
AcDbArc
 50
124.588211
 51
202.264913
  0
ARC
  5
1C7
100
AcDbEntity
  8
0
390
0
  6
Continuous
 62
     1
100
AcDbCircle
 10
239.498902
 20
11.947905
 30
0.0
 40
0.523678
210
0.0
220
0.0
230
1.0
100
AcDbArc
 50
196.633035
 51
225.761587
  0
ARC
  5
1C8
100
AcDbEntity
  8
0
390
0
  6
Continuous
 62
     1
100
AcDbCircle
 10
239.730349
 20
12.219946
 30
0.0
 40
0.880374
210
0.0
220
0.0
230
1.0
100
AcDbArc
 50
227.321724
 51
272.501038
  0
ARC
  5
1C9
100
AcDbEntity
  8
0
390
0
  6
Continuous
 62
     1
100
AcDbCircle
 10
239.794115
 20
12.203728
 30
0.0
 40
0.86369
210
0.0
220
0.0
230
1.0
100
AcDbArc
 50
268.318204
 51
310.213823
  0
ARC
  5
1CA
100
AcDbEntity
  8
0
390
0
  6
Continuous
 62
     1
100
AcDbCircle
 10
240.100367
 20
11.850637
 30
0.0
 40
0.39637
210
0.0
220
0.0
230
1.0
100
AcDbArc
 50
309.361416
 51
1.628804
  0
ARC
  5
1CB
100
AcDbEntity
  8
0
390
0
  6
Continuous
 62
     1
100
AcDbCircle
 10
239.979467
 20
11.88891
 30
0.0
 40
0.517815
210
0.0
220
0.0
230
1.0
100
AcDbArc
 50
357.01041
 51
38.822746
  0
ARC
  5
1CC
100
AcDbEntity
  8
0
390
0
  6
Continuous
 62
     1
100
AcDbCircle
 10
239.88265
 20
11.717443
 30
0.0
 40
0.70452
210
0.0
220
0.0
230
1.0
100
AcDbArc
 50
44.761396
 51
74.074227
  0
LINE
  5
1CD
100
AcDbEntity
  8
0
390
0
  6
Continuous
 62
     1
100
AcDbLine
 10
239.491573
 20
12.524834
 30
0.0
 11
240.075964
 21
12.394922
 31
0.0
  0
LINE
  5
1CE
100
AcDbEntity
  8
0
390
0
  6
Continuous
 62
     1
100
AcDbLine
 10
239.443594
 20
12.536378
 30
0.0
 11
239.491573
 21
12.524834
 31
0.0
  0
LINE
  5
1CF
100
AcDbEntity
  8
0
390
0
  6
Continuous
 62
     1
100
AcDbLine
 10
239.396742
 20
12.551844
 30
0.0
 11
239.443594
 21
12.536378
 31
0.0
  0
LINE
  5
1D0
100
AcDbEntity
  8
0
390
0
  6
Continuous
 62
     1
100
AcDbLine
 10
239.352125
 20
12.572848
 30
0.0
 11
239.396742
 21
12.551844
 31
0.0
  0
LINE
  5
1D1
100
AcDbEntity
  8
0
390
0
  6
Continuous
 62
     1
100
AcDbLine
 10
239.321606
 20
12.593725
 30
0.0
 11
239.352125
 21
12.572848
 31
0.0
  0
LINE
  5
1D2
100
AcDbEntity
  8
0
390
0
  6
Continuous
 62
     1
100
AcDbLine
 10
239.29611
 20
12.620435
 30
0.0
 11
239.321606
 21
12.593725
 31
0.0
  0
LINE
  5
1D3
100
AcDbEntity
  8
0
390
0
  6
Continuous
 62
     1
100
AcDbLine
 10
239.279565
 20
12.653358
 30
0.0
 11
239.29611
 21
12.620435
 31
0.0
  0
LINE
  5
1D4
100
AcDbEntity
  8
0
390
0
  6
Continuous
 62
     1
100
AcDbLine
 10
239.274948
 20
12.689938
 30
0.0
 11
239.279565
 21
12.653358
 31
0.0
  0
ARC
  5
1D5
100
AcDbEntity
  8
0
390
0
  6
Continuous
 62
     1
100
AcDbCircle
 10
239.515449
 20
12.699083
 30
0.0
 40
0.240674
210
0.0
220
0.0
230
1.0
100
AcDbArc
 50
139.395976
 51
182.177643
  0
ARC
  5
1D6
100
AcDbEntity
  8
0
390
0
  6
Continuous
 62
     1
100
AcDbCircle
 10
239.657105
 20
12.467922
 30
0.0
 40
0.505581
210
0.0
220
0.0
230
1.0
100
AcDbArc
 50
83.79895
 51
129.911498
  0
ARC
  5
1D7
100
AcDbEntity
  8
0
390
0
  6
Continuous
 62
     1
100
AcDbCircle
 10
239.755064
 20
12.548556
 30
0.0
 40
0.424209
210
0.0
220
0.0
230
1.0
100
AcDbArc
 50
20.97101
 51
95.864888
  0
ARC
  5
1D8
100
AcDbEntity
  8
0
390
0
  6
Continuous
 62
     1
100
AcDbCircle
 10
240.284034
 20
12.741783
 30
0.0
 40
0.139161
210
0.0
220
0.0
230
1.0
100
AcDbArc
 50
197.309091
 51
291.534944
  0
CIRCLE
  5
1D9
100
AcDbEntity
  8
0
390
0
  6
Continuous
 62
     1
100
AcDbCircle
 10
242.790236
 20
14.424485
 30
0.0
 40
0.963717
210
0.0
220
0.0
230
1.0
  0
ARC
  5
1DA
100
AcDbEntity
  8
0
390
0
  6
Continuous
 62
     1
100
AcDbCircle
 10
236.170867
 20
13.088593
 30
0.0
 40
0.148657
210
0.0
220
0.0
230
1.0
100
AcDbArc
 50
350.915999
 51
89.500183
  0
LINE
  5
1DB
100
AcDbEntity
  8
0
390
0
  6
Continuous
 62
     1
100
AcDbLine
 10
236.31766
 20
12.931066
 30
0.0
 11
236.31766
 21
13.065123
 31
0.0
  0
LINE
  5
1DC
100
AcDbEntity
  8
0
390
0
  6
Continuous
 62
     1
100
AcDbLine
 10
236.351953
 20
12.987506
 30
0.0
 11
236.31766
 21
12.931066
 31
0.0
  0
LINE
  5
1DD
100
AcDbEntity
  8
0
390
0
  6
Continuous
 62
     1
100
AcDbLine
 10
236.402616
 20
13.054518
 30
0.0
 11
236.351953
 21
12.987506
 31
0.0
  0
ARC
  5
1DE
100
AcDbEntity
  8
0
390
0
  6
Continuous
 62
     1
100
AcDbCircle
 10
236.881791
 20
12.529763
 30
0.0
 40
0.710617
210
0.0
220
0.0
230
1.0
100
AcDbArc
 50
84.615683
 51
132.400455
  0
ARC
  5
1DF
100
AcDbEntity
  8
0
390
0
  6
Continuous
 62
     1
100
AcDbCircle
 10
236.958309
 20
13.101507
 30
0.0
 40
0.136094
210
0.0
220
0.0
230
1.0
100
AcDbArc
 50
355.551556
 51
94.145062
  0
ARC
  5
1E0
100
AcDbEntity
  8
0
390
0
  6
Continuous
 62
     1
100
AcDbCircle
 10
236.958222
 20
13.080527
 30
0.0
 40
0.136171
210
0.0
220
0.0
230
1.0
100
AcDbArc
 50
274.095944
 51
4.390634
  0
LINE
  5
1E1
100
AcDbEntity
  8
0
390
0
  6
Continuous
 62
     1
100
AcDbLine
 10
236.822884
 20
12.944704
 30
0.0
 11
236.967948
 21
12.944704
 31
0.0
  0
ARC
  5
1E2
100
AcDbEntity
  8
0
390
0
  6
Continuous
 62
     1
100
AcDbCircle
 10
236.804224
 20
12.548987
 30
0.0
 40
0.396156
210
0.0
220
0.0
230
1.0
100
AcDbArc
 50
87.300271
 51
137.43986
  0
ARC
  5
1E3
100
AcDbEntity
  8
0
390
0
  6
Continuous
 62
     1
100
AcDbCircle
 10
237.250063
 20
12.198715
 30
0.0
 40
0.962444
210
0.0
220
0.0
230
0.9999999999999999
100
AcDbArc
 50
140.033318
 51
165.647036
  0
LINE
  5
1E4
100
AcDbEntity
  8
0
390
0
  6
Continuous
 62
     1
100
AcDbLine
 10
236.31766
 20
11.512456
 30
0.0
 11
236.31766
 21
12.4373
 31
0.0
  0
ARC
  5
1E5
100
AcDbEntity
  8
0
390
0
  6
Continuous
 62
     1
100
AcDbCircle
 10
236.167195
 20
11.492157
 30
0.0
 40
0.151828
210
0.0
220
0.0
230
0.9999999999999999
100
AcDbArc
 50
271.875497
 51
7.683355
  0
ARC
  5
1E6
100
AcDbEntity
  8
0
390
0
  6
Continuous
 62
     1
100
AcDbCircle
 10
236.17336
 20
11.488987
 30
0.0
 40
0.148582
210
0.0
220
0.0
230
1.0
100
AcDbArc
 50
170.907465
 51
269.538812
  0
LINE
  5
1E7
100
AcDbEntity
  8
0
390
0
  6
Continuous
 62
     1
100
AcDbLine
 10
236.026643
 20
13.065112
 30
0.0
 11
236.026644
 21
11.512468
 31
0.0
  0
ARC
  5
1E8
100
AcDbEntity
  8
0
390
0
  6
Continuous
 62
     1
100
AcDbCircle
 10
236.177179
 20
13.085427
 30
0.0
 40
0.151901
210
0.0
220
0.0
230
1.0
100
AcDbArc
 50
91.892157
 51
187.68552
  0
LINE
  5
1E9
100
AcDbEntity
  8
0
390
0
  6
Continuous
 62
     1
100
AcDbLine
 10
235.596282
 20
11.475051
 30
0.0
 11
235.596282
 21
13.828784
 31
0.0
  0
LINE
  5
1EA
100
AcDbEntity
  8
0
390
0
  6
Continuous
 62
     1
100
AcDbLine
 10
235.586195
 20
11.419231
 30
0.0
 11
235.596282
 21
11.475051
 31
0.0
  0
LINE
  5
1EB
100
AcDbEntity
  8
0
390
0
  6
Continuous
 62
     1
100
AcDbLine
 10
235.567599
 20
11.365598
 30
0.0
 11
235.586195
 21
11.419231
 31
0.0
  0
LINE
  5
1EC
100
AcDbEntity
  8
0
390
0
  6
Continuous
 62
     1
100
AcDbLine
 10
235.541985
 20
11.314932
 30
0.0
 11
235.567599
 21
11.365598
 31
0.0
  0
LINE
  5
1ED
100
AcDbEntity
  8
0
390
0
  6
Continuous
 62
     1
100
AcDbLine
 10
235.510029
 20
11.268004
 30
0.0
 11
235.541985
 21
11.314932
 31
0.0
  0
LINE
  5
1EE
100
AcDbEntity
  8
0
390
0
  6
Continuous
 62
     1
100
AcDbLine
 10
235.458789
 20
11.212321
 30
0.0
 11
235.510029
 21
11.268004
 31
0.0
  0
LINE
  5
1EF
100
AcDbEntity
  8
0
390
0
  6
Continuous
 62
     1
100
AcDbLine
 10
235.399498
 20
11.16528
 30
0.0
 11
235.458789
 21
11.212321
 31
0.0
  0
LINE
  5
1F0
100
AcDbEntity
  8
0
390
0
  6
Continuous
 62
     1
100
AcDbLine
 10
235.334205
 20
11.126975
 30
0.0
 11
235.399498
 21
11.16528
 31
0.0
  0
LINE
  5
1F1
100
AcDbEntity
  8
0
390
0
  6
Continuous
 62
     1
100
AcDbLine
 10
235.250463
 20
11.091778
 30
0.0
 11
235.334205
 21
11.126975
 31
0.0
  0
LINE
  5
1F2
100
AcDbEntity
  8
0
390
0
  6
Continuous
 62
     1
100
AcDbLine
 10
235.163072
 20
11.066921
 30
0.0
 11
235.250463
 21
11.091778
 31
0.0
  0
LINE
  5
1F3
100
AcDbEntity
  8
0
390
0
  6
Continuous
 62
     1
100
AcDbLine
 10
235.073641
 20
11.050809
 30
0.0
 11
235.163072
 21
11.066921
 31
0.0
  0
LINE
  5
1F4
100
AcDbEntity
  8
0
390
0
  6
Continuous
 62
     1
100
AcDbLine
 10
234.983191
 20
11.041971
 30
0.0
 11
235.073641
 21
11.050809
 31
0.0
  0
LINE
  5
1F5
100
AcDbEntity
  8
0
390
0
  6
Continuous
 62
     1
100
AcDbLine
 10
234.892348
 20
11.039293
 30
0.0
 11
234.983191
 21
11.041971
 31
0.0
  0
LINE
  5
1F6
100
AcDbEntity
  8
0
390
0
  6
Continuous
 62
     1
100
AcDbLine
 10
234.799037
 20
11.043525
 30
0.0
 11
234.892348
 21
11.039293
 31
0.0
  0
LINE
  5
1F7
100
AcDbEntity
  8
0
390
0
  6
Continuous
 62
     1
100
AcDbLine
 10
234.706442
 20
11.055902
 30
0.0
 11
234.799037
 21
11.043525
 31
0.0
  0
LINE
  5
1F8
100
AcDbEntity
  8
0
390
0
  6
Continuous
 62
     1
100
AcDbLine
 10
234.615354
 20
11.076604
 30
0.0
 11
234.706442
 21
11.055902
 31
0.0
  0
LINE
  5
1F9
100
AcDbEntity
  8
0
390
0
  6
Continuous
 62
     1
100
AcDbLine
 10
234.527099
 20
11.107151
 30
0.0
 11
234.615354
 21
11.076604
 31
0.0
  0
LINE
  5
1FA
100
AcDbEntity
  8
0
390
0
  6
Continuous
 62
     1
100
AcDbLine
 10
234.444048
 20
11.149789
 30
0.0
 11
234.527099
 21
11.107151
 31
0.0
  0
LINE
  5
1FB
100
AcDbEntity
  8
0
390
0
  6
Continuous
 62
     1
100
AcDbLine
 10
234.396526
 20
11.183696
 30
0.0
 11
234.444048
 21
11.149789
 31
0.0
  0
LINE
  5
1FC
100
AcDbEntity
  8
0
390
0
  6
Continuous
 62
     1
100
AcDbLine
 10
234.354041
 20
11.223721
 30
0.0
 11
234.396526
 21
11.183696
 31
0.0
  0
LINE
  5
1FD
100
AcDbEntity
  8
0
390
0
  6
Continuous
 62
     1
100
AcDbLine
 10
234.318229
 20
11.269803
 30
0.0
 11
234.354041
 21
11.223721
 31
0.0
  0
LINE
  5
1FE
100
AcDbEntity
  8
0
390
0
  6
Continuous
 62
     1
100
AcDbLine
 10
234.290538
 20
11.321176
 30
0.0
 11
234.318229
 21
11.269803
 31
0.0
  0
LINE
  5
1FF
100
AcDbEntity
  8
0
390
0
  6
Continuous
 62
     1
100
AcDbLine
 10
234.271731
 20
11.376429
 30
0.0
 11
234.290538
 21
11.321176
 31
0.0
  0
LINE
  5
200
100
AcDbEntity
  8
0
390
0
  6
Continuous
 62
     1
100
AcDbLine
 10
234.261658
 20
11.433927
 30
0.0
 11
234.271731
 21
11.376429
 31
0.0
  0
LINE
  5
201
100
AcDbEntity
  8
0
390
0
  6
Continuous
 62
     1
100
AcDbLine
 10
234.259371
 20
11.492277
 30
0.0
 11
234.261658
 21
11.433927
 31
0.0
  0
LINE
  5
202
100
AcDbEntity
  8
0
390
0
  6
Continuous
 62
     1
100
AcDbLine
 10
234.26383
 20
11.5505
 30
0.0
 11
234.259371
 21
11.492277
 31
0.0
  0
LINE
  5
203
100
AcDbEntity
  8
0
390
0
  6
Continuous
 62
     1
100
AcDbLine
 10
234.523661
 20
13.718818
 30
0.0
 11
234.26383
 21
11.5505
 31
0.0
  0
ARC
  5
204
100
AcDbEntity
  8
0
390
0
  6
Continuous
 62
     1
100
AcDbCircle
 10
233.904092
 20
25.048366
 30
0.0
 40
11.346476
210
0.0
220
0.0
230
1.0
100
AcDbArc
 50
273.130165
 51
278.57697
  0
LINE
  5
205
100
AcDbEntity
  8
0
390
0
  6
Continuous
 62
     1
100
AcDbLine
 10
242.989023
 20
17.179153
 30
0.0
 11
242.819231
 21
17.014855
 31
0.0
  0
LINE
  5
206
100
AcDbEntity
  8
0
390
0
  6
Continuous
 62
     1
100
AcDbLine
 10
242.819231
 20
17.014855
 30
0.0
 11
242.64372
 21
16.856679
 31
0.0
  0
LINE
  5
207
100
AcDbEntity
  8
0
390
0
  6
Continuous
 62
     1
100
AcDbLine
 10
242.64372
 20
16.856679
 30
0.0
 11
242.463263
 21
16.704169
 31
0.0
  0
LINE
  5
208
100
AcDbEntity
  8
0
390
0
  6
Continuous
 62
     1
100
AcDbLine
 10
242.463263
 20
16.704169
 30
0.0
 11
242.278477
 21
16.556933
 31
0.0
  0
LINE
  5
209
100
AcDbEntity
  8
0
390
0
  6
Continuous
 62
     1
100
AcDbLine
 10
242.278477
 20
16.556933
 30
0.0
 11
241.986557
 21
16.339753
 31
0.0
  0
LINE
  5
20A
100
AcDbEntity
  8
0
390
0
  6
Continuous
 62
     1
100
AcDbLine
 10
241.986557
 20
16.339753
 30
0.0
 11
241.686948
 21
16.133304
 31
0.0
  0
LINE
  5
20B
100
AcDbEntity
  8
0
390
0
  6
Continuous
 62
     1
100
AcDbLine
 10
241.686948
 20
16.133304
 30
0.0
 11
241.380728
 21
15.936793
 31
0.0
  0
LINE
  5
20C
100
AcDbEntity
  8
0
390
0
  6
Continuous
 62
     1
100
AcDbLine
 10
241.068729
 20
15.749587
 30
0.0
 11
240.664313
 21
15.524001
 31
0.0
  0
LINE
  5
20D
100
AcDbEntity
  8
0
390
0
  6
Continuous
 62
     1
100
AcDbLine
 10
240.664313
 20
15.524001
 30
0.0
 11
240.252677
 21
15.311869
 31
0.0
  0
LINE
  5
20E
100
AcDbEntity
  8
0
390
0
  6
Continuous
 62
     1
100
AcDbLine
 10
240.252677
 20
15.311869
 30
0.0
 11
239.834692
 21
15.11253
 31
0.0
  0
LINE
  5
20F
100
AcDbEntity
  8
0
390
0
  6
Continuous
 62
     1
100
AcDbLine
 10
239.834692
 20
15.11253
 30
0.0
 11
239.410961
 21
14.925721
 31
0.0
  0
LINE
  5
210
100
AcDbEntity
  8
0
390
0
  6
Continuous
 62
     1
100
AcDbLine
 10
239.410961
 20
14.925721
 30
0.0
 11
239.313508
 21
14.884951
 31
0.0
  0
ARC
  5
211
100
AcDbEntity
  8
0
390
0
  6
Continuous
 62
     1
100
AcDbCircle
 10
239.26596
 20
15.132604
 30
0.0
 40
0.252176
210
0.0
220
0.0
230
1.0
100
AcDbArc
 50
270.208724
 51
280.868276
  0
LINE
  5
212
100
AcDbEntity
  8
0
390
0
  6
Continuous
 62
     1
100
AcDbLine
 10
239.207533
 20
19.224067
 30
0.0
 11
238.917327
 21
19.224875
 31
0.0
  0
LINE
  5
213
100
AcDbEntity
  8
0
390
0
  6
Continuous
 62
     1
100
AcDbLine
 10
238.917327
 20
19.224875
 30
0.0
 11
238.627318
 21
19.214072
 31
0.0
  0
LINE
  5
214
100
AcDbEntity
  8
0
390
0
  6
Continuous
 62
     1
100
AcDbLine
 10
238.627318
 20
19.214072
 30
0.0
 11
238.33791
 21
19.192491
 31
0.0
  0
LINE
  5
215
100
AcDbEntity
  8
0
390
0
  6
Continuous
 62
     1
100
AcDbLine
 10
238.33791
 20
19.192491
 30
0.0
 11
237.970959
 21
19.150463
 31
0.0
  0
LINE
  5
216
100
AcDbEntity
  8
0
390
0
  6
Continuous
 62
     1
100
AcDbLine
 10
237.970959
 20
19.150463
 30
0.0
 11
237.606088
 21
19.093091
 31
0.0
  0
ARC
  5
217
100
AcDbEntity
  8
0
390
0
  6
Continuous
 62
     1
100
AcDbCircle
 10
239.19924
 20
9.960818
 30
0.0
 40
9.268141
210
0.0
220
0.0
230
0.9999999999999999
100
AcDbArc
 50
101.768938
 51
112.876529
  0
LINE
  5
218
100
AcDbEntity
  8
0
390
0
  6
Continuous
 62
     1
100
AcDbLine
 10
235.596282
 20
18.499971
 30
0.0
 11
235.596282
 21
14.660645
 31
0.0
  0
LINE
  5
219
100
AcDbEntity
  8
0
390
0
  6
Continuous
 62
     1
100
AcDbLine
 10
243.62395
 20
17.971288
 30
0.0
 11
243.541235
 21
17.840951
 31
0.0
  0
LINE
  5
21A
100
AcDbEntity
  8
0
390
0
  6
Continuous
 62
     1
100
AcDbLine
 10
243.69968
 20
18.105803
 30
0.0
 11
243.62395
 21
17.971288
 31
0.0
  0
LINE
  5
21B
100
AcDbEntity
  8
0
390
0
  6
Continuous
 62
     1
100
AcDbLine
 10
243.767137
 20
18.244649
 30
0.0
 11
243.69968
 21
18.105803
 31
0.0
  0
LINE
  5
21C
100
AcDbEntity
  8
0
390
0
  6
Continuous
 62
     1
100
AcDbLine
 10
243.824723
 20
18.387869
 30
0.0
 11
243.767137
 21
18.244649
 31
0.0
  0
ARC
  5
21D
100
AcDbEntity
  8
0
390
0
  6
Continuous
 62
     1
100
AcDbCircle
 10
239.267857
 20
15.135342
 30
0.0
 40
0.254915
210
0.0
220
0.0
230
1.0
100
AcDbArc
 50
179.65698
 51
269.779905
  0
LINE
  5
21E
100
AcDbEntity
  8
0
390
0
  6
Continuous
 62
     1
100
AcDbLine
 10
243.896655
 20
18.653725
 30
0.0
 11
243.870488
 21
18.535287
 31
0.0
  0
LINE
  5
21F
100
AcDbEntity
  8
0
390
0
  6
Continuous
 62
     1
100
AcDbLine
 10
243.912877
 20
18.773935
 30
0.0
 11
243.896655
 21
18.653725
 31
0.0
  0
LINE
  5
220
100
AcDbEntity
  8
0
390
0
  6
Continuous
 62
     1
100
AcDbLine
 10
243.917861
 20
18.895118
 30
0.0
 11
243.912877
 21
18.773935
 31
0.0
  0
LINE
  5
221
100
AcDbEntity
  8
0
390
0
  6
Continuous
 62
     1
100
AcDbLine
 10
243.910571
 20
19.016204
 30
0.0
 11
243.917861
 21
18.895118
 31
0.0
  0
LINE
  5
222
100
AcDbEntity
  8
0
390
0
  6
Continuous
 62
     1
100
AcDbLine
 10
243.89002
 20
19.135728
 30
0.0
 11
243.910571
 21
19.016204
 31
0.0
  0
LINE
  5
223
100
AcDbEntity
  8
0
390
0
  6
Continuous
 62
     1
100
AcDbLine
 10
241.380728
 20
15.936793
 30
0.0
 11
241.068729
 21
15.749587
 31
0.0
  0
LINE
  5
224
100
AcDbEntity
  8
0
390
0
  6
Continuous
 62
     1
100
AcDbLine
 10
243.809612
 20
19.362451
 30
0.0
 11
243.856166
 21
19.252203
 31
0.0
  0
LINE
  5
225
100
AcDbEntity
  8
0
390
0
  6
Continuous
 62
     1
100
AcDbLine
 10
243.751595
 20
19.467029
 30
0.0
 11
243.809612
 21
19.362451
 31
0.0
  0
LINE
  5
226
100
AcDbEntity
  8
0
390
0
  6
Continuous
 62
     1
100
AcDbLine
 10
243.682126
 20
19.564523
 30
0.0
 11
243.751595
 21
19.467029
 31
0.0
  0
LINE
  5
227
100
AcDbEntity
  8
0
390
0
  6
Continuous
 62
     1
100
AcDbLine
 10
243.60346
 20
19.65465
 30
0.0
 11
243.682126
 21
19.564523
 31
0.0
  0
LINE
  5
228
100
AcDbEntity
  8
0
390
0
  6
Continuous
 62
     1
100
AcDbLine
 10
243.51675
 20
19.737124
 30
0.0
 11
243.60346
 21
19.65465
 31
0.0
  0
LINE
  5
229
100
AcDbEntity
  8
0
390
0
  6
Continuous
 62
     1
100
AcDbLine
 10
243.393559
 20
19.833908
 30
0.0
 11
243.51675
 21
19.737124
 31
0.0
  0
LINE
  5
22A
100
AcDbEntity
  8
0
390
0
  6
Continuous
 62
     1
100
AcDbLine
 10
243.261859
 20
19.918765
 30
0.0
 11
243.393559
 21
19.833908
 31
0.0
  0
LINE
  5
22B
100
AcDbEntity
  8
0
390
0
  6
Continuous
 62
     1
100
AcDbLine
 10
243.123785
 20
19.992806
 30
0.0
 11
243.261859
 21
19.918765
 31
0.0
  0
LINE
  5
22C
100
AcDbEntity
  8
0
390
0
  6
Continuous
 62
     1
100
AcDbLine
 10
242.970589
 20
20.061425
 30
0.0
 11
243.123785
 21
19.992806
 31
0.0
  0
LINE
  5
22D
100
AcDbEntity
  8
0
390
0
  6
Continuous
 62
     1
100
AcDbLine
 10
242.813367
 20
20.120238
 30
0.0
 11
242.970589
 21
20.061425
 31
0.0
  0
LINE
  5
22E
100
AcDbEntity
  8
0
390
0
  6
Continuous
 62
     1
100
AcDbLine
 10
243.856166
 20
19.252203
 30
0.0
 11
243.89002
 21
19.135728
 31
0.0
  0
LINE
  5
22F
100
AcDbEntity
  8
0
390
0
  6
Continuous
 62
     1
100
AcDbLine
 10
242.49077
 20
20.212865
 30
0.0
 11
242.653171
 21
20.170391
 31
0.0
  0
LINE
  5
230
100
AcDbEntity
  8
0
390
0
  6
Continuous
 62
     1
100
AcDbLine
 10
242.32673
 20
20.248493
 30
0.0
 11
242.49077
 21
20.212865
 31
0.0
  0
LINE
  5
231
100
AcDbEntity
  8
0
390
0
  6
Continuous
 62
     1
100
AcDbLine
 10
242.057991
 20
20.293511
 30
0.0
 11
242.32673
 21
20.248493
 31
0.0
  0
LINE
  5
232
100
AcDbEntity
  8
0
390
0
  6
Continuous
 62
     1
100
AcDbLine
 10
241.787294
 20
20.324718
 30
0.0
 11
242.057991
 21
20.293511
 31
0.0
  0
LINE
  5
233
100
AcDbEntity
  8
0
390
0
  6
Continuous
 62
     1
100
AcDbLine
 10
241.515484
 20
20.343978
 30
0.0
 11
241.787294
 21
20.324718
 31
0.0
  0
LINE
  5
234
100
AcDbEntity
  8
0
390
0
  6
Continuous
 62
     1
100
AcDbLine
 10
237.606088
 20
19.093091
 30
0.0
 11
237.30886
 21
19.034126
 31
0.0
  0
LINE
  5
235
100
AcDbEntity
  8
0
390
0
  6
Continuous
 62
     1
100
AcDbLine
 10
240.970636
 20
20.352153
 30
0.0
 11
241.243131
 21
20.352741
 31
0.0
  0
LINE
  5
236
100
AcDbEntity
  8
0
390
0
  6
Continuous
 62
     1
100
AcDbLine
 10
240.698289
 20
20.343132
 30
0.0
 11
240.970636
 21
20.352153
 31
0.0
  0
LINE
  5
237
100
AcDbEntity
  8
0
390
0
  6
Continuous
 62
     1
100
AcDbLine
 10
240.426306
 20
20.326424
 30
0.0
 11
240.698289
 21
20.343132
 31
0.0
  0
LINE
  5
238
100
AcDbEntity
  8
0
390
0
  6
Continuous
 62
     1
100
AcDbLine
 10
240.000946
 20
20.286177
 30
0.0
 11
240.426306
 21
20.326424
 31
0.0
  0
LINE
  5
239
100
AcDbEntity
  8
0
390
0
  6
Continuous
 62
     1
100
AcDbLine
 10
239.577343
 20
20.230369
 30
0.0
 11
240.000946
 21
20.286177
 31
0.0
  0
LINE
  5
23A
100
AcDbEntity
  8
0
390
0
  6
Continuous
 62
     1
100
AcDbLine
 10
239.155843
 20
20.16042
 30
0.0
 11
239.577343
 21
20.230369
 31
0.0
  0
LINE
  5
23B
100
AcDbEntity
  8
0
390
0
  6
Continuous
 62
     1
100
AcDbLine
 10
238.736714
 20
20.077424
 30
0.0
 11
239.155843
 21
20.16042
 31
0.0
  0
LINE
  5
23C
100
AcDbEntity
  8
0
390
0
  6
Continuous
 62
     1
100
AcDbLine
 10
238.320184
 20
19.982236
 30
0.0
 11
238.736714
 21
20.077424
 31
0.0
  0
LINE
  5
23D
100
AcDbEntity
  8
0
390
0
  6
Continuous
 62
     1
100
AcDbLine
 10
237.913815
 20
19.877537
 30
0.0
 11
238.320184
 21
19.982236
 31
0.0
  0
LINE
  5
23E
100
AcDbEntity
  8
0
390
0
  6
Continuous
 62
     1
100
AcDbLine
 10
237.510337
 20
19.762201
 30
0.0
 11
237.913815
 21
19.877537
 31
0.0
  0
LINE
  5
23F
100
AcDbEntity
  8
0
390
0
  6
Continuous
 62
     1
100
AcDbLine
 10
237.109874
 20
19.636778
 30
0.0
 11
237.510337
 21
19.762201
 31
0.0
  0
LINE
  5
240
100
AcDbEntity
  8
0
390
0
  6
Continuous
 62
     1
100
AcDbLine
 10
236.712702
 20
19.501308
 30
0.0
 11
237.109874
 21
19.636778
 31
0.0
  0
ARC
  5
241
100
AcDbEntity
  8
0
390
0
  6
Continuous
 62
     1
100
AcDbCircle
 10
242.220176
 20
3.934758
 30
0.0
 40
16.512109
210
0.0
220
0.0
230
1.0
100
AcDbArc
 50
109.483874
 51
115.178378
  0
LINE
  5
242
100
AcDbEntity
  8
0
390
0
  6
Continuous
 62
     1
100
AcDbLine
 10
235.131856
 20
18.847867
 30
0.0
 11
235.195301
 21
18.878013
 31
0.0
  0
LINE
  5
243
100
AcDbEntity
  8
0
390
0
  6
Continuous
 62
     1
100
AcDbLine
 10
234.647401
 20
14.760641
 30
0.0
 11
235.131856
 21
18.847867
 31
0.0
  0
ARC
  5
244
100
AcDbEntity
  8
0
390
0
  6
Continuous
 62
     1
100
AcDbCircle
 10
235.699055
 20
20.187909
 30
0.0
 40
5.528219
210
0.0
220
0.0
230
1.0
100
AcDbArc
 50
259.033573
 51
268.934772
  0
LINE
  5
245
100
AcDbEntity
  8
0
390
0
  6
Continuous
 62
     1
100
AcDbLine
 10
242.653171
 20
20.170391
 30
0.0
 11
242.813367
 21
20.120238
 31
0.0
  0
LINE
  5
246
100
AcDbEntity
  8
0
390
0
  6
Continuous
 62
     1
100
AcDbLine
 10
241.243131
 20
20.352741
 30
0.0
 11
241.515484
 21
20.343978
 31
0.0
  0
LINE
  5
247
100
AcDbEntity
  8
0
390
0
  6
Continuous
 62
     1
100
AcDbLine
 10
243.152106
 20
17.35011
 30
0.0
 11
242.989023
 21
17.179153
 31
0.0
  0
LINE
  5
248
100
AcDbEntity
  8
0
390
0
  6
Continuous
 62
     1
100
AcDbLine
 10
243.307193
 20
17.528349
 30
0.0
 11
243.152106
 21
17.35011
 31
0.0
  0
LINE
  5
249
100
AcDbEntity
  8
0
390
0
  6
Continuous
 62
     1
100
AcDbLine
 10
243.452571
 20
17.714585
 30
0.0
 11
243.307193
 21
17.528349
 31
0.0
  0
LINE
  5
24A
100
AcDbEntity
  8
0
390
0
  6
Continuous
 62
     1
100
AcDbLine
 10
243.541235
 20
17.840951
 30
0.0
 11
243.452571
 21
17.714585
 31
0.0
  0
LINE
  5
24B
100
AcDbEntity
  8
0
390
0
  6
Continuous
 62
     1
100
AcDbLine
 10
239.497424
 20
19.210585
 30
0.0
 11
239.207533
 21
19.224067
 31
0.0
  0
LINE
  5
24C
100
AcDbEntity
  8
0
390
0
  6
Continuous
 62
     1
100
AcDbLine
 10
239.685182
 20
19.19441
 30
0.0
 11
239.497424
 21
19.210585
 31
0.0
  0
LINE
  5
24D
100
AcDbEntity
  8
0
390
0
  6
Continuous
 62
     1
100
AcDbLine
 10
239.87228
 20
19.171855
 30
0.0
 11
239.685182
 21
19.19441
 31
0.0
  0
LINE
  5
24E
100
AcDbEntity
  8
0
390
0
  6
Continuous
 62
     1
100
AcDbLine
 10
240.05841
 20
19.142364
 30
0.0
 11
239.87228
 21
19.171855
 31
0.0
  0
LINE
  5
24F
100
AcDbEntity
  8
0
390
0
  6
Continuous
 62
     1
100
AcDbLine
 10
240.243174
 20
19.105265
 30
0.0
 11
240.05841
 21
19.142364
 31
0.0
  0
LINE
  5
250
100
AcDbEntity
  8
0
390
0
  6
Continuous
 62
     1
100
AcDbLine
 10
240.426043
 20
19.059748
 30
0.0
 11
240.243174
 21
19.105265
 31
0.0
  0
LINE
  5
251
100
AcDbEntity
  8
0
390
0
  6
Continuous
 62
     1
100
AcDbLine
 10
240.606307
 20
19.004824
 30
0.0
 11
240.426043
 21
19.059748
 31
0.0
  0
LINE
  5
252
100
AcDbEntity
  8
0
390
0
  6
Continuous
 62
     1
100
AcDbLine
 10
240.782987
 20
18.939292
 30
0.0
 11
240.606307
 21
19.004824
 31
0.0
  0
LINE
  5
253
100
AcDbEntity
  8
0
390
0
  6
Continuous
 62
     1
100
AcDbLine
 10
240.918122
 20
18.879564
 30
0.0
 11
240.782987
 21
18.939292
 31
0.0
  0
LINE
  5
254
100
AcDbEntity
  8
0
390
0
  6
Continuous
 62
     1
100
AcDbLine
 10
241.049313
 20
18.811613
 30
0.0
 11
240.918122
 21
18.879564
 31
0.0
  0
LINE
  5
255
100
AcDbEntity
  8
0
390
0
  6
Continuous
 62
     1
100
AcDbLine
 10
241.175354
 20
18.734536
 30
0.0
 11
241.049313
 21
18.811613
 31
0.0
  0
LINE
  5
256
100
AcDbEntity
  8
0
390
0
  6
Continuous
 62
     1
100
AcDbLine
 10
241.294644
 20
18.647385
 30
0.0
 11
241.175354
 21
18.734536
 31
0.0
  0
LINE
  5
257
100
AcDbEntity
  8
0
390
0
  6
Continuous
 62
     1
100
AcDbLine
 10
241.40509
 20
18.549279
 30
0.0
 11
241.294644
 21
18.647385
 31
0.0
  0
LINE
  5
258
100
AcDbEntity
  8
0
390
0
  6
Continuous
 62
     1
100
AcDbLine
 10
241.483955
 20
18.464096
 30
0.0
 11
241.40509
 21
18.549279
 31
0.0
  0
LINE
  5
259
100
AcDbEntity
  8
0
390
0
  6
Continuous
 62
     1
100
AcDbLine
 10
241.554259
 20
18.371716
 30
0.0
 11
241.483955
 21
18.464096
 31
0.0
  0
LINE
  5
25A
100
AcDbEntity
  8
0
390
0
  6
Continuous
 62
     1
100
AcDbLine
 10
241.614369
 20
18.272421
 30
0.0
 11
241.554259
 21
18.371716
 31
0.0
  0
LINE
  5
25B
100
AcDbEntity
  8
0
390
0
  6
Continuous
 62
     1
100
AcDbLine
 10
241.662963
 20
18.166987
 30
0.0
 11
241.614369
 21
18.272421
 31
0.0
  0
LINE
  5
25C
100
AcDbEntity
  8
0
390
0
  6
Continuous
 62
     1
100
AcDbLine
 10
241.698674
 20
18.05654
 30
0.0
 11
241.662963
 21
18.166987
 31
0.0
  0
LINE
  5
25D
100
AcDbEntity
  8
0
390
0
  6
Continuous
 62
     1
100
AcDbLine
 10
241.721963
 20
17.936664
 30
0.0
 11
241.698674
 21
18.05654
 31
0.0
  0
LINE
  5
25E
100
AcDbEntity
  8
0
390
0
  6
Continuous
 62
     1
100
AcDbLine
 10
241.730029
 20
17.814782
 30
0.0
 11
241.721963
 21
17.936664
 31
0.0
  0
LINE
  5
25F
100
AcDbEntity
  8
0
390
0
  6
Continuous
 62
     1
100
AcDbLine
 10
241.723747
 20
17.692816
 30
0.0
 11
241.730029
 21
17.814782
 31
0.0
  0
LINE
  5
260
100
AcDbEntity
  8
0
390
0
  6
Continuous
 62
     1
100
AcDbLine
 10
241.704121
 20
17.572267
 30
0.0
 11
241.723747
 21
17.692816
 31
0.0
  0
LINE
  5
261
100
AcDbEntity
  8
0
390
0
  6
Continuous
 62
     1
100
AcDbLine
 10
241.672627
 20
17.454252
 30
0.0
 11
241.704121
 21
17.572267
 31
0.0
  0
LINE
  5
262
100
AcDbEntity
  8
0
390
0
  6
Continuous
 62
     1
100
AcDbLine
 10
241.630812
 20
17.339483
 30
0.0
 11
241.672627
 21
17.454252
 31
0.0
  0
LINE
  5
263
100
AcDbEntity
  8
0
390
0
  6
Continuous
 62
     1
100
AcDbLine
 10
241.580133
 20
17.228338
 30
0.0
 11
241.630812
 21
17.339483
 31
0.0
  0
LINE
  5
264
100
AcDbEntity
  8
0
390
0
  6
Continuous
 62
     1
100
AcDbLine
 10
241.521881
 20
17.120966
 30
0.0
 11
241.580133
 21
17.228338
 31
0.0
  0
LINE
  5
265
100
AcDbEntity
  8
0
390
0
  6
Continuous
 62
     1
100
AcDbLine
 10
241.434306
 20
16.983653
 30
0.0
 11
241.521881
 21
17.120966
 31
0.0
  0
LINE
  5
266
100
AcDbEntity
  8
0
390
0
  6
Continuous
 62
     1
100
AcDbLine
 10
241.337328
 20
16.852804
 30
0.0
 11
241.434306
 21
16.983653
 31
0.0
  0
LINE
  5
267
100
AcDbEntity
  8
0
390
0
  6
Continuous
 62
     1
100
AcDbLine
 10
241.232599
 20
16.728066
 30
0.0
 11
241.337328
 21
16.852804
 31
0.0
  0
LINE
  5
268
100
AcDbEntity
  8
0
390
0
  6
Continuous
 62
     1
100
AcDbLine
 10
241.121406
 20
16.609051
 30
0.0
 11
241.232599
 21
16.728066
 31
0.0
  0
LINE
  5
269
100
AcDbEntity
  8
0
390
0
  6
Continuous
 62
     1
100
AcDbLine
 10
241.004752
 20
16.495379
 30
0.0
 11
241.121406
 21
16.609051
 31
0.0
  0
LINE
  5
26A
100
AcDbEntity
  8
0
390
0
  6
Continuous
 62
     1
100
AcDbLine
 10
240.883432
 20
16.3867
 30
0.0
 11
241.004752
 21
16.495379
 31
0.0
  0
LINE
  5
26B
100
AcDbEntity
  8
0
390
0
  6
Continuous
 62
     1
100
AcDbLine
 10
240.694053
 20
16.232361
 30
0.0
 11
240.883432
 21
16.3867
 31
0.0
  0
LINE
  5
26C
100
AcDbEntity
  8
0
390
0
  6
Continuous
 62
     1
100
AcDbLine
 10
240.497225
 20
16.087633
 30
0.0
 11
240.694053
 21
16.232361
 31
0.0
  0
LINE
  5
26D
100
AcDbEntity
  8
0
390
0
  6
Continuous
 62
     1
100
AcDbLine
 10
240.294179
 20
15.95176
 30
0.0
 11
240.497225
 21
16.087633
 31
0.0
  0
LINE
  5
26E
100
AcDbEntity
  8
0
390
0
  6
Continuous
 62
     1
100
AcDbLine
 10
240.085854
 20
15.824123
 30
0.0
 11
240.294179
 21
15.95176
 31
0.0
  0
LINE
  5
26F
100
AcDbEntity
  8
0
390
0
  6
Continuous
 62
     1
100
AcDbLine
 10
239.872984
 20
15.704218
 30
0.0
 11
240.085854
 21
15.824123
 31
0.0
  0
LINE
  5
270
100
AcDbEntity
  8
0
390
0
  6
Continuous
 62
     1
100
AcDbLine
 10
239.656151
 20
15.591634
 30
0.0
 11
239.872984
 21
15.704218
 31
0.0
  0
LINE
  5
271
100
AcDbEntity
  8
0
390
0
  6
Continuous
 62
     1
100
AcDbLine
 10
239.435852
 20
15.485987
 30
0.0
 11
239.656151
 21
15.591634
 31
0.0
  0
LINE
  5
272
100
AcDbEntity
  8
0
390
0
  6
Continuous
 62
     1
100
AcDbLine
 10
239.212422
 20
15.387138
 30
0.0
 11
239.435852
 21
15.485987
 31
0.0
  0
LINE
  5
273
100
AcDbEntity
  8
0
390
0
  6
Continuous
 62
     1
100
AcDbLine
 10
239.130461
 20
15.352826
 30
0.0
 11
239.212422
 21
15.387138
 31
0.0
  0
ARC
  5
274
100
AcDbEntity
  8
0
390
0
  6
Continuous
 62
     1
100
AcDbCircle
 10
239.269445
 20
15.137246
 30
0.0
 40
0.256498
210
0.0
220
0.0
230
1.0
100
AcDbArc
 50
122.809863
 51
180.08436
  0
LINE
  5
275
100
AcDbEntity
  8
0
390
0
  6
Continuous
 62
     1
100
AcDbLine
 10
243.870488
 20
18.535287
 30
0.0
 11
243.824723
 21
18.387869
 31
0.0
  0
LINE
  5
276
100
AcDbEntity
  8
0
390
0
  6
Continuous
 62
     1
100
AcDbLine
 10
234.523661
 20
13.718818
 30
0.0
 11
234.260842
 21
13.708709
 31
0.0
  0
LINE
  5
277
100
AcDbEntity
  8
0
390
0
  6
Continuous
 62
     1
100
AcDbLine
 10
233.997839
 20
13.706355
 30
0.0
 11
233.7349
 21
13.712478
 31
0.0
  0
LINE
  5
278
100
AcDbEntity
  8
0
390
0
  6
Continuous
 62
     1
100
AcDbLine
 10
233.7349
 20
13.712478
 30
0.0
 11
233.472354
 21
13.72807
 31
0.0
  0
LINE
  5
279
100
AcDbEntity
  8
0
390
0
  6
Continuous
 62
     1
100
AcDbLine
 10
233.472354
 20
13.72807
 30
0.0
 11
233.210666
 21
13.75435
 31
0.0
  0
LINE
  5
27A
100
AcDbEntity
  8
0
390
0
  6
Continuous
 62
     1
100
AcDbLine
 10
232.950503
 20
13.792861
 30
0.0
 11
232.777006
 21
13.826581
 31
0.0
  0
LINE
  5
27B
100
AcDbEntity
  8
0
390
0
  6
Continuous
 62
     1
100
AcDbLine
 10
232.777006
 20
13.826581
 30
0.0
 11
232.605054
 21
13.867451
 31
0.0
  0
LINE
  5
27C
100
AcDbEntity
  8
0
390
0
  6
Continuous
 62
     1
100
AcDbLine
 10
232.605054
 20
13.867451
 30
0.0
 11
232.435218
 21
13.916359
 31
0.0
  0
LINE
  5
27D
100
AcDbEntity
  8
0
390
0
  6
Continuous
 62
     1
100
AcDbLine
 10
232.268274
 20
13.974365
 30
0.0
 11
232.105304
 21
14.042727
 31
0.0
  0
LINE
  5
27E
100
AcDbEntity
  8
0
390
0
  6
Continuous
 62
     1
100
AcDbLine
 10
232.105304
 20
14.042727
 30
0.0
 11
231.994377
 21
14.097514
 31
0.0
  0
LINE
  5
27F
100
AcDbEntity
  8
0
390
0
  6
Continuous
 62
     1
100
AcDbLine
 10
231.994377
 20
14.097514
 30
0.0
 11
231.886813
 21
14.158636
 31
0.0
  0
LINE
  5
280
100
AcDbEntity
  8
0
390
0
  6
Continuous
 62
     1
100
AcDbLine
 10
231.886813
 20
14.158636
 30
0.0
 11
231.783477
 21
14.226658
 31
0.0
  0
LINE
  5
281
100
AcDbEntity
  8
0
390
0
  6
Continuous
 62
     1
100
AcDbLine
 10
231.783477
 20
14.226658
 30
0.0
 11
231.685449
 21
14.302121
 31
0.0
  0
LINE
  5
282
100
AcDbEntity
  8
0
390
0
  6
Continuous
 62
     1
100
AcDbLine
 10
231.685449
 20
14.302121
 30
0.0
 11
231.592447
 21
14.387059
 31
0.0
  0
LINE
  5
283
100
AcDbEntity
  8
0
390
0
  6
Continuous
 62
     1
100
AcDbLine
 10
231.592447
 20
14.387059
 30
0.0
 11
231.507917
 21
14.480424
 31
0.0
  0
LINE
  5
284
100
AcDbEntity
  8
0
390
0
  6
Continuous
 62
     1
100
AcDbLine
 10
231.507917
 20
14.480424
 30
0.0
 11
231.433603
 21
14.5821
 31
0.0
  0
LINE
  5
285
100
AcDbEntity
  8
0
390
0
  6
Continuous
 62
     1
100
AcDbLine
 10
231.433603
 20
14.5821
 30
0.0
 11
231.371141
 21
14.691467
 31
0.0
  0
LINE
  5
286
100
AcDbEntity
  8
0
390
0
  6
Continuous
 62
     1
100
AcDbLine
 10
231.371141
 20
14.691467
 30
0.0
 11
231.322124
 21
14.807462
 31
0.0
  0
LINE
  5
287
100
AcDbEntity
  8
0
390
0
  6
Continuous
 62
     1
100
AcDbLine
 10
231.322124
 20
14.807462
 30
0.0
 11
231.290633
 21
14.913436
 31
0.0
  0
LINE
  5
288
100
AcDbEntity
  8
0
390
0
  6
Continuous
 62
     1
100
AcDbLine
 10
231.270398
 20
15.022134
 30
0.0
 11
231.261081
 21
15.132292
 31
0.0
  0
LINE
  5
289
100
AcDbEntity
  8
0
390
0
  6
Continuous
 62
     1
100
AcDbLine
 10
231.261081
 20
15.132292
 30
0.0
 11
231.262264
 21
15.242847
 31
0.0
  0
LINE
  5
28A
100
AcDbEntity
  8
0
390
0
  6
Continuous
 62
     1
100
AcDbLine
 10
231.262264
 20
15.242847
 30
0.0
 11
231.273104
 21
15.352875
 31
0.0
  0
LINE
  5
28B
100
AcDbEntity
  8
0
390
0
  6
Continuous
 62
     1
100
AcDbLine
 10
231.273104
 20
15.352875
 30
0.0
 11
231.299417
 21
15.491088
 31
0.0
  0
LINE
  5
28C
100
AcDbEntity
  8
0
390
0
  6
Continuous
 62
     1
100
AcDbLine
 10
231.337928
 20
15.626417
 30
0.0
 11
231.386827
 21
15.758355
 31
0.0
  0
LINE
  5
28D
100
AcDbEntity
  8
0
390
0
  6
Continuous
 62
     1
100
AcDbLine
 10
231.386827
 20
15.758355
 30
0.0
 11
231.444534
 21
15.886688
 31
0.0
  0
LINE
  5
28E
100
AcDbEntity
  8
0
390
0
  6
Continuous
 62
     1
100
AcDbLine
 10
231.509725
 20
16.011388
 30
0.0
 11
231.618286
 21
16.190417
 31
0.0
  0
LINE
  5
28F
100
AcDbEntity
  8
0
390
0
  6
Continuous
 62
     1
100
AcDbLine
 10
231.738206
 20
16.362054
 30
0.0
 11
231.867372
 21
16.526853
 31
0.0
  0
LINE
  5
290
100
AcDbEntity
  8
0
390
0
  6
Continuous
 62
     1
100
AcDbLine
 10
231.867372
 20
16.526853
 30
0.0
 11
232.004192
 21
16.685359
 31
0.0
  0
LINE
  5
291
100
AcDbEntity
  8
0
390
0
  6
Continuous
 62
     1
100
AcDbLine
 10
232.004192
 20
16.685359
 30
0.0
 11
232.147451
 21
16.838074
 31
0.0
  0
LINE
  5
292
100
AcDbEntity
  8
0
390
0
  6
Continuous
 62
     1
100
AcDbLine
 10
232.147451
 20
16.838074
 30
0.0
 11
232.296205
 21
16.985443
 31
0.0
  0
LINE
  5
293
100
AcDbEntity
  8
0
390
0
  6
Continuous
 62
     1
100
AcDbLine
 10
232.296205
 20
16.985443
 30
0.0
 11
232.528052
 21
17.197318
 31
0.0
  0
LINE
  5
294
100
AcDbEntity
  8
0
390
0
  6
Continuous
 62
     1
100
AcDbLine
 10
232.528052
 20
17.197318
 30
0.0
 11
232.768701
 21
17.399147
 31
0.0
  0
LINE
  5
295
100
AcDbEntity
  8
0
390
0
  6
Continuous
 62
     1
100
AcDbLine
 10
232.768701
 20
17.399147
 30
0.0
 11
233.016738
 21
17.591831
 31
0.0
  0
LINE
  5
296
100
AcDbEntity
  8
0
390
0
  6
Continuous
 62
     1
100
AcDbLine
 10
233.271091
 20
17.7761
 30
0.0
 11
233.530934
 21
17.952546
 31
0.0
  0
LINE
  5
297
100
AcDbEntity
  8
0
390
0
  6
Continuous
 62
     1
100
AcDbLine
 10
233.530934
 20
17.952546
 30
0.0
 11
233.795612
 21
18.121653
 31
0.0
  0
LINE
  5
298
100
AcDbEntity
  8
0
390
0
  6
Continuous
 62
     1
100
AcDbLine
 10
233.795612
 20
18.121653
 30
0.0
 11
234.064567
 21
18.28388
 31
0.0
  0
LINE
  5
299
100
AcDbEntity
  8
0
390
0
  6
Continuous
 62
     1
100
AcDbLine
 10
234.064567
 20
18.28388
 30
0.0
 11
234.337446
 21
18.43941
 31
0.0
  0
LINE
  5
29A
100
AcDbEntity
  8
0
390
0
  6
Continuous
 62
     1
100
AcDbLine
 10
234.337446
 20
18.43941
 30
0.0
 11
234.377119
 21
18.461121
 31
0.0
  0
ARC
  5
29B
100
AcDbEntity
  8
0
390
0
  6
Continuous
 62
     1
100
AcDbCircle
 10
234.480432
 20
18.227246
 30
0.0
 40
0.255678
210
0.0
220
0.0
230
1.0
100
AcDbArc
 50
68.62417
 51
113.833094
  0
LINE
  5
29C
100
AcDbEntity
  8
0
390
0
  6
Continuous
 62
     1
100
AcDbLine
 10
238.590028
 20
14.603155
 30
0.0
 11
238.465514
 21
14.558251
 31
0.0
  0
LINE
  5
29D
100
AcDbEntity
  8
0
390
0
  6
Continuous
 62
     1
100
AcDbLine
 10
238.673945
 20
14.633849
 30
0.0
 11
238.590028
 21
14.603155
 31
0.0
  0
ARC
  5
29E
100
AcDbEntity
  8
0
390
0
  6
Continuous
 62
     1
100
AcDbCircle
 10
238.541473
 20
14.862021
 30
0.0
 40
0.26384
210
0.0
220
0.0
230
1.0
100
AcDbArc
 50
300.138399
 51
0.079984
  0
ARC
  5
29F
100
AcDbEntity
  8
0
390
0
  6
Continuous
 62
     1
100
AcDbCircle
 10
238.543268
 20
14.863892
 30
0.0
 40
0.26205
210
0.0
220
0.0
230
1.0
100
AcDbArc
 50
359.671456
 51
89.80429
  0
LINE
  5
2A0
100
AcDbEntity
  8
0
390
0
  6
Continuous
 62
     1
100
AcDbLine
 10
238.510471
 20
15.12354
 30
0.0
 11
238.544163
 21
15.12594
 31
0.0
  0
LINE
  5
2A1
100
AcDbEntity
  8
0
390
0
  6
Continuous
 62
     1
100
AcDbLine
 10
238.419549
 20
15.094005
 30
0.0
 11
238.510471
 21
15.12354
 31
0.0
  0
LINE
  5
2A2
100
AcDbEntity
  8
0
390
0
  6
Continuous
 62
     1
100
AcDbLine
 10
237.917947
 20
14.949259
 30
0.0
 11
238.419549
 21
15.094005
 31
0.0
  0
ARC
  5
2A3
100
AcDbEntity
  8
0
390
0
  6
Continuous
 62
     1
100
AcDbCircle
 10
235.718073
 20
23.163194
 30
0.0
 40
8.503421
210
0.0
220
0.0
230
1.0
100
AcDbArc
 50
269.179352
 51
284.993215
  0
ARC
  5
2A4
100
AcDbEntity
  8
0
390
0
  6
Continuous
 62
     1
100
AcDbCircle
 10
235.692533
 20
20.12602
 30
0.0
 40
5.466222
210
0.0
220
0.0
230
1.0
100
AcDbArc
 50
258.977281
 51
268.991063
  0
LINE
  5
2A5
100
AcDbEntity
  8
0
390
0
  6
Continuous
 62
     1
100
AcDbLine
 10
234.49314
 20
14.794761
 30
0.0
 11
234.647401
 21
14.760641
 31
0.0
  0
LINE
  5
2A6
100
AcDbEntity
  8
0
390
0
  6
Continuous
 62
     1
100
AcDbLine
 10
234.340371
 20
14.835029
 30
0.0
 11
234.49314
 21
14.794761
 31
0.0
  0
LINE
  5
2A7
100
AcDbEntity
  8
0
390
0
  6
Continuous
 62
     1
100
AcDbLine
 10
234.189547
 20
14.882055
 30
0.0
 11
234.340371
 21
14.835029
 31
0.0
  0
LINE
  5
2A8
100
AcDbEntity
  8
0
390
0
  6
Continuous
 62
     1
100
AcDbLine
 10
234.041267
 20
14.936564
 30
0.0
 11
234.189547
 21
14.882055
 31
0.0
  0
LINE
  5
2A9
100
AcDbEntity
  8
0
390
0
  6
Continuous
 62
     1
100
AcDbLine
 10
233.896326
 20
14.999404
 30
0.0
 11
234.041267
 21
14.936564
 31
0.0
  0
LINE
  5
2AA
100
AcDbEntity
  8
0
390
0
  6
Continuous
 62
     1
100
AcDbLine
 10
233.755796
 20
15.071554
 30
0.0
 11
233.896326
 21
14.999404
 31
0.0
  0
LINE
  5
2AB
100
AcDbEntity
  8
0
390
0
  6
Continuous
 62
     1
100
AcDbLine
 10
233.210666
 20
13.75435
 30
0.0
 11
232.950503
 21
13.792861
 31
0.0
  0
LINE
  5
2AC
100
AcDbEntity
  8
0
390
0
  6
Continuous
 62
     1
100
AcDbLine
 10
233.520689
 20
15.227033
 30
0.0
 11
233.621128
 21
15.154111
 31
0.0
  0
LINE
  5
2AD
100
AcDbEntity
  8
0
390
0
  6
Continuous
 62
     1
100
AcDbLine
 10
233.426302
 20
15.307623
 30
0.0
 11
233.520689
 21
15.227033
 31
0.0
  0
LINE
  5
2AE
100
AcDbEntity
  8
0
390
0
  6
Continuous
 62
     1
100
AcDbLine
 10
231.299417
 20
15.491088
 30
0.0
 11
231.337928
 21
15.626417
 31
0.0
  0
LINE
  5
2AF
100
AcDbEntity
  8
0
390
0
  6
Continuous
 62
     1
100
AcDbLine
 10
233.261958
 20
15.493198
 30
0.0
 11
233.339471
 21
15.396291
 31
0.0
  0
LINE
  5
2B0
100
AcDbEntity
  8
0
390
0
  6
Continuous
 62
     1
100
AcDbLine
 10
233.195673
 20
15.598092
 30
0.0
 11
233.261958
 21
15.493198
 31
0.0
  0
LINE
  5
2B1
100
AcDbEntity
  8
0
390
0
  6
Continuous
 62
     1
100
AcDbLine
 10
233.142459
 20
15.710175
 30
0.0
 11
233.195673
 21
15.598092
 31
0.0
  0
LINE
  5
2B2
100
AcDbEntity
  8
0
390
0
  6
Continuous
 62
     1
100
AcDbLine
 10
233.103722
 20
15.828045
 30
0.0
 11
233.142459
 21
15.710175
 31
0.0
  0
LINE
  5
2B3
100
AcDbEntity
  8
0
390
0
  6
Continuous
 62
     1
100
AcDbLine
 10
231.290633
 20
14.913436
 30
0.0
 11
231.270398
 21
15.022134
 31
0.0
  0
LINE
  5
2B4
100
AcDbEntity
  8
0
390
0
  6
Continuous
 62
     1
100
AcDbLine
 10
233.072356
 20
16.075261
 30
0.0
 11
233.080178
 21
15.950651
 31
0.0
  0
LINE
  5
2B5
100
AcDbEntity
  8
0
390
0
  6
Continuous
 62
     1
100
AcDbLine
 10
233.079601
 20
16.19991
 30
0.0
 11
233.072356
 21
16.075261
 31
0.0
  0
LINE
  5
2B6
100
AcDbEntity
  8
0
390
0
  6
Continuous
 62
     1
100
AcDbLine
 10
233.100683
 20
16.322986
 30
0.0
 11
233.079601
 21
16.19991
 31
0.0
  0
LINE
  5
2B7
100
AcDbEntity
  8
0
390
0
  6
Continuous
 62
     1
100
AcDbLine
 10
233.134023
 20
16.44333
 30
0.0
 11
233.100683
 21
16.322986
 31
0.0
  0
LINE
  5
2B8
100
AcDbEntity
  8
0
390
0
  6
Continuous
 62
     1
100
AcDbLine
 10
233.177974
 20
16.560225
 30
0.0
 11
233.134023
 21
16.44333
 31
0.0
  0
LINE
  5
2B9
100
AcDbEntity
  8
0
390
0
  6
Continuous
 62
     1
100
AcDbLine
 10
233.230998
 20
16.673301
 30
0.0
 11
233.177974
 21
16.560225
 31
0.0
  0
LINE
  5
2BA
100
AcDbEntity
  8
0
390
0
  6
Continuous
 62
     1
100
AcDbLine
 10
233.316276
 20
16.822332
 30
0.0
 11
233.230998
 21
16.673301
 31
0.0
  0
LINE
  5
2BB
100
AcDbEntity
  8
0
390
0
  6
Continuous
 62
     1
100
AcDbLine
 10
233.413307
 20
16.964009
 30
0.0
 11
233.316276
 21
16.822332
 31
0.0
  0
LINE
  5
2BC
100
AcDbEntity
  8
0
390
0
  6
Continuous
 62
     1
100
AcDbLine
 10
233.51986
 20
17.098681
 30
0.0
 11
233.413307
 21
16.964009
 31
0.0
  0
LINE
  5
2BD
100
AcDbEntity
  8
0
390
0
  6
Continuous
 62
     1
100
AcDbLine
 10
233.63423
 20
17.226789
 30
0.0
 11
233.51986
 21
17.098681
 31
0.0
  0
LINE
  5
2BE
100
AcDbEntity
  8
0
390
0
  6
Continuous
 62
     1
100
AcDbLine
 10
233.778775
 20
17.371366
 30
0.0
 11
233.63423
 21
17.226789
 31
0.0
  0
LINE
  5
2BF
100
AcDbEntity
  8
0
390
0
  6
Continuous
 62
     1
100
AcDbLine
 10
233.930865
 20
17.507992
 30
0.0
 11
233.778775
 21
17.371366
 31
0.0
  0
LINE
  5
2C0
100
AcDbEntity
  8
0
390
0
  6
Continuous
 62
     1
100
AcDbLine
 10
234.089234
 20
17.637294
 30
0.0
 11
233.930865
 21
17.507992
 31
0.0
  0
LINE
  5
2C1
100
AcDbEntity
  8
0
390
0
  6
Continuous
 62
     1
100
AcDbLine
 10
234.25291
 20
17.759813
 30
0.0
 11
234.089234
 21
17.637294
 31
0.0
  0
LINE
  5
2C2
100
AcDbEntity
  8
0
390
0
  6
Continuous
 62
     1
100
AcDbLine
 10
234.421132
 20
17.876017
 30
0.0
 11
234.25291
 21
17.759813
 31
0.0
  0
LINE
  5
2C3
100
AcDbEntity
  8
0
390
0
  6
Continuous
 62
     1
100
AcDbLine
 10
234.593321
 20
17.986256
 30
0.0
 11
234.421132
 21
17.876017
 31
0.0
  0
ARC
  5
2C4
100
AcDbEntity
  8
0
390
0
  6
Continuous
 62
     1
100
AcDbCircle
 10
234.478013
 20
18.221097
 30
0.0
 40
0.261656
210
0.0
220
0.0
230
0.9999999999999999
100
AcDbArc
 50
296.151344
 51
0.057322
  0
ARC
  5
2C5
100
AcDbEntity
  8
0
390
0
  6
Continuous
 62
     1
100
AcDbCircle
 10
234.47961
 20
18.222861
 30
0.0
 40
0.260062
210
0.0
220
0.0
230
1.0
100
AcDbArc
 50
359.669032
 51
68.807725
  0
LINE
  5
2C6
100
AcDbEntity
  8
0
390
0
  6
Continuous
 62
     1
100
AcDbLine
 10
234.260842
 20
13.708709
 30
0.0
 11
233.997839
 21
13.706355
 31
0.0
  0
ARC
  5
2C7
100
AcDbEntity
  8
0
390
0
  6
Continuous
 62
     1
100
AcDbCircle
 10
233.202395
 20
29.25227
 30
0.0
 40
15.608158
210
0.0
220
0.0
230
1.0
100
AcDbArc
 50
278.822509
 51
289.706559
  0
LINE
  5
2C8
100
AcDbEntity
  8
0
390
0
  6
Continuous
 62
     1
100
AcDbLine
 10
233.016738
 20
17.591831
 30
0.0
 11
233.271091
 21
17.7761
 31
0.0
  0
LINE
  5
2C9
100
AcDbEntity
  8
0
390
0
  6
Continuous
 62
     1
100
AcDbLine
 10
231.618286
 20
16.190417
 30
0.0
 11
231.738206
 21
16.362054
 31
0.0
  0
ARC
  5
2CA
100
AcDbEntity
  8
0
390
0
  6
Continuous
 62
     1
100
AcDbCircle
 10
233.912072
 20
24.970534
 30
0.0
 40
11.268325
210
0.0
220
0.0
230
1.0
100
AcDbArc
 50
273.111263
 51
278.595873
  0
LINE
  5
2CB
100
AcDbEntity
  8
0
390
0
  6
Continuous
 62
     1
100
AcDbLine
 10
233.080178
 20
15.950651
 30
0.0
 11
233.103722
 21
15.828045
 31
0.0
  0
LINE
  5
2CC
100
AcDbEntity
  8
0
390
0
  6
Continuous
 62
     1
100
AcDbLine
 10
232.435218
 20
13.916359
 30
0.0
 11
232.268274
 21
13.974365
 31
0.0
  0
LINE
  5
2CD
100
AcDbEntity
  8
0
390
0
  6
Continuous
 62
     1
100
AcDbLine
 10
233.339471
 20
15.396291
 30
0.0
 11
233.426302
 21
15.307623
 31
0.0
  0
LINE
  5
2CE
100
AcDbEntity
  8
0
390
0
  6
Continuous
 62
     1
100
AcDbLine
 10
233.621128
 20
15.154111
 30
0.0
 11
233.755796
 21
15.071554
 31
0.0
  0
LINE
  5
2CF
100
AcDbEntity
  8
0
390
0
  6
Continuous
 62
     1
100
AcDbLine
 10
231.444534
 20
15.886688
 30
0.0
 11
231.509725
 21
16.011388
 31
0.0
  0
ENDBLK
  5
2D0
100
AcDbEntity
  8
0
390
0
100
AcDbBlockEnd
  0
BLOCK
  5
408
100
AcDbEntity
  8
0
390
0
100
AcDbBlockBegin
  2
*D12
 70
     1
 10
0.0
 20
0.0
 30
0.0
  3
DI12
  1

  0
MTEXT
  5
409
100
AcDbEntity
  8
0
390
0
 62
     7
100
AcDbMText
 10
184.774936
 20
129.06602
 30
0.0
 40
3.5
 41
90.840909
 71
     7
 72
     1
  1
\A1;%%c15.0H8\S+0.027^   0;
210
0.0
220
0.0
230
1.0
 11
0.0
 21
1.0
 31
0.0
 73
     1
 44
1.0
  0
MTEXT
  5
40A
100
AcDbEntity
  8
0
390
0
 62
     7
100
AcDbMText
 10
184.774936
 20
136.734202
 30
0.0
 40
3.5
 41
8.336364
 71
     7
 72
     1
  1
H8
210
0.0
220
0.0
230
1.0
 11
0.0
 21
1.0
 31
0.0
 73
     1
 44
1.0
  0
LINE
  5
40B
100
AcDbEntity
  8
0
390
0
  6
Continuous
 62
     7
100
AcDbLine
 10
186.843118
 20
129.910338
 30
0.0
 11
186.843118
 21
144.910338
 31
0.0
  0
LINE
  5
40C
100
AcDbEntity
  8
0
390
0
  6
Continuous
 62
     7
100
AcDbLine
 10
172.128588
 20
129.910338
 30
0.0
 11
187.893118
 21
129.910338
 31
0.0
  0
LINE
  5
40D
100
AcDbEntity
  8
0
390
0
  6
Continuous
 62
     7
100
AcDbLine
 10
172.128588
 20
144.910338
 30
0.0
 11
187.893118
 21
144.910338
 31
0.0
  0
POLYLINE
  5
40E
100
AcDbEntity
  8
0
390
0
  6
Continuous
 62
     7
100
AcDb2dPolyline
 66
     1
 10
0.0
 20
0.0
 30
0.0
 40
0.1
 41
0.1
  0
VERTEX
  5
40F
100
AcDbEntity
  8
0
390
0
 62
     7
100
AcDbVertex
100
AcDb2dVertex
 10
187.368118
 20
132.535338
 30
0.0
  0
VERTEX
  5
410
100
AcDbEntity
  8
0
390
0
 62
     7
100
AcDbVertex
100
AcDb2dVertex
 10
186.843118
 20
129.910338
 30
0.0
  0
VERTEX
  5
411
100
AcDbEntity
  8
0
390
0
 62
     7
100
AcDbVertex
100
AcDb2dVertex
 10
186.318118
 20
132.535338
 30
0.0
  0
SEQEND
  5
412
100
AcDbEntity
  8
0
390
0
  0
POLYLINE
  5
413
100
AcDbEntity
  8
0
390
0
  6
Continuous
 62
     7
100
AcDb2dPolyline
 66
     1
 10
0.0
 20
0.0
 30
0.0
 40
0.1
 41
0.1
  0
VERTEX
  5
414
100
AcDbEntity
  8
0
390
0
 62
     7
100
AcDbVertex
100
AcDb2dVertex
 10
186.318118
 20
142.285338
 30
0.0
  0
VERTEX
  5
415
100
AcDbEntity
  8
0
390
0
 62
     7
100
AcDbVertex
100
AcDb2dVertex
 10
186.843118
 20
144.910338
 30
0.0
  0
VERTEX
  5
416
100
AcDbEntity
  8
0
390
0
 62
     7
100
AcDbVertex
100
AcDb2dVertex
 10
187.368118
 20
142.285338
 30
0.0
  0
SEQEND
  5
417
100
AcDbEntity
  8
0
390
0
  0
ENDBLK
  5
418
100
AcDbEntity
  8
0
390
0
100
AcDbBlockEnd
  0
BLOCK
  5
41B
100
AcDbEntity
  8
0
390
0
100
AcDbBlockBegin
  2
*D13
 70
     1
 10
0.0
 20
0.0
 30
0.0
  3
DI13
  1

  0
MTEXT
  5
41C
100
AcDbEntity
  8
0
390
0
 62
     7
100
AcDbMText
 10
192.516881
 20
135.954657
 30
0.0
 40
3.5
 41
36.622727
 71
     7
 72
     1
  1
\A1;%%c35.0
210
0.0
220
0.0
230
1.0
 11
0.0
 21
1.0
 31
0.0
 73
     1
 44
1.0
  0
LINE
  5
41D
100
AcDbEntity
  8
0
390
0
  6
Continuous
 62
     7
100
AcDbLine
 10
194.250972
 20
119.910338
 30
0.0
 11
194.250972
 21
154.910338
 31
0.0
  0
LINE
  5
41E
100
AcDbEntity
  8
0
390
0
  6
Continuous
 62
     7
100
AcDbLine
 10
172.128588
 20
119.910338
 30
0.0
 11
195.300972
 21
119.910338
 31
0.0
  0
LINE
  5
41F
100
AcDbEntity
  8
0
390
0
  6
Continuous
 62
     7
100
AcDbLine
 10
172.128588
 20
154.910338
 30
0.0
 11
195.300972
 21
154.910338
 31
0.0
  0
POLYLINE
  5
420
100
AcDbEntity
  8
0
390
0
  6
Continuous
 62
     7
100
AcDb2dPolyline
 66
     1
 10
0.0
 20
0.0
 30
0.0
 40
0.1
 41
0.1
  0
VERTEX
  5
421
100
AcDbEntity
  8
0
390
0
 62
     7
100
AcDbVertex
100
AcDb2dVertex
 10
194.775972
 20
122.535338
 30
0.0
  0
VERTEX
  5
422
100
AcDbEntity
  8
0
390
0
 62
     7
100
AcDbVertex
100
AcDb2dVertex
 10
194.250972
 20
119.910338
 30
0.0
  0
VERTEX
  5
423
100
AcDbEntity
  8
0
390
0
 62
     7
100
AcDbVertex
100
AcDb2dVertex
 10
193.725972
 20
122.535338
 30
0.0
  0
SEQEND
  5
424
100
AcDbEntity
  8
0
390
0
  0
POLYLINE
  5
425
100
AcDbEntity
  8
0
390
0
  6
Continuous
 62
     7
100
AcDb2dPolyline
 66
     1
 10
0.0
 20
0.0
 30
0.0
 40
0.1
 41
0.1
  0
VERTEX
  5
426
100
AcDbEntity
  8
0
390
0
 62
     7
100
AcDbVertex
100
AcDb2dVertex
 10
193.725972
 20
152.285338
 30
0.0
  0
VERTEX
  5
427
100
AcDbEntity
  8
0
390
0
 62
     7
100
AcDbVertex
100
AcDb2dVertex
 10
194.250972
 20
154.910338
 30
0.0
  0
VERTEX
  5
428
100
AcDbEntity
  8
0
390
0
 62
     7
100
AcDbVertex
100
AcDb2dVertex
 10
194.775972
 20
152.285338
 30
0.0
  0
SEQEND
  5
429
100
AcDbEntity
  8
0
390
0
  0
ENDBLK
  5
42A
100
AcDbEntity
  8
0
390
0
100
AcDbBlockEnd
  0
BLOCK
  5
42D
100
AcDbEntity
  8
0
390
0
100
AcDbBlockBegin
  2
*D14
 70
     1
 10
0.0
 20
0.0
 30
0.0
  3
DI14
  1

  0
MTEXT
  5
42E
100
AcDbEntity
  8
0
390
0
 62
     7
100
AcDbMText
 10
151.578588
 20
176.361529
 30
0.0
 40
3.5
 41
28.477273
 71
     7
 72
     1
  1
\A1;32.0
210
0.0
220
0.0
230
1.0
 73
     1
 44
1.0
  0
LINE
  5
42F
100
AcDbEntity
  8
0
390
0
  6
Continuous
 62
     7
100
AcDbLine
 10
139.078588
 20
174.627438
 30
0.0
 11
171.078588
 21
174.627438
 31
0.0
  0
LINE
  5
430
100
AcDbEntity
  8
0
390
0
  6
Continuous
 62
     7
100
AcDbLine
 10
139.078588
 20
153.110338
 30
0.0
 11
139.078588
 21
175.677438
 31
0.0
  0
LINE
  5
431
100
AcDbEntity
  8
0
390
0
  6
Continuous
 62
     7
100
AcDbLine
 10
171.078588
 20
155.960338
 30
0.0
 11
171.078588
 21
175.677438
 31
0.0
  0
POLYLINE
  5
432
100
AcDbEntity
  8
0
390
0
  6
Continuous
 62
     7
100
AcDb2dPolyline
 66
     1
 10
0.0
 20
0.0
 30
0.0
 40
0.1
 41
0.1
  0
VERTEX
  5
433
100
AcDbEntity
  8
0
390
0
 62
     7
100
AcDbVertex
100
AcDb2dVertex
 10
141.703588
 20
174.102438
 30
0.0
  0
VERTEX
  5
434
100
AcDbEntity
  8
0
390
0
 62
     7
100
AcDbVertex
100
AcDb2dVertex
 10
139.078588
 20
174.627438
 30
0.0
  0
VERTEX
  5
435
100
AcDbEntity
  8
0
390
0
 62
     7
100
AcDbVertex
100
AcDb2dVertex
 10
141.703588
 20
175.152438
 30
0.0
  0
SEQEND
  5
436
100
AcDbEntity
  8
0
390
0
  0
POLYLINE
  5
437
100
AcDbEntity
  8
0
390
0
  6
Continuous
 62
     7
100
AcDb2dPolyline
 66
     1
 10
0.0
 20
0.0
 30
0.0
 40
0.1
 41
0.1
  0
VERTEX
  5
438
100
AcDbEntity
  8
0
390
0
 62
     7
100
AcDbVertex
100
AcDb2dVertex
 10
168.453588
 20
175.152438
 30
0.0
  0
VERTEX
  5
439
100
AcDbEntity
  8
0
390
0
 62
     7
100
AcDbVertex
100
AcDb2dVertex
 10
171.078588
 20
174.627438
 30
0.0
  0
VERTEX
  5
43A
100
AcDbEntity
  8
0
390
0
 62
     7
100
AcDbVertex
100
AcDb2dVertex
 10
168.453588
 20
174.102438
 30
0.0
  0
SEQEND
  5
43B
100
AcDbEntity
  8
0
390
0
  0
ENDBLK
  5
43C
100
AcDbEntity
  8
0
390
0
100
AcDbBlockEnd
  0
BLOCK
  5
43F
100
AcDbEntity
  8
0
390
0
100
AcDbBlockBegin
  2
*D15
 70
     1
 10
0.0
 20
0.0
 30
0.0
  3
DI15
  1

  0
MTEXT
  5
440
100
AcDbEntity
  8
0
390
0
 62
     7
100
AcDbMText
 10
156.578588
 20
162.189807
 30
0.0
 40
3.5
 41
28.477273
 71
     7
 72
     1
  1
\A1;22.0
210
0.0
220
0.0
230
1.0
 73
     1
 44
1.0
  0
LINE
  5
441
100
AcDbEntity
  8
0
390
0
  6
Continuous
 62
     7
100
AcDbLine
 10
149.078588
 20
160.471625
 30
0.0
 11
171.078588
 21
160.471625
 31
0.0
  0
LINE
  5
442
100
AcDbEntity
  8
0
390
0
  6
Continuous
 62
     7
100
AcDbLine
 10
149.078588
 20
155.960338
 30
0.0
 11
149.078588
 21
161.521625
 31
0.0
  0
LINE
  5
443
100
AcDbEntity
  8
0
390
0
  6
Continuous
 62
     7
100
AcDbLine
 10
171.078588
 20
155.960338
 30
0.0
 11
171.078588
 21
161.521625
 31
0.0
  0
POLYLINE
  5
444
100
AcDbEntity
  8
0
390
0
  6
Continuous
 62
     7
100
AcDb2dPolyline
 66
     1
 10
0.0
 20
0.0
 30
0.0
 40
0.1
 41
0.1
  0
VERTEX
  5
445
100
AcDbEntity
  8
0
390
0
 62
     7
100
AcDbVertex
100
AcDb2dVertex
 10
151.703588
 20
159.946625
 30
0.0
  0
VERTEX
  5
446
100
AcDbEntity
  8
0
390
0
 62
     7
100
AcDbVertex
100
AcDb2dVertex
 10
149.078588
 20
160.471625
 30
0.0
  0
VERTEX
  5
447
100
AcDbEntity
  8
0
390
0
 62
     7
100
AcDbVertex
100
AcDb2dVertex
 10
151.703588
 20
160.996625
 30
0.0
  0
SEQEND
  5
448
100
AcDbEntity
  8
0
390
0
  0
POLYLINE
  5
449
100
AcDbEntity
  8
0
390
0
  6
Continuous
 62
     7
100
AcDb2dPolyline
 66
     1
 10
0.0
 20
0.0
 30
0.0
 40
0.1
 41
0.1
  0
VERTEX
  5
44A
100
AcDbEntity
  8
0
390
0
 62
     7
100
AcDbVertex
100
AcDb2dVertex
 10
168.453588
 20
160.996625
 30
0.0
  0
VERTEX
  5
44B
100
AcDbEntity
  8
0
390
0
 62
     7
100
AcDbVertex
100
AcDb2dVertex
 10
171.078588
 20
160.471625
 30
0.0
  0
VERTEX
  5
44C
100
AcDbEntity
  8
0
390
0
 62
     7
100
AcDbVertex
100
AcDb2dVertex
 10
168.453588
 20
159.946625
 30
0.0
  0
SEQEND
  5
44D
100
AcDbEntity
  8
0
390
0
  0
ENDBLK
  5
44E
100
AcDbEntity
  8
0
390
0
100
AcDbBlockEnd
  0
BLOCK
  5
452
100
AcDbEntity
  8
0
390
0
100
AcDbBlockBegin
  2
*D16
 70
     1
 10
0.0
 20
0.0
 30
0.0
  3
DI16
  1

  0
MTEXT
  5
453
100
AcDbEntity
  8
0
390
0
 62
     7
100
AcDbMText
 10
154.078588
 20
169.74667
 30
0.0
 40
3.5
 41
28.477273
 71
     7
 72
     1
  1
\A1;27.0
210
0.0
220
0.0
230
1.0
 73
     1
 44
1.0
  0
LINE
  5
454
100
AcDbEntity
  8
0
390
0
  6
Continuous
 62
     7
100
AcDbLine
 10
171.078588
 20
168.028488
 30
0.0
 11
144.078588
 21
168.028488
 31
0.0
  0
LINE
  5
455
100
AcDbEntity
  8
0
390
0
  6
Continuous
 62
     7
100
AcDbLine
 10
171.078588
 20
155.960338
 30
0.0
 11
171.078588
 21
169.078488
 31
0.0
  0
LINE
  5
456
100
AcDbEntity
  8
0
390
0
  6
Continuous
 62
     7
100
AcDbLine
 10
144.078588
 20
155.110338
 30
0.0
 11
144.078588
 21
169.078488
 31
0.0
  0
POLYLINE
  5
457
100
AcDbEntity
  8
0
390
0
  6
Continuous
 62
     7
100
AcDb2dPolyline
 66
     1
 10
0.0
 20
0.0
 30
0.0
 40
0.1
 41
0.1
  0
VERTEX
  5
458
100
AcDbEntity
  8
0
390
0
 62
     7
100
AcDbVertex
100
AcDb2dVertex
 10
168.453588
 20
168.553488
 30
0.0
  0
VERTEX
  5
459
100
AcDbEntity
  8
0
390
0
 62
     7
100
AcDbVertex
100
AcDb2dVertex
 10
171.078588
 20
168.028488
 30
0.0
  0
VERTEX
  5
45A
100
AcDbEntity
  8
0
390
0
 62
     7
100
AcDbVertex
100
AcDb2dVertex
 10
168.453588
 20
167.503488
 30
0.0
  0
SEQEND
  5
45B
100
AcDbEntity
  8
0
390
0
  0
POLYLINE
  5
45C
100
AcDbEntity
  8
0
390
0
  6
Continuous
 62
     7
100
AcDb2dPolyline
 66
     1
 10
0.0
 20
0.0
 30
0.0
 40
0.1
 41
0.1
  0
VERTEX
  5
45D
100
AcDbEntity
  8
0
390
0
 62
     7
100
AcDbVertex
100
AcDb2dVertex
 10
146.703588
 20
167.503488
 30
0.0
  0
VERTEX
  5
45E
100
AcDbEntity
  8
0
390
0
 62
     7
100
AcDbVertex
100
AcDb2dVertex
 10
144.078588
 20
168.028488
 30
0.0
  0
VERTEX
  5
45F
100
AcDbEntity
  8
0
390
0
 62
     7
100
AcDbVertex
100
AcDb2dVertex
 10
146.703588
 20
168.553488
 30
0.0
  0
SEQEND
  5
460
100
AcDbEntity
  8
0
390
0
  0
ENDBLK
  5
461
100
AcDbEntity
  8
0
390
0
100
AcDbBlockEnd
  0
BLOCK
  5
464
100
AcDbEntity
  8
0
390
0
100
AcDbBlockBegin
  2
*D17
 70
     1
 10
0.0
 20
0.0
 30
0.0
  3
DI17
  1

  0
MTEXT
  5
465
100
AcDbEntity
  8
0
390
0
 62
     7
100
AcDbMText
 10
31.704914
 20
153.464833
 30
0.0
 40
3.5
 41
28.445455
 71
     7
 72
     1
  1
\A1;90%%d
210
0.0
220
0.0
230
1.0
 11
0.707107
 21
0.707107
 31
0.0
 73
     1
 44
1.0
  0
ARC
  5
466
100
AcDbEntity
  8
0
390
0
  6
Continuous
 62
     7
100
AcDbCircle
 10
51.66296
 20
137.410338
 30
0.0
 40
23.730621
210
0.0
220
0.0
230
1.0
100
AcDbArc
 50
90.0
 51
180.0
  0
LINE
  5
467
100
AcDbEntity
  8
0
390
0
  6
Continuous
 62
     7
100
AcDbLine
 10
31.11296
 20
137.410338
 30
0.0
 11
26.882339
 21
137.410338
 31
0.0
  0
LINE
  5
468
100
AcDbEntity
  8
0
390
0
  6
Continuous
 62
     7
100
AcDbLine
 10
51.66296
 20
157.960338
 30
0.0
 11
51.66296
 21
162.190959
 31
0.0
  0
POLYLINE
  5
469
100
AcDbEntity
  8
0
390
0
  6
Continuous
 62
     7
100
AcDb2dPolyline
 66
     1
 10
0.0
 20
0.0
 30
0.0
 40
0.1
 41
0.1
  0
VERTEX
  5
46A
100
AcDbEntity
  8
0
390
0
 62
     7
100
AcDbVertex
100
AcDb2dVertex
 10
28.457339
 20
140.035338
 30
0.0
  0
VERTEX
  5
46B
100
AcDbEntity
  8
0
390
0
 62
     7
100
AcDbVertex
100
AcDb2dVertex
 10
27.932339
 20
137.410338
 30
0.0
  0
VERTEX
  5
46C
100
AcDbEntity
  8
0
390
0
 62
     7
100
AcDbVertex
100
AcDb2dVertex
 10
27.407339
 20
140.035338
 30
0.0
  0
SEQEND
  5
46D
100
AcDbEntity
  8
0
390
0
  0
POLYLINE
  5
46E
100
AcDbEntity
  8
0
390
0
  6
Continuous
 62
     7
100
AcDb2dPolyline
 66
     1
 10
0.0
 20
0.0
 30
0.0
 40
0.1
 41
0.1
  0
VERTEX
  5
46F
100
AcDbEntity
  8
0
390
0
 62
     7
100
AcDbVertex
100
AcDb2dVertex
 10
49.03796
 20
161.665959
 30
0.0
  0
VERTEX
  5
470
100
AcDbEntity
  8
0
390
0
 62
     7
100
AcDbVertex
100
AcDb2dVertex
 10
51.66296
 20
161.140959
 30
0.0
  0
VERTEX
  5
471
100
AcDbEntity
  8
0
390
0
 62
     7
100
AcDbVertex
100
AcDb2dVertex
 10
49.03796
 20
160.615959
 30
0.0
  0
SEQEND
  5
472
100
AcDbEntity
  8
0
390
0
  0
ENDBLK
  5
473
100
AcDbEntity
  8
0
390
0
100
AcDbBlockEnd
  0
BLOCK
  5
49A
100
AcDbEntity
  8
0
390
0
100
AcDbBlockBegin
  2
AID1975
 70
     0
 10
0.0
 20
0.0
 30
0.0
  3
DNote#note referencing elements
  1

  0
MTEXT
  5
49B
100
AcDbEntity
  8
0
390
0
 62
     7
100
AcDbMText
 10
191.928405
 20
91.157591
 30
0.0
 40
3.5
 41
28.572727
 71
     7
 72
     1
  1
1-1221C
210
0.0
220
0.0
230
1.0
 73
     1
 44
1.0
  0
MTEXT
  5
49C
100
AcDbEntity
  8
0
390
0
 62
     7
100
AcDbMText
 10
191.928405
 20
85.907591
 30
0.0
 40
3.5
 41
69.459091
 71
     7
 72
     1
  1
　MC35-08　2ヶ1セット
210
0.0
220
0.0
230
1.0
 73
     1
 44
1.0
  0
LINE
  5
49D
100
AcDbEntity
  8
0
390
0
  6
Continuous
 62
     2
100
AcDbLine
 10
192.35795
 20
84.58941
 30
0.0
 11
229.648859
 21
84.58941
 31
0.0
  0
HATCH
  5
49E
100
AcDbEntity
  8
0
390
0
 62
     2
100
AcDbHatch
 10
165.94034162899391
 20
90.705856952569803
 30
0.0
210
0.0
220
0.0
230
1.0
  2
SOLID
 70
     1
 71
     0
 91
        1
 92
        1
 93
       72
 72
     1
 10
165.08789149310141
 20
90.903224036494265
 11
165.07393364843682
 21
90.828177070404138
 72
     1
 10
165.07393364843682
 20
90.828177070404138
 11
165.06656969165573
 21
90.752199174358381
 72
     1
 10
165.06656969165573
 20
90.752199174358381
 11
165.06585566691572
 21
90.675868586022602
 72
     1
 10
165.06585566691572
 20
90.675868586022602
 11
165.07179700837617
 21
90.599766227263714
 72
     1
 10
165.07179700837617
 20
90.599766227263714
 11
165.08434849884108
 21
90.524471282983754
 72
     1
 10
165.08434849884108
 20
90.524471282983754
 11
165.10341461388924
 21
90.450556793173007
 72
     1
 10
165.10341461388924
 20
90.450556793173007
 11
165.12885024887271
 21
90.378585291729706
 72
     1
 10
165.12885024887271
 20
90.378585291729706
 11
165.16046182325081
 21
90.309104525237444
 72
     1
 10
165.16046182325081
 20
90.309104525237444
 11
165.19800875385491
 21
90.242643284282835
 72
     1
 10
165.19800875385491
 20
90.242643284282835
 11
165.24120528587164
 21
90.179707379039954
 72
     1
 10
165.24120528587164
 20
90.179707379039954
 11
165.28972266760962
 21
90.12077578974943
 72
     1
 10
165.28972266760962
 20
90.12077578974943
 11
165.34319165249821
 21
90.066297021389644
 72
     1
 10
165.34319165249821
 20
90.066297021389644
 11
165.40120530927695
 21
90.016685690282969
 72
     1
 10
165.40120530927695
 20
90.016685690282969
 11
165.46332211898809
 21
89.972319368615302
 72
     1
 10
165.46332211898809
 20
89.972319368615302
 11
165.52906933520268
 21
89.933535710883618
 72
     1
 10
165.52906933520268
 20
89.933535710883618
 11
165.59794658190603
 21
89.90062988414148
 72
     1
 10
165.59794658190603
 20
89.90062988414148
 11
165.66942966166147
 21
89.873852321599486
 72
     1
 10
165.66942966166147
 20
89.873852321599486
 11
165.74297454506942
 21
89.853406816677293
 72
     1
 10
165.74297454506942
 20
89.853406816677293
 11
165.81802151115957
 21
89.839448972012718
 72
     1
 10
165.81802151115957
 20
89.839448972012718
 11
165.89399940720534
 21
89.832085015231641
 72
     1
 10
165.89399940720534
 20
89.832085015231641
 11
165.97032999554114
 21
89.831370990491592
 72
     1
 10
165.97032999554114
 20
89.831370990491592
 11
166.04643235429998
 21
89.837312331952049
 72
     1
 10
166.04643235429998
 20
89.837312331952049
 11
166.12172729857994
 21
89.849863822416978
 72
     1
 10
166.12172729857994
 20
89.849863822416978
 11
166.19564178839073
 21
89.868929937465168
 72
     1
 10
166.19564178839073
 20
89.868929937465168
 11
166.267613289834
 21
89.894365572448635
 72
     1
 10
166.267613289834
 20
89.894365572448635
 11
166.33709405632626
 21
89.925977146826725
 72
     1
 10
166.33709405632626
 20
89.925977146826725
 11
166.40355529728089
 21
89.963524077430804
 72
     1
 10
166.40355529728089
 20
89.963524077430804
 11
166.46649120252374
 21
90.006720609447555
 72
     1
 10
166.46649120252374
 20
90.006720609447555
 11
166.52542279181429
 21
90.055237991185535
 72
     1
 10
166.52542279181429
 20
90.055237991185535
 11
166.57990156017408
 21
90.108706976074103
 72
     1
 10
166.57990156017408
 20
90.108706976074103
 11
166.62951289128074
 21
90.166720632852815
 72
     1
 10
166.62951289128074
 20
90.166720632852815
 11
166.67387921294841
 21
90.228837442564
 72
     1
 10
166.67387921294841
 20
90.228837442564
 11
166.71266287068011
 21
90.294584658778589
 72
     1
 10
166.71266287068011
 20
90.294584658778589
 11
166.74556869742224
 21
90.363461905481898
 72
     1
 10
166.74556869742224
 20
90.363461905481898
 11
166.77234625996422
 21
90.434944985237351
 72
     1
 10
166.77234625996422
 20
90.434944985237351
 11
166.7927917648864
 21
90.508489868645327
 72
     1
 10
166.7927917648864
 20
90.508489868645327
 11
166.80674960955099
 21
90.583536834735469
 72
     1
 10
166.80674960955099
 20
90.583536834735469
 11
166.81411356633208
 21
90.659514730781225
 72
     1
 10
166.81411356633208
 20
90.659514730781225
 11
166.81482759107209
 21
90.735845319117004
 72
     1
 10
166.81482759107209
 20
90.735845319117004
 11
166.80888624961165
 21
90.811947677875878
 72
     1
 10
166.80888624961165
 20
90.811947677875878
 11
166.79633475914673
 21
90.887242622155853
 72
     1
 10
166.79633475914673
 20
90.887242622155853
 11
166.77726864409857
 21
90.9611571119666
 72
     1
 10
166.77726864409857
 20
90.9611571119666
 11
166.75183300911507
 21
91.0331286134099
 72
     1
 10
166.75183300911507
 20
91.0331286134099
 11
166.720221434737
 21
91.102609379902162
 72
     1
 10
166.720221434737
 20
91.102609379902162
 11
166.6826745041329
 21
91.169070620856772
 72
     1
 10
166.6826745041329
 20
91.169070620856772
 11
166.63947797211617
 21
91.232006526099653
 72
     1
 10
166.63947797211617
 20
91.232006526099653
 11
166.59096059037816
 21
91.290938115390176
 72
     1
 10
166.59096059037816
 20
91.290938115390176
 11
166.53749160548961
 21
91.345416883749962
 72
     1
 10
166.53749160548961
 20
91.345416883749962
 11
166.47947794871087
 21
91.395028214856637
 72
     1
 10
166.47947794871087
 20
91.395028214856637
 11
166.41736113899972
 21
91.439394536524304
 72
     1
 10
166.41736113899972
 20
91.439394536524304
 11
166.35161392278513
 21
91.478178194255989
 72
     1
 10
166.35161392278513
 20
91.478178194255989
 11
166.28273667608178
 21
91.511084020998126
 72
     1
 10
166.28273667608178
 20
91.511084020998126
 11
166.21125359632634
 21
91.537861583540121
 72
     1
 10
166.21125359632634
 20
91.537861583540121
 11
166.1377087129184
 21
91.558307088462314
 72
     1
 10
166.1377087129184
 20
91.558307088462314
 11
166.06266174682824
 21
91.572264933126888
 72
     1
 10
166.06266174682824
 20
91.572264933126888
 11
165.98668385078247
 21
91.579628889907966
 72
     1
 10
165.98668385078247
 20
91.579628889907966
 11
165.91035326244668
 21
91.580342914648
 72
     1
 10
165.91035326244668
 20
91.580342914648
 11
165.83425090368783
 21
91.574401573187558
 72
     1
 10
165.83425090368783
 20
91.574401573187558
 11
165.75895595940787
 21
91.561850082722614
 72
     1
 10
165.75895595940787
 20
91.561850082722614
 11
165.68504146959708
 21
91.542783967674438
 72
     1
 10
165.68504146959708
 20
91.542783967674438
 11
165.61306996815381
 21
91.517348332690972
 72
     1
 10
165.61306996815381
 20
91.517348332690972
 11
165.54358920166155
 21
91.485736758312882
 72
     1
 10
165.54358920166155
 20
91.485736758312882
 11
165.47712796070692
 21
91.448189827708802
 72
     1
 10
165.47712796070692
 20
91.448189827708802
 11
165.41419205546407
 21
91.404993295692037
 72
     1
 10
165.41419205546407
 20
91.404993295692037
 11
165.35526046617352
 21
91.356475913954071
 72
     1
 10
165.35526046617352
 20
91.356475913954071
 11
165.30078169781373
 21
91.303006929065504
 72
     1
 10
165.30078169781373
 20
91.303006929065504
 11
165.25117036670704
 21
91.244993272286791
 72
     1
 10
165.25117036670704
 20
91.244993272286791
 11
165.20680404503941
 21
91.182876462575592
 72
     1
 10
165.20680404503941
 20
91.182876462575592
 11
165.16802038730771
 21
91.117129246361017
 72
     1
 10
165.16802038730771
 20
91.117129246361017
 11
165.13511456056557
 21
91.048251999657694
 72
     1
 10
165.13511456056557
 20
91.048251999657694
 11
165.10833699802359
 21
90.976768919902256
 72
     1
 10
165.10833699802359
 20
90.976768919902256
 11
165.08789149310141
 21
90.903224036494265
 97
        0
 75
     0
 76
     1
 98
        1
 10
0.0
 20
0.0
  0
LINE
  5
49F
100
AcDbEntity
  8
0
390
0
  6
Continuous
 62
    11
100
AcDbLine
 10
165.940342
 20
90.705857
 30
0.0
 11
192.35795
 21
84.58941
 31
0.0
  0
ENDBLK
  5
4A0
100
AcDbEntity
  8
0
390
0
100
AcDbBlockEnd
  0
BLOCK
  5
59F
100
AcDbEntity
  8
0
390
0
100
AcDbBlockBegin
  2
*D19
 70
     1
 10
0.0
 20
0.0
 30
0.0
  3
DI19
  1

  0
MTEXT
  5
5A0
100
AcDbEntity
  8
0
390
0
 62
     7
100
AcDbMText
 10
131.464102
 20
135.986475
 30
0.0
 40
3.5
 41
36.495455
 71
     7
 72
     1
  1
\A1;%%c29.3
210
0.0
220
0.0
230
1.0
 11
0.0
 21
1.0
 31
0.0
 73
     1
 44
1.0
  0
LINE
  5
5A1
100
AcDbEntity
  8
0
390
0
  6
Continuous
 62
     7
100
AcDbLine
 10
133.198193
 20
152.060338
 30
0.0
 11
133.198193
 21
122.760338
 31
0.0
  0
LINE
  5
5A2
100
AcDbEntity
  8
0
390
0
  6
Continuous
 62
     7
100
AcDbLine
 10
138.028588
 20
152.060338
 30
0.0
 11
132.148193
 21
152.060338
 31
0.0
  0
LINE
  5
5A3
100
AcDbEntity
  8
0
390
0
  6
Continuous
 62
     7
100
AcDbLine
 10
138.028588
 20
122.760338
 30
0.0
 11
132.148193
 21
122.760338
 31
0.0
  0
POLYLINE
  5
5A4
100
AcDbEntity
  8
0
390
0
  6
Continuous
 62
     7
100
AcDb2dPolyline
 66
     1
 10
0.0
 20
0.0
 30
0.0
 40
0.1
 41
0.1
  0
VERTEX
  5
5A5
100
AcDbEntity
  8
0
390
0
 62
     7
100
AcDbVertex
100
AcDb2dVertex
 10
132.673193
 20
149.435338
 30
0.0
  0
VERTEX
  5
5A6
100
AcDbEntity
  8
0
390
0
 62
     7
100
AcDbVertex
100
AcDb2dVertex
 10
133.198193
 20
152.060338
 30
0.0
  0
VERTEX
  5
5A7
100
AcDbEntity
  8
0
390
0
 62
     7
100
AcDbVertex
100
AcDb2dVertex
 10
133.723193
 20
149.435338
 30
0.0
  0
SEQEND
  5
5A8
100
AcDbEntity
  8
0
390
0
  0
POLYLINE
  5
5A9
100
AcDbEntity
  8
0
390
0
  6
Continuous
 62
     7
100
AcDb2dPolyline
 66
     1
 10
0.0
 20
0.0
 30
0.0
 40
0.1
 41
0.1
  0
VERTEX
  5
5AA
100
AcDbEntity
  8
0
390
0
 62
     7
100
AcDbVertex
100
AcDb2dVertex
 10
133.723193
 20
125.385338
 30
0.0
  0
VERTEX
  5
5AB
100
AcDbEntity
  8
0
390
0
 62
     7
100
AcDbVertex
100
AcDb2dVertex
 10
133.198193
 20
122.760338
 30
0.0
  0
VERTEX
  5
5AC
100
AcDbEntity
  8
0
390
0
 62
     7
100
AcDbVertex
100
AcDb2dVertex
 10
132.673193
 20
125.385338
 30
0.0
  0
SEQEND
  5
5AD
100
AcDbEntity
  8
0
390
0
  0
ENDBLK
  5
5AE
100
AcDbEntity
  8
0
390
0
100
AcDbBlockEnd
  0
BLOCK
  5
5B0
100
AcDbEntity
  8
0
390
0
100
AcDbBlockBegin
  2
AID2189
 70
     0
 10
0.0
 20
0.0
 30
0.0
  3
DNote#note referencing elements
  1

  0
MTEXT
  5
5B1
100
AcDbEntity
  8
0
390
0
 62
     7
100
AcDbMText
 10
181.980331
 20
150.040061
 30
0.0
 40
1.5
 41
9.177273
 71
     7
 72
     1
  1
+0.018
210
0.0
220
0.0
230
1.0
 11
0.0
 21
1.0
 31
0.0
 73
     1
 44
1.0
  0
MTEXT
  5
5B2
100
AcDbEntity
  8
0
390
0
 62
     7
100
AcDbMText
 10
183.630331
 20
150.040061
 30
0.0
 40
1.5
 41
1.5
 71
     7
 72
     1
  1
　0
210
0.0
220
0.0
230
1.0
 11
0.0
 21
1.0
 31
0.0
 73
     1
 44
1.0
  0
ENDBLK
  5
5B3
100
AcDbEntity
  8
0
390
0
100
AcDbBlockEnd
  0
BLOCK
  5
5B6
100
AcDbEntity
  8
0
390
0
100
AcDbBlockBegin
  2
AID2195
 70
     0
 10
0.0
 20
0.0
 30
0.0
  3
DNote#note referencing elements
  1

  0
MTEXT
  5
5B7
100
AcDbEntity
  8
0
390
0
 62
     7
100
AcDbMText
 10
186.002206
 20
122.099056
 30
0.0
 40
3.5
 41
1.686364
 71
     7
 72
     1
  1
1
210
0.0
220
0.0
230
1.0
 11
0.0
 21
1.0
 31
0.0
 73
     1
 44
1.0
  0
POLYLINE
  5
5B8
100
AcDbEntity
  8
0
390
0
  6
Continuous
 62
     2
100
AcDb2dPolyline
 66
     1
 10
0.0
 20
0.0
 30
0.0
 70
     1
 40
0.1
 41
0.1
  0
VERTEX
  5
5B9
100
AcDbEntity
  8
0
390
0
 62
     2
100
AcDbVertex
100
AcDb2dVertex
 10
186.43857
 20
125.826834
 30
0.0
  0
VERTEX
  5
5BA
100
AcDbEntity
  8
0
390
0
 62
     2
100
AcDbVertex
100
AcDb2dVertex
 10
181.45608
 20
122.950193
 30
0.0
  0
VERTEX
  5
5BB
100
AcDbEntity
  8
0
390
0
 62
     2
100
AcDbVertex
100
AcDb2dVertex
 10
186.43857
 20
120.073551
 30
0.0
  0
SEQEND
  5
5BC
100
AcDbEntity
  8
0
390
0
  0
ENDBLK
  5
5BD
100
AcDbEntity
  8
0
390
0
100
AcDbBlockEnd
  0
BLOCK
  5
5C0
100
AcDbEntity
  8
0
390
0
100
AcDbBlockBegin
  2
AID2201
 70
     0
 10
0.0
 20
0.0
 30
0.0
  3
DNote#note referencing elements
  1

  0
MTEXT
  5
5C1
100
AcDbEntity
  8
0
390
0
 62
     7
100
AcDbMText
 10
131.543127
 20
127.154704
 30
0.0
 40
3.5
 41
1.686364
 71
     7
 72
     1
  1
1
210
0.0
220
0.0
230
1.0
 11
0.0
 21
1.0
 31
0.0
 73
     1
 44
1.0
  0
POLYLINE
  5
5C2
100
AcDbEntity
  8
0
390
0
  6
Continuous
 62
     2
100
AcDb2dPolyline
 66
     1
 10
0.0
 20
0.0
 30
0.0
 70
     1
 40
0.1
 41
0.1
  0
VERTEX
  5
5C3
100
AcDbEntity
  8
0
390
0
 62
     2
100
AcDbVertex
100
AcDb2dVertex
 10
131.97949
 20
130.882482
 30
0.0
  0
VERTEX
  5
5C4
100
AcDbEntity
  8
0
390
0
 62
     2
100
AcDbVertex
100
AcDb2dVertex
 10
126.997001
 20
128.00584
 30
0.0
  0
VERTEX
  5
5C5
100
AcDbEntity
  8
0
390
0
 62
     2
100
AcDbVertex
100
AcDb2dVertex
 10
131.97949
 20
125.129198
 30
0.0
  0
SEQEND
  5
5C6
100
AcDbEntity
  8
0
390
0
  0
ENDBLK
  5
5C7
100
AcDbEntity
  8
0
390
0
100
AcDbBlockEnd
  0
ENDSEC
  0
SECTION
  2
ENTITIES
  0
INSERT
  5
58
100
AcDbEntity
  8
0
390
0
100
AcDbBlockReference
  2
$DFT_DRAWING
 10
0.0
 20
0.0
 30
0.0
  0
INSERT
  5
80
100
AcDbEntity
  8
0
390
0
100
AcDbBlockReference
  2
AID85
 10
0.0
 20
0.0
 30
0.0
  0
MTEXT
  5
81
100
AcDbEntity
  8
0
390
0
 62
     7
100
AcDbMText
 10
175.482553
 20
53.69734
 30
0.0
 40
3.0
 41
19.363636
 71
     7
 72
     1
  1
製品名
210
0.0
220
0.0
230
1.0
 73
     1
 44
1.0
  0
MTEXT
  5
82
100
AcDbEntity
  8
0
390
0
 62
     7
100
AcDbMText
 10
231.476726
 20
53.69734
 30
0.0
 40
3.0
 41
27.136364
 71
     7
 72
     1
  1
製品番号
210
0.0
220
0.0
230
1.0
 73
     1
 44
1.0
  0
MTEXT
  5
83
100
AcDbEntity
  8
0
390
0
 62
     7
100
AcDbMText
 10
200.633929
 20
53.714705
 30
0.0
 40
3.0
 41
33.109091
 71
     7
 72
     1
  1
MP3535-08
210
0.0
220
0.0
230
1.0
 73
     1
 44
1.0
  0
MTEXT
  5
84
100
AcDbEntity
  8
0
390
0
 62
     7
100
AcDbMText
 10
175.77796
 20
37.364968
 30
0.0
 40
3.0
 41
22.527273
 71
     7
 72
     1
  1
材　　質
210
0.0
220
0.0
230
1.0
 73
     1
 44
1.0
  0
MTEXT
  5
85
100
AcDbEntity
  8
0
390
0
 62
     7
100
AcDbMText
 10
195.403274
 20
37.330878
 30
0.0
 40
3.0
 41
20.079652
 71
     7
 72
     1
  1
接着剤
210
0.0
220
0.0
230
1.0
 73
     1
 44
1.0
  0
MTEXT
  5
86
100
AcDbEntity
  8
0
390
0
 62
     7
100
AcDbMText
 10
212.709859
 20
37.367632
 30
0.0
 40
3.0
 41
27.190909
 71
     7
 72
     1
  1
表面処理
210
0.0
220
0.0
230
1.0
 73
     1
 44
1.0
  0
MTEXT
  5
87
100
AcDbEntity
  8
0
390
0
 62
     7
100
AcDbMText
 10
232.053114
 20
37.324059
 30
0.0
 40
3.0
 41
27.136364
 71
     7
 72
     1
  1
第三角法
210
0.0
220
0.0
230
1.0
 73
     1
 44
1.0
  0
MTEXT
  5
88
100
AcDbEntity
  8
0
390
0
 62
     7
100
AcDbMText
 10
231.562205
 20
23.669945
 30
0.0
 40
3.0
 41
29.1
 71
     7
 72
     1
  1
ファイル名
210
0.0
220
0.0
230
1.0
 73
     1
 44
1.0
  0
MTEXT
  5
89
100
AcDbEntity
  8
0
390
0
 62
     7
100
AcDbMText
 10
261.271324
 20
23.704036
 30
0.0
 40
3.0
 41
26.311364
 71
     7
 72
     1
  1
{\W0.85;A1-1-1221}
210
0.0
220
0.0
230
1.0
 73
     1
 44
1.0
  0
MTEXT
  5
8A
100
AcDbEntity
  8
0
390
0
 62
     7
100
AcDbMText
 10
262.243532
 20
53.701069
 30
0.0
 40
3.0
 41
18.9
 71
     7
 72
     1
  1
1-1221
210
0.0
220
0.0
230
1.0
 73
     1
 44
1.0
  0
MTEXT
  5
8B
100
AcDbEntity
  8
0
390
0
 62
     7
100
AcDbMText
 10
176.862051
 20
25.353979
 30
0.0
 40
3.0
 41
18.027273
 71
     7
 72
     1
  1
承　認
210
0.0
220
0.0
230
1.0
 73
     1
 44
1.0
  0
MTEXT
  5
8C
100
AcDbEntity
  8
0
390
0
 62
     7
100
AcDbMText
 10
195.964096
 20
25.31307
 30
0.0
 40
3.0
 41
17.836364
 71
     7
 72
     1
  1
照　査
210
0.0
220
0.0
230
1.0
 73
     1
 44
1.0
  0
MTEXT
  5
8D
100
AcDbEntity
  8
0
390
0
 62
     7
100
AcDbMText
 10
215.062131
 20
25.334646
 30
0.0
 40
3.0
 41
17.781818
 71
     7
 72
     1
  1
設　計
210
0.0
220
0.0
230
1.0
 73
     1
 44
1.0
  0
INSERT
  5
B8
100
AcDbEntity
  8
0
390
0
100
AcDbBlockReference
  2
AID185
 10
0.0
 20
0.0
 30
0.0
  0
MTEXT
  5
B9
100
AcDbEntity
  8
0
390
0
 62
     7
100
AcDbMText
 10
163.841418
 20
11.591591
 30
0.0
 40
3.0
 41
13.145455
 71
     7
 72
     1
  1
設計
210
0.0
220
0.0
230
1.0
 73
     1
 44
1.0
  0
MTEXT
  5
BA
100
AcDbEntity
  8
0
390
0
 62
     7
100
AcDbMText
 10
154.503675
 20
11.571136
 30
0.0
 40
3.0
 41
13.2
 71
     7
 72
     1
  1
照査
210
0.0
220
0.0
230
1.0
 73
     1
 44
1.0
  0
MTEXT
  5
BB
100
AcDbEntity
  8
0
390
0
 62
     7
100
AcDbMText
 10
145.14435
 20
11.612045
 30
0.0
 40
3.0
 41
13.390909
 71
     7
 72
     1
  1
承認
210
0.0
220
0.0
230
1.0
 73
     1
 44
1.0
  0
MTEXT
  5
BC
100
AcDbEntity
  8
0
390
0
 62
     7
100
AcDbMText
 10
88.203189
 20
11.775682
 30
0.0
 40
2.5
 41
18.054545
 71
     7
 72
     1
  1
{\W0.8;訂正箇所}
210
0.0
220
0.0
230
1.0
 73
     1
 44
1.0
  0
MTEXT
  5
BD
100
AcDbEntity
  8
0
390
0
 62
     7
100
AcDbMText
 10
163.786873
 20
17.236136
 30
0.0
 40
3.0
 41
13.090909
 71
     7
 72
     1
  1
千葉
210
0.0
220
0.0
230
1.0
 73
     1
 44
1.0
  0
MTEXT
  5
BE
100
AcDbEntity
  8
0
390
0
 62
     7
100
AcDbMText
 10
154.517312
 20
17.229318
 30
0.0
 40
3.0
 41
13.418182
 71
     7
 72
     1
  1
佐藤
210
0.0
220
0.0
230
1.0
 73
     1
 44
1.0
  0
MTEXT
  5
BF
100
AcDbEntity
  8
0
390
0
 62
     7
100
AcDbMText
 10
145.178441
 20
17.229318
 30
0.0
 40
3.0
 41
13.418182
 71
     7
 72
     1
  1
佐藤
210
0.0
220
0.0
230
1.0
 73
     1
 44
1.0
  0
POINT
  5
C0
100
AcDbEntity
  8
0
390
0
 62
     7
100
AcDbPoint
 10
172.0
 20
10.0
 30
0.0
  0
INSERT
  5
CA
100
AcDbEntity
  8
0
390
0
100
AcDbBlockReference
  2
AID280
 10
0.0
 20
0.0
 30
0.0
  0
INSERT
  5
D4
100
AcDbEntity
  8
0
390
0
100
AcDbBlockReference
  2
AID285
 10
0.0
 20
0.0
 30
0.0
  0
INSERT
  5
DE
100
AcDbEntity
  8
0
390
0
100
AcDbBlockReference
  2
AID290
 10
0.0
 20
0.0
 30
0.0
  0
INSERT
  5
E8
100
AcDbEntity
  8
0
390
0
100
AcDbBlockReference
  2
AID295
 10
0.0
 20
0.0
 30
0.0
  0
INSERT
  5
F2
100
AcDbEntity
  8
0
390
0
100
AcDbBlockReference
  2
AID300
 10
0.0
 20
0.0
 30
0.0
  0
MTEXT
  5
F3
100
AcDbEntity
  8
0
390
0
 62
     7
100
AcDbMText
 10
210.991677
 20
20.121098
 30
0.0
 40
3.0
 41
34.172727
 71
     7
 72
     1
  1
2012/11/09
210
0.0
220
0.0
230
1.0
 73
     1
 44
1.0
  0
MTEXT
  5
F4
100
AcDbEntity
  8
0
390
0
 62
     7
100
AcDbMText
 10
191.893641
 20
20.118855
 30
0.0
 40
3.0
 41
34.172727
 71
     7
 72
     1
  1
2012/11/09
210
0.0
220
0.0
230
1.0
 73
     1
 44
1.0
  0
MTEXT
  5
F5
100
AcDbEntity
  8
0
390
0
 62
     7
100
AcDbMText
 10
214.984859
 20
12.418182
 30
0.0
 40
4.0
 41
17.454545
 71
     7
 72
     1
  1
千葉
210
0.0
220
0.0
230
1.0
 73
     1
 44
1.0
  0
MTEXT
  5
F6
100
AcDbEntity
  8
0
390
0
 62
     7
100
AcDbMText
 10
195.977732
 20
12.381818
 30
0.0
 40
4.0
 41
17.890909
 71
     7
 72
     1
  1
佐藤
210
0.0
220
0.0
230
1.0
 73
     1
 44
1.0
  0
MTEXT
  5
F7
100
AcDbEntity
  8
0
390
0
 62
     7
100
AcDbMText
 10
176.896141
 20
12.381818
 30
0.0
 40
4.0
 41
17.890909
 71
     7
 72
     1
  1
佐藤
210
0.0
220
0.0
230
1.0
 73
     1
 44
1.0
  0
MTEXT
  5
F8
100
AcDbEntity
  8
0
390
0
 62
     7
100
AcDbMText
 10
172.812051
 20
20.118855
 30
0.0
 40
3.0
 41
34.172727
 71
     7
 72
     1
  1
2012/11/09
210
0.0
220
0.0
230
1.0
 73
     1
 44
1.0
  0
MTEXT
  5
F9
100
AcDbEntity
  8
0
390
0
 62
     7
100
AcDbMText
 10
131.453637
 20
11.584773
 30
0.0
 40
3.0
 41
19.090909
 71
     7
 72
     1
  1
年月日
210
0.0
220
0.0
230
1.0
 73
     1
 44
1.0
  0
MTEXT
  5
FA
100
AcDbEntity
  8
0
390
0
 62
     7
100
AcDbMText
 10
130.144546
 20
17.277045
 30
0.0
 40
3.0
 41
24.545455
 71
     7
 72
     1
  1
'17.11.30
210
0.0
220
0.0
230
1.0
 73
     1
 44
1.0
  0
MTEXT
  5
FB
100
AcDbEntity
  8
0
390
0
 62
     7
100
AcDbMText
 10
106.313369
 20
11.584773
 30
0.0
 40
3.0
 41
27.054545
 71
     7
 72
     1
  1
変更内容
210
0.0
220
0.0
230
1.0
 73
     1
 44
1.0
  0
MTEXT
  5
FC
100
AcDbEntity
  8
0
390
0
 62
     7
100
AcDbMText
 10
101.158824
 20
17.249773
 30
0.0
 40
3.0
 41
48.054545
 71
     7
 72
     1
  1
公差＆寸法変更
210
0.0
220
0.0
230
1.0
 73
     1
 44
1.0
  0
MTEXT
  5
FD
100
AcDbEntity
  8
0
390
0
 62
     7
100
AcDbMText
 10
271.655257
 20
37.344514
 30
0.0
 40
3.0
 41
22.663636
 71
     7
 72
     1
  1
個　　数
210
0.0
220
0.0
230
1.0
 73
     1
 44
1.0
  0
MTEXT
  5
FE
100
AcDbEntity
  8
0
390
0
 62
     7
100
AcDbMText
 10
276.471166
 20
30.865636
 30
0.0
 40
4.0
 41
1.927273
 71
     7
 72
     1
  1
1
210
0.0
220
0.0
230
1.0
 73
     1
 44
1.0
  0
MTEXT
  5
FF
100
AcDbEntity
  8
0
390
0
 62
     7
100
AcDbMText
 10
252.559648
 20
37.344514
 30
0.0
 40
3.0
 41
22.472727
 71
     7
 72
     1
  1
尺　　度
210
0.0
220
0.0
230
1.0
 73
     1
 44
1.0
  0
MTEXT
  5
100
100
AcDbEntity
  8
0
390
0
 62
     7
100
AcDbMText
 10
255.718739
 20
30.874727
 30
0.0
 40
4.0
 41
8.472727
 71
     7
 72
     1
  1
1:1
210
0.0
220
0.0
230
1.0
 73
     1
 44
1.0
  0
INSERT
  5
10F
100
AcDbEntity
  8
0
390
0
100
AcDbBlockReference
  2
AID333
 10
0.0
 20
0.0
 30
0.0
  0
POINT
  5
110
100
AcDbEntity
  8
0
390
0
 62
     7
100
AcDbPoint
 10
287.0
 20
28.480012
 30
0.0
  0
LINE
  5
111
100
AcDbEntity
  8
0
390
0
  6
Continuous
 62
     7
100
AcDbLine
 10
287.0
 20
10.0
 30
0.0
 11
287.0
 21
200.0
 31
0.0
  0
INSERT
  5
124
100
AcDbEntity
  8
0
390
0
100
AcDbBlockReference
  2
AID349
 10
0.0
 20
0.0
 30
0.0
  0
MTEXT
  5
125
100
AcDbEntity
  8
0
390
0
 62
     7
100
AcDbMText
 10
17.263636
 20
41.168764
 30
0.0
 40
2.0
 41
48.4
 71
     7
 72
     1
  1
指示なき長さ寸法公差は
210
0.0
220
0.0
230
1.0
 73
     1
 44
1.0
  0
MTEXT
  5
126
100
AcDbEntity
  8
0
390
0
 62
     7
100
AcDbMText
 10
14.336364
 20
34.386534
 30
0.0
 40
2.0
 41
21.327273
 71
     7
 72
     1
  1
0.5～3以下
210
0.0
220
0.0
230
1.0
 73
     1
 44
1.0
  0
MTEXT
  5
127
100
AcDbEntity
  8
0
390
0
 62
     7
100
AcDbMText
 10
36.75
 20
34.341079
 30
0.0
 40
2.0
 41
8.763636
 71
     7
 72
     1
  1
%%p0.1
210
0.0
220
0.0
230
1.0
 73
     1
 44
1.0
  0
MTEXT
  5
128
100
AcDbEntity
  8
0
390
0
 62
     7
100
AcDbMText
 10
15.136364
 20
30.516577
 30
0.0
 40
2.0
 41
17.981818
 71
     7
 72
     1
  1
3～6以下
210
0.0
220
0.0
230
1.0
 73
     1
 44
1.0
  0
MTEXT
  5
129
100
AcDbEntity
  8
0
390
0
 62
     7
100
AcDbMText
 10
36.75
 20
30.471123
 30
0.0
 40
2.0
 41
8.763636
 71
     7
 72
     1
  1
%%p0.1
210
0.0
220
0.0
230
1.0
 73
     1
 44
1.0
  0
MTEXT
  5
12A
100
AcDbEntity
  8
0
390
0
 62
     7
100
AcDbMText
 10
14.55
 20
26.646621
 30
0.0
 40
2.0
 41
20.290909
 71
     7
 72
     1
  1
6～30以下
210
0.0
220
0.0
230
1.0
 73
     1
 44
1.0
  0
MTEXT
  5
12B
100
AcDbEntity
  8
0
390
0
 62
     7
100
AcDbMText
 10
36.590909
 20
26.601167
 30
0.0
 40
2.0
 41
9.4
 71
     7
 72
     1
  1
%%p0.2
210
0.0
220
0.0
230
1.0
 73
     1
 44
1.0
  0
MTEXT
  5
12C
100
AcDbEntity
  8
0
390
0
 62
     7
100
AcDbMText
 10
13.390909
 20
22.776665
 30
0.0
 40
2.0
 41
24.963636
 71
     7
 72
     1
  1
30～120以下
210
0.0
220
0.0
230
1.0
 73
     1
 44
1.0
  0
MTEXT
  5
12D
100
AcDbEntity
  8
0
390
0
 62
     7
100
AcDbMText
 10
36.590909
 20
22.735756
 30
0.0
 40
2.0
 41
9.4
 71
     7
 72
     1
  1
%%p0.3
210
0.0
220
0.0
230
1.0
 73
     1
 44
1.0
  0
MTEXT
  5
12E
100
AcDbEntity
  8
0
390
0
 62
     7
100
AcDbMText
 10
12.745455
 20
18.906709
 30
0.0
 40
2.0
 41
27.036364
 71
     7
 72
     1
  1
120～400以下
210
0.0
220
0.0
230
1.0
 73
     1
 44
1.0
  0
MTEXT
  5
12F
100
AcDbEntity
  8
0
390
0
 62
     7
100
AcDbMText
 10
36.590909
 20
18.8658
 30
0.0
 40
2.0
 41
9.4
 71
     7
 72
     1
  1
%%p0.5
210
0.0
220
0.0
230
1.0
 73
     1
 44
1.0
  0
MTEXT
  5
130
100
AcDbEntity
  8
0
390
0
 62
     7
100
AcDbMText
 10
12.245455
 20
15.036752
 30
0.0
 40
2.0
 41
29.690909
 71
     7
 72
     1
  1
400～1000以下
210
0.0
220
0.0
230
1.0
 73
     1
 44
1.0
  0
MTEXT
  5
131
100
AcDbEntity
  8
0
390
0
 62
     7
100
AcDbMText
 10
36.586364
 20
14.995843
 30
0.0
 40
2.0
 41
9.418182
 71
     7
 72
     1
  1
%%p0.8
210
0.0
220
0.0
230
1.0
 73
     1
 44
1.0
  0
MTEXT
  5
132
100
AcDbEntity
  8
0
390
0
 62
     7
100
AcDbMText
 10
11.581818
 20
11.166796
 30
0.0
 40
2.0
 41
31.690909
 71
     7
 72
     1
  1
1000～2000以下
210
0.0
220
0.0
230
1.0
 73
     1
 44
1.0
  0
MTEXT
  5
133
100
AcDbEntity
  8
0
390
0
 62
     7
100
AcDbMText
 10
36.590909
 20
11.116796
 30
0.0
 40
2.0
 41
9.4
 71
     7
 72
     1
  1
%%p1.2
210
0.0
220
0.0
230
1.0
 73
     1
 44
1.0
  0
MTEXT
  5
134
100
AcDbEntity
  8
0
390
0
 62
     7
100
AcDbMText
 10
53.663636
 20
41.144545
 30
0.0
 40
2.0
 41
58.8
 71
     7
 72
     1
  1
指示なき角度寸法は下記一般
210
0.0
220
0.0
230
1.0
 73
     1
 44
1.0
  0
MTEXT
  5
135
100
AcDbEntity
  8
0
390
0
 62
     7
100
AcDbMText
 10
55.236364
 20
34.386534
 30
0.0
 40
2.0
 41
13.072727
 71
     7
 72
     1
  1
10以下
210
0.0
220
0.0
230
1.0
 73
     1
 44
1.0
  0
MTEXT
  5
136
100
AcDbEntity
  8
0
390
0
 62
     7
100
AcDbMText
 10
76.0
 20
34.209261
 30
0.0
 40
2.0
 41
7.763636
 71
     7
 72
     1
  1
%%p1%%d
210
0.0
220
0.0
230
1.0
 73
     1
 44
1.0
  0
MTEXT
  5
137
100
AcDbEntity
  8
0
390
0
 62
     7
100
AcDbMText
 10
51.745455
 20
30.44385
 30
0.0
 40
2.0
 41
27.036364
 71
     7
 72
     1
  1
10超～50以下
210
0.0
220
0.0
230
1.0
 73
     1
 44
1.0
  0
MTEXT
  5
138
100
AcDbEntity
  8
0
390
0
 62
     7
100
AcDbMText
 10
75.422727
 20
30.352941
 30
0.0
 40
2.0
 41
10.072727
 71
     7
 72
     1
  1
%%p30′
210
0.0
220
0.0
230
1.0
 73
     1
 44
1.0
  0
MTEXT
  5
139
100
AcDbEntity
  8
0
390
0
 62
     7
100
AcDbMText
 10
51.227273
 20
26.573894
 30
0.0
 40
2.0
 41
29.618182
 71
     7
 72
     1
  1
50超～120以下
210
0.0
220
0.0
230
1.0
 73
     1
 44
1.0
  0
MTEXT
  5
13A
100
AcDbEntity
  8
0
390
0
 62
     7
100
AcDbMText
 10
75.422727
 20
26.478439
 30
0.0
 40
2.0
 41
10.072727
 71
     7
 72
     1
  1
%%p20′
210
0.0
220
0.0
230
1.0
 73
     1
 44
1.0
  0
MTEXT
  5
13B
100
AcDbEntity
  8
0
390
0
 62
     7
100
AcDbMText
 10
50.581818
 20
22.703938
 30
0.0
 40
2.0
 41
31.690909
 71
     7
 72
     1
  1
120超～400以下
210
0.0
220
0.0
230
1.0
 73
     1
 44
1.0
  0
MTEXT
  5
13C
100
AcDbEntity
  8
0
390
0
 62
     7
100
AcDbMText
 10
75.422727
 20
22.608483
 30
0.0
 40
2.0
 41
10.072727
 71
     7
 72
     1
  1
%%p10′
210
0.0
220
0.0
230
1.0
 73
     1
 44
1.0
  0
MTEXT
  5
13D
100
AcDbEntity
  8
0
390
0
 62
     7
100
AcDbMText
 10
55.854545
 20
18.833981
 30
0.0
 40
2.0
 41
11.254545
 71
     7
 72
     1
  1
400超
210
0.0
220
0.0
230
1.0
 73
     1
 44
1.0
  0
MTEXT
  5
13E
100
AcDbEntity
  8
0
390
0
 62
     7
100
AcDbMText
 10
76.004545
 20
18.743072
 30
0.0
 40
2.0
 41
7.745455
 71
     7
 72
     1
  1
%%p5′
210
0.0
220
0.0
230
1.0
 73
     1
 44
1.0
  0
MTEXT
  5
13F
100
AcDbEntity
  8
0
390
0
 62
     7
100
AcDbMText
 10
19.418182
 20
38.630756
 30
0.0
 40
2.0
 41
39.636364
 71
     7
 72
     1
  1
下記一般公差による
210
0.0
220
0.0
230
1.0
 73
     1
 44
1.0
  0
MTEXT
  5
140
100
AcDbEntity
  8
0
390
0
 62
     7
100
AcDbMText
 10
51.854545
 20
38.630756
 30
0.0
 40
2.0
 41
66.072727
 71
     7
 72
     1
  1
公差による（対象角度の短片長さ）
210
0.0
220
0.0
230
1.0
 73
     1
 44
1.0
  0
POINT
  5
141
100
AcDbEntity
  8
0
390
0
 62
     7
100
AcDbPoint
 10
88.0
 20
10.0
 30
0.0
  0
POINT
  5
142
100
AcDbEntity
  8
0
390
0
 62
     7
100
AcDbPoint
 10
49.0
 20
13.869956
 30
0.0
  0
POINT
  5
143
100
AcDbEntity
  8
0
390
0
 62
     7
100
AcDbPoint
 10
68.5
 20
17.739912
 30
0.0
  0
LINE
  5
144
100
AcDbEntity
  8
0
390
0
  6
Continuous
 62
     7
100
AcDbLine
 10
49.0
 20
13.869956
 30
0.0
 11
68.5
 21
17.739912
 31
0.0
  0
POINT
  5
145
100
AcDbEntity
  8
0
390
0
 62
     7
100
AcDbPoint
 10
68.5
 20
13.869956
 30
0.0
  0
POINT
  5
146
100
AcDbEntity
  8
0
390
0
 62
     7
100
AcDbPoint
 10
88.0
 20
17.739912
 30
0.0
  0
LINE
  5
147
100
AcDbEntity
  8
0
390
0
  6
Continuous
 62
     7
100
AcDbLine
 10
68.5
 20
13.869956
 30
0.0
 11
88.0
 21
17.739912
 31
0.0
  0
POINT
  5
148
100
AcDbEntity
  8
0
390
0
 62
     7
100
AcDbPoint
 10
49.0
 20
10.0
 30
0.0
  0
LINE
  5
149
100
AcDbEntity
  8
0
390
0
  6
Continuous
 62
     7
100
AcDbLine
 10
49.0
 20
10.0
 30
0.0
 11
68.5
 21
13.869956
 31
0.0
  0
POINT
  5
14A
100
AcDbEntity
  8
0
390
0
 62
     7
100
AcDbPoint
 10
68.5
 20
10.0
 30
0.0
  0
POINT
  5
14B
100
AcDbEntity
  8
0
390
0
 62
     7
100
AcDbPoint
 10
88.0
 20
13.869956
 30
0.0
  0
LINE
  5
14C
100
AcDbEntity
  8
0
390
0
  6
Continuous
 62
     7
100
AcDbLine
 10
68.5
 20
10.0
 30
0.0
 11
88.0
 21
13.869956
 31
0.0
  0
POINT
  5
14D
100
AcDbEntity
  8
0
390
0
 62
     7
100
AcDbPoint
 10
191.06501
 20
36.542169
 30
0.0
  0
POINT
  5
14E
100
AcDbEntity
  8
0
390
0
 62
     7
100
AcDbPoint
 10
210.163182
 20
28.480012
 30
0.0
  0
POINT
  5
14F
100
AcDbEntity
  8
0
390
0
 62
     7
100
AcDbPoint
 10
172.0
 20
36.542169
 30
0.0
  0
POINT
  5
150
100
AcDbEntity
  8
0
390
0
 62
     7
100
AcDbPoint
 10
191.06501
 20
28.480012
 30
0.0
  0
LINE
  5
151
100
AcDbEntity
  8
0
390
0
  6
Continuous
 62
     7
100
AcDbLine
 10
172.0
 20
36.542169
 30
0.0
 11
191.06501
 21
28.480012
 31
0.0
  0
POINT
  5
152
100
AcDbEntity
  8
0
390
0
 62
     7
100
AcDbPoint
 10
210.163182
 20
36.542169
 30
0.0
  0
POINT
  5
153
100
AcDbEntity
  8
0
390
0
 62
     7
100
AcDbPoint
 10
229.261081
 20
28.480012
 30
0.0
  0
LINE
  5
154
100
AcDbEntity
  8
0
390
0
  6
Continuous
 62
     7
100
AcDbLine
 10
210.163182
 20
36.542169
 30
0.0
 11
229.261081
 21
28.480012
 31
0.0
  0
MTEXT
  5
155
100
AcDbEntity
  8
0
390
0
 62
     7
100
AcDbMText
 10
173.730402
 20
47.822089
 30
0.0
 40
3.0
 41
26.318182
 71
     7
 72
     1
  1
半製品名
210
0.0
220
0.0
230
1.0
 73
     1
 44
1.0
  0
MTEXT
  5
156
100
AcDbEntity
  8
0
390
0
 62
     7
100
AcDbMText
 10
175.489493
 20
42.19136
 30
0.0
 40
3.0
 41
19.390909
 71
     7
 72
     1
  1
部品名
210
0.0
220
0.0
230
1.0
 73
     1
 44
1.0
  0
MTEXT
  5
157
100
AcDbEntity
  8
0
390
0
 62
     7
100
AcDbMText
 10
229.725328
 20
47.822089
 30
0.0
 40
3.0
 41
34.090909
 71
     7
 72
     1
  1
半製品番号
210
0.0
220
0.0
230
1.0
 73
     1
 44
1.0
  0
MTEXT
  5
158
100
AcDbEntity
  8
0
390
0
 62
     7
100
AcDbMText
 10
231.484419
 20
42.198178
 30
0.0
 40
3.0
 41
27.163636
 71
     7
 72
     1
  1
部品番号
210
0.0
220
0.0
230
1.0
 73
     1
 44
1.0
  0
POINT
  5
159
100
AcDbEntity
  8
0
390
0
 62
     7
100
AcDbPoint
 10
189.056259
 20
51.856682
 30
0.0
  0
POINT
  5
15A
100
AcDbEntity
  8
0
390
0
 62
     7
100
AcDbPoint
 10
229.258465
 20
46.249498
 30
0.0
  0
LINE
  5
15B
100
AcDbEntity
  8
0
390
0
  6
Continuous
 62
     7
100
AcDbLine
 10
189.056259
 20
51.856682
 30
0.0
 11
229.258465
 21
46.249498
 31
0.0
  0
POINT
  5
15C
100
AcDbEntity
  8
0
390
0
 62
     7
100
AcDbPoint
 10
229.261081
 20
40.642313
 30
0.0
  0
POINT
  5
15D
100
AcDbEntity
  8
0
390
0
 62
     7
100
AcDbPoint
 10
189.056259
 20
46.249498
 30
0.0
  0
LINE
  5
15E
100
AcDbEntity
  8
0
390
0
  6
Continuous
 62
     7
100
AcDbLine
 10
229.261081
 20
40.642313
 30
0.0
 11
189.056259
 21
46.249498
 31
0.0
  0
POINT
  5
15F
100
AcDbEntity
  8
0
390
0
 62
     7
100
AcDbPoint
 10
247.674009
 20
51.856682
 30
0.0
  0
POINT
  5
160
100
AcDbEntity
  8
0
390
0
 62
     7
100
AcDbPoint
 10
287.0
 20
46.249498
 30
0.0
  0
LINE
  5
161
100
AcDbEntity
  8
0
390
0
  6
Continuous
 62
     7
100
AcDbLine
 10
247.674009
 20
51.856682
 30
0.0
 11
287.0
 21
46.249498
 31
0.0
  0
POINT
  5
162
100
AcDbEntity
  8
0
390
0
 62
     7
100
AcDbPoint
 10
287.0
 20
40.642313
 30
0.0
  0
POINT
  5
163
100
AcDbEntity
  8
0
390
0
 62
     7
100
AcDbPoint
 10
247.674009
 20
46.249498
 30
0.0
  0
LINE
  5
164
100
AcDbEntity
  8
0
390
0
  6
Continuous
 62
     7
100
AcDbLine
 10
287.0
 20
40.642313
 30
0.0
 11
247.674009
 21
46.249498
 31
0.0
  0
LINE
  5
165
100
AcDbEntity
  8
0
390
0
  6
Continuous
 62
     7
100
AcDbLine
 10
191.06501
 20
36.542169
 30
0.0
 11
210.163182
 21
28.480012
 31
0.0
  0
MTEXT
  5
167
100
AcDbEntity
  8
0
390
0
 62
     7
100
AcDbMText
 10
247.437577
 20
14.514029
 30
0.0
 40
2.8
 41
24.133455
 71
     7
 72
     1
  1
{\W0.95;株式会社}
  7
TopStyle2
210
0.0
220
0.0
230
1.0
 73
     1
 44
1.0
  0
MTEXT
  5
168
100
AcDbEntity
  8
0
390
0
 62
     7
100
AcDbMText
 10
260.102025
 20
13.946757
 30
0.0
 40
3.8
 41
49.106768
 71
     7
 72
     1
  1
{\W0.95;プロスパイン}
  7
TopStyle2
210
0.0
220
0.0
230
1.0
 73
     1
 44
1.0
  0
INSERT
  5
2D1
100
AcDbEntity
  8
0
390
0
100
AcDbBlockReference
  2
AID514
 10
0.0
 20
0.0
 30
0.0
  0
LINE
  5
2D3
100
AcDbEntity
  8
0
390
0
  6
DOT
 62
     2
100
AcDbLine
 10
51.66296
 20
150.389795
 30
0.0
 11
49.162955
 21
150.389795
 31
0.0
  0
LINE
  5
2D4
100
AcDbEntity
  8
0
390
0
  6
DOT
 62
     2
100
AcDbLine
 10
54.162965
 20
150.389795
 30
0.0
 11
49.162955
 21
150.389795
 31
0.0
  0
LINE
  5
2D5
100
AcDbEntity
  8
0
390
0
  6
DOT
 62
     2
100
AcDbLine
 10
54.162965
 20
150.389795
 30
0.0
 11
53.76296
 21
150.389795
 31
0.0
  0
LINE
  5
2D6
100
AcDbEntity
  8
0
390
0
  6
Continuous
 62
     2
100
AcDbLine
 10
37.227845
 20
139.910333
 30
0.0
 11
37.193499
 21
139.703199
 31
0.0
  0
LINE
  5
2D7
100
AcDbEntity
  8
0
390
0
  6
Continuous
 62
     2
100
AcDbLine
 10
37.193488
 20
135.117547
 30
0.0
 11
37.227845
 21
134.910343
 31
0.0
  0
LINE
  5
2D8
100
AcDbEntity
  8
0
390
0
  6
DOT
 62
     2
100
AcDbLine
 10
44.59189
 20
139.910333
 30
0.0
 11
44.530523
 21
139.729465
 31
0.0
  0
LINE
  5
2D9
100
AcDbEntity
  8
0
390
0
  6
DOT
 62
     2
100
AcDbLine
 10
44.530504
 20
135.09127
 30
0.0
 11
44.59189
 21
134.910343
 31
0.0
  0
ARC
  5
2DA
100
AcDbEntity
  8
0
390
0
  6
Continuous
 62
     2
100
AcDbCircle
 10
35.665333
 20
128.471355
 30
0.0
 40
14.625851
210
0.0
220
0.0
230
1.0
100
AcDbArc
 50
261.70182
 51
279.832451
  0
LINE
  5
2DB
100
AcDbEntity
  8
0
390
0
  6
Continuous
 62
     2
100
AcDbLine
 10
33.554461
 20
113.998631
 30
0.0
 11
33.162965
 21
114.060338
 31
0.0
  0
LINE
  5
2DC
100
AcDbEntity
  8
0
390
0
  6
DOT
 62
     2
100
AcDbLine
 10
35.66296
 20
113.845453
 30
0.0
 11
35.713202
 21
113.84554
 31
0.0
  0
LINE
  5
2DD
100
AcDbEntity
  8
0
390
0
  6
DOT
 62
     2
100
AcDbLine
 10
33.162965
 20
114.060338
 30
0.0
 11
33.162965
 21
112.389814
 31
0.0
  0
CIRCLE
  5
2DE
100
AcDbEntity
  8
0
390
0
  6
DOT
 62
     2
100
AcDbCircle
 10
35.662813
 20
99.411714
 30
0.0
 40
2.499854
210
0.0
220
0.0
230
1.0
  0
LINE
  5
2DF
100
AcDbEntity
  8
0
390
0
  6
DOT
 62
     2
100
AcDbLine
 10
52.91296
 20
151.014795
 30
0.0
 11
52.91296
 21
150.918107
 31
0.0
  0
LINE
  5
2E0
100
AcDbEntity
  8
0
390
0
  6
DOT
 62
     2
100
AcDbLine
 10
54.16296
 20
150.389795
 30
0.0
 11
49.16296
 21
150.389795
 31
0.0
  0
ARC
  5
2E1
100
AcDbEntity
  8
0
390
0
  6
DOT
 62
     2
100
AcDbCircle
 10
51.03796
 20
148.942377
 30
0.0
 40
2.072229
210
0.0
220
0.0
230
1.0
100
AcDbArc
 50
72.445814
 51
107.554186
  0
ARC
  5
2E2
100
AcDbEntity
  8
0
390
0
  6
DOT
 62
     2
100
AcDbCircle
 10
52.28796
 20
148.942377
 30
0.0
 40
2.072229
210
0.0
220
0.0
230
1.0
100
AcDbArc
 50
72.445814
 51
107.554186
  0
LINE
  5
2E3
100
AcDbEntity
  8
0
390
0
  6
DOT
 62
     2
100
AcDbLine
 10
50.41296
 20
150.918107
 30
0.0
 11
50.41296
 21
151.014795
 31
0.0
  0
LINE
  5
2E4
100
AcDbEntity
  8
0
390
0
  6
DOT
 62
     2
100
AcDbLine
 10
54.16296
 20
146.264795
 30
0.0
 11
49.16296
 21
146.264795
 31
0.0
  0
LINE
  5
2E5
100
AcDbEntity
  8
0
390
0
  6
DOT
 62
     2
100
AcDbLine
 10
51.66296
 20
150.918107
 30
0.0
 11
51.66296
 21
150.389795
 31
0.0
  0
LINE
  5
2E6
100
AcDbEntity
  8
0
390
0
  6
DOT
 62
     2
100
AcDbLine
 10
51.66296
 20
150.389795
 30
0.0
 11
51.66296
 21
148.014795
 31
0.0
  0
LINE
  5
2E7
100
AcDbEntity
  8
0
390
0
  6
DOT
 62
     2
100
AcDbLine
 10
51.66296
 20
148.014795
 30
0.0
 11
52.91296
 21
148.014795
 31
0.0
  0
LINE
  5
2E8
100
AcDbEntity
  8
0
390
0
  6
DOT
 62
     2
100
AcDbLine
 10
50.41296
 20
148.014795
 30
0.0
 11
51.66296
 21
148.014795
 31
0.0
  0
LINE
  5
2E9
100
AcDbEntity
  8
0
390
0
  6
DOT
 62
     2
100
AcDbLine
 10
50.41296
 20
150.918107
 30
0.0
 11
50.41296
 21
150.389795
 31
0.0
  0
LINE
  5
2EA
100
AcDbEntity
  8
0
390
0
  6
DOT
 62
     2
100
AcDbLine
 10
50.41296
 20
150.389795
 30
0.0
 11
50.41296
 21
148.014795
 31
0.0
  0
LINE
  5
2EB
100
AcDbEntity
  8
0
390
0
  6
DOT
 62
     2
100
AcDbLine
 10
52.91296
 20
150.918107
 30
0.0
 11
52.91296
 21
150.389795
 31
0.0
  0
LINE
  5
2EC
100
AcDbEntity
  8
0
390
0
  6
DOT
 62
     2
100
AcDbLine
 10
52.91296
 20
150.389795
 30
0.0
 11
52.91296
 21
148.014795
 31
0.0
  0
LINE
  5
2ED
100
AcDbEntity
  8
0
390
0
  6
DOT
 62
     2
100
AcDbLine
 10
38.5759
 20
139.910338
 30
0.0
 11
38.5759
 21
134.910338
 31
0.0
  0
LINE
  5
2EE
100
AcDbEntity
  8
0
390
0
  6
DOT
 62
     2
100
AcDbLine
 10
42.7009
 20
139.910338
 30
0.0
 11
42.7009
 21
134.910338
 31
0.0
  0
LINE
  5
2EF
100
AcDbEntity
  8
0
390
0
  6
DOT
 62
     2
100
AcDbLine
 10
40.9509
 20
137.410338
 30
0.0
 11
40.9509
 21
138.660338
 31
0.0
  0
LINE
  5
2F0
100
AcDbEntity
  8
0
390
0
  6
DOT
 62
     2
100
AcDbLine
 10
40.9509
 20
136.160338
 30
0.0
 11
40.9509
 21
137.410338
 31
0.0
  0
LINE
  5
2F1
100
AcDbEntity
  8
0
390
0
  6
DOT
 62
     2
100
AcDbLine
 10
38.047588
 20
137.410338
 30
0.0
 11
38.5759
 21
137.410338
 31
0.0
  0
LINE
  5
2F2
100
AcDbEntity
  8
0
390
0
  6
DOT
 62
     2
100
AcDbLine
 10
38.5759
 20
137.410338
 30
0.0
 11
40.9509
 21
137.410338
 31
0.0
  0
LINE
  5
2F3
100
AcDbEntity
  8
0
390
0
  6
DOT
 62
     2
100
AcDbLine
 10
38.047588
 20
138.660338
 30
0.0
 11
38.5759
 21
138.660338
 31
0.0
  0
LINE
  5
2F4
100
AcDbEntity
  8
0
390
0
  6
DOT
 62
     2
100
AcDbLine
 10
38.5759
 20
138.660338
 30
0.0
 11
40.9509
 21
138.660338
 31
0.0
  0
LINE
  5
2F5
100
AcDbEntity
  8
0
390
0
  6
DOT
 62
     2
100
AcDbLine
 10
38.047588
 20
136.160338
 30
0.0
 11
38.5759
 21
136.160338
 31
0.0
  0
LINE
  5
2F6
100
AcDbEntity
  8
0
390
0
  6
DOT
 62
     2
100
AcDbLine
 10
38.5759
 20
136.160338
 30
0.0
 11
40.9509
 21
136.160338
 31
0.0
  0
CIRCLE
  5
2F7
100
AcDbEntity
  8
0
390
0
  6
Continuous
 62
     7
100
AcDbCircle
 10
51.66296
 20
137.410338
 30
0.0
 40
17.5
210
0.0
220
0.0
230
1.0
  0
CIRCLE
  5
2F8
100
AcDbEntity
  8
0
390
0
  6
Continuous
 62
     7
100
AcDbCircle
 10
51.66296
 20
137.410338
 30
0.0
 40
7.5
210
0.0
220
0.0
230
1.0
  0
LINE
  5
2F9
100
AcDbEntity
  8
0
390
0
  6
DOT
 62
     2
100
AcDbLine
 10
38.16296
 20
108.264795
 30
0.0
 11
33.16296
 21
108.264795
 31
0.0
  0
LINE
  5
2FA
100
AcDbEntity
  8
0
390
0
  6
DOT
 62
     2
100
AcDbLine
 10
38.16296
 20
112.389795
 30
0.0
 11
33.16296
 21
112.389795
 31
0.0
  0
LINE
  5
2FB
100
AcDbEntity
  8
0
390
0
  6
DOT
 62
     2
100
AcDbLine
 10
34.941272
 20
110.014795
 30
0.0
 11
36.384648
 21
110.014795
 31
0.0
  0
LINE
  5
2FC
100
AcDbEntity
  8
0
390
0
  6
DOT
 62
     2
100
AcDbLine
 10
36.384648
 20
112.918107
 30
0.0
 11
36.384648
 21
112.389795
 31
0.0
  0
LINE
  5
2FD
100
AcDbEntity
  8
0
390
0
  6
DOT
 62
     2
100
AcDbLine
 10
36.384648
 20
112.389795
 30
0.0
 11
36.384648
 21
110.014795
 31
0.0
  0
LINE
  5
2FE
100
AcDbEntity
  8
0
390
0
  6
DOT
 62
     2
100
AcDbLine
 10
36.384648
 20
110.014795
 30
0.0
 11
37.106335
 21
110.014795
 31
0.0
  0
LINE
  5
2FF
100
AcDbEntity
  8
0
390
0
  6
DOT
 62
     2
100
AcDbLine
 10
34.941272
 20
112.918107
 30
0.0
 11
34.941272
 21
112.389795
 31
0.0
  0
LINE
  5
300
100
AcDbEntity
  8
0
390
0
  6
DOT
 62
     2
100
AcDbLine
 10
34.941272
 20
112.389795
 30
0.0
 11
34.941272
 21
110.014795
 31
0.0
  0
LINE
  5
301
100
AcDbEntity
  8
0
390
0
  6
DOT
 62
     2
100
AcDbLine
 10
34.219584
 20
110.014795
 30
0.0
 11
34.941272
 21
110.014795
 31
0.0
  0
LINE
  5
302
100
AcDbEntity
  8
0
390
0
  6
DOT
 62
     2
100
AcDbLine
 10
34.219584
 20
112.918107
 30
0.0
 11
34.219584
 21
112.389795
 31
0.0
  0
LINE
  5
303
100
AcDbEntity
  8
0
390
0
  6
DOT
 62
     2
100
AcDbLine
 10
34.219584
 20
112.389795
 30
0.0
 11
34.219584
 21
110.014795
 31
0.0
  0
LINE
  5
304
100
AcDbEntity
  8
0
390
0
  6
DOT
 62
     2
100
AcDbLine
 10
37.106335
 20
112.918107
 30
0.0
 11
37.106335
 21
112.389795
 31
0.0
  0
LINE
  5
305
100
AcDbEntity
  8
0
390
0
  6
DOT
 62
     2
100
AcDbLine
 10
37.106335
 20
112.389795
 30
0.0
 11
37.106335
 21
110.014795
 31
0.0
  0
CIRCLE
  5
306
100
AcDbEntity
  8
0
390
0
  6
DOT
 62
     2
100
AcDbCircle
 10
35.66296
 20
99.410338
 30
0.0
 40
1.25
210
0.0
220
0.0
230
1.0
  0
ARC
  5
307
100
AcDbEntity
  8
0
390
0
  6
DOT
 62
     2
100
AcDbCircle
 10
35.66296
 20
99.410338
 30
0.0
 40
2.5
210
0.0
220
0.0
230
1.0
100
AcDbArc
 50
270.0
 51
272.019071
  0
ARC
  5
308
100
AcDbEntity
  8
0
390
0
  6
DOT
 62
     2
100
AcDbCircle
 10
35.66296
 20
99.410338
 30
0.0
 40
2.5
210
0.0
220
0.0
230
1.0
100
AcDbArc
 50
180.0
 51
188.418927
  0
LINE
  5
309
100
AcDbEntity
  8
0
390
0
  6
DOT
 62
     2
100
AcDbLine
 10
36.384648
 20
100.660338
 30
0.0
 11
37.106335
 21
99.410338
 31
0.0
  0
LINE
  5
30A
100
AcDbEntity
  8
0
390
0
  6
DOT
 62
     2
100
AcDbLine
 10
34.941272
 20
100.660338
 30
0.0
 11
36.384648
 21
100.660338
 31
0.0
  0
LINE
  5
30B
100
AcDbEntity
  8
0
390
0
  6
DOT
 62
     2
100
AcDbLine
 10
36.384648
 20
98.160338
 30
0.0
 11
34.941272
 21
98.160338
 31
0.0
  0
LINE
  5
30C
100
AcDbEntity
  8
0
390
0
  6
DOT
 62
     2
100
AcDbLine
 10
37.106335
 20
99.410338
 30
0.0
 11
36.384648
 21
98.160338
 31
0.0
  0
LINE
  5
30D
100
AcDbEntity
  8
0
390
0
  6
DOT
 62
     2
100
AcDbLine
 10
34.219584
 20
99.410338
 30
0.0
 11
34.941272
 21
100.660338
 31
0.0
  0
LINE
  5
30E
100
AcDbEntity
  8
0
390
0
  6
DOT
 62
     2
100
AcDbLine
 10
34.941272
 20
98.160338
 30
0.0
 11
34.219584
 21
99.410338
 31
0.0
  0
LINE
  5
30F
100
AcDbEntity
  8
0
390
0
  6
Continuous
 62
     7
100
AcDbLine
 10
62.66296
 20
116.910338
 30
0.0
 11
62.66296
 21
81.910338
 31
0.0
  0
LINE
  5
310
100
AcDbEntity
  8
0
390
0
  6
Continuous
 62
     7
100
AcDbLine
 10
40.66296
 20
116.910338
 30
0.0
 11
40.66296
 21
81.910338
 31
0.0
  0
ARC
  5
311
100
AcDbEntity
  8
0
390
0
  6
DOT
 62
     2
100
AcDbCircle
 10
35.66296
 20
114.111407
 30
0.0
 40
7.501026
210
0.0
220
0.0
230
1.0
100
AcDbArc
 50
253.742081
 51
286.257919
  0
CIRCLE
  5
312
100
AcDbEntity
  8
0
390
0
  6
DOT
 62
     2
100
AcDbCircle
 10
35.662863
 20
99.411211
 30
0.0
 40
2.099903
210
0.0
220
0.0
230
0.9999999999999999
  0
LINE
  5
313
100
AcDbEntity
  8
0
390
0
  6
DOT
 62
     2
100
AcDbLine
 10
53.76296
 20
145.864795
 30
0.0
 11
53.76296
 21
150.389795
 31
0.0
  0
LINE
  5
314
100
AcDbEntity
  8
0
390
0
  6
DOT
 62
     2
100
AcDbLine
 10
49.56296
 20
150.389795
 30
0.0
 11
49.56296
 21
145.864795
 31
0.0
  0
LINE
  5
315
100
AcDbEntity
  8
0
390
0
  6
DOT
 62
     2
100
AcDbLine
 10
43.1009
 20
139.510338
 30
0.0
 11
38.5759
 21
139.510338
 31
0.0
  0
LINE
  5
316
100
AcDbEntity
  8
0
390
0
  6
DOT
 62
     2
100
AcDbLine
 10
38.5759
 20
135.310338
 30
0.0
 11
43.1009
 21
135.310338
 31
0.0
  0
LINE
  5
317
100
AcDbEntity
  8
0
390
0
  6
DOT
 62
     2
100
AcDbLine
 10
37.76296
 20
107.864795
 30
0.0
 11
37.76296
 21
112.389795
 31
0.0
  0
LINE
  5
318
100
AcDbEntity
  8
0
390
0
  6
DOT
 62
     2
100
AcDbLine
 10
33.56296
 20
112.389795
 30
0.0
 11
33.56296
 21
107.864795
 31
0.0
  0
LINE
  5
319
100
AcDbEntity
  8
0
390
0
  6
DOT
 62
     2
100
AcDbLine
 10
49.162965
 20
151.845453
 30
0.0
 11
49.162965
 21
150.389814
 31
0.0
  0
LINE
  5
31A
100
AcDbEntity
  8
0
390
0
  6
DOT
 62
     2
100
AcDbLine
 10
49.162965
 20
150.389797
 30
0.0
 11
49.162965
 21
146.26479
 31
0.0
  0
LINE
  5
31B
100
AcDbEntity
  8
0
390
0
  6
DOT
 62
     2
100
AcDbLine
 10
49.162965
 20
146.264775
 30
0.0
 11
49.162965
 21
144.481511
 31
0.0
  0
LINE
  5
31C
100
AcDbEntity
  8
0
390
0
  6
DOT
 62
     2
100
AcDbLine
 10
54.162955
 20
144.481517
 30
0.0
 11
54.162955
 21
146.264775
 31
0.0
  0
LINE
  5
31D
100
AcDbEntity
  8
0
390
0
  6
DOT
 62
     2
100
AcDbLine
 10
54.162955
 20
146.26479
 30
0.0
 11
54.162955
 21
150.389797
 31
0.0
  0
LINE
  5
31E
100
AcDbEntity
  8
0
390
0
  6
Continuous
 62
     2
100
AcDbLine
 10
54.162955
 20
151.845453
 30
0.0
 11
54.162955
 21
151.845554
 31
0.0
  0
LINE
  5
31F
100
AcDbEntity
  8
0
390
0
  6
DOT
 62
     2
100
AcDbLine
 10
37.227845
 20
134.910343
 30
0.0
 11
38.575881
 21
134.910343
 31
0.0
  0
LINE
  5
320
100
AcDbEntity
  8
0
390
0
  6
DOT
 62
     2
100
AcDbLine
 10
38.5759
 20
134.910343
 30
0.0
 11
42.7009
 21
134.910343
 31
0.0
  0
LINE
  5
321
100
AcDbEntity
  8
0
390
0
  6
DOT
 62
     2
100
AcDbLine
 10
42.700919
 20
134.910343
 30
0.0
 11
44.591572
 21
134.910343
 31
0.0
  0
LINE
  5
322
100
AcDbEntity
  8
0
390
0
  6
DOT
 62
     2
100
AcDbLine
 10
44.591679
 20
139.910333
 30
0.0
 11
42.700919
 21
139.910333
 31
0.0
  0
LINE
  5
323
100
AcDbEntity
  8
0
390
0
  6
DOT
 62
     2
100
AcDbLine
 10
42.7009
 20
139.910333
 30
0.0
 11
38.5759
 21
139.910333
 31
0.0
  0
LINE
  5
324
100
AcDbEntity
  8
0
390
0
  6
DOT
 62
     2
100
AcDbLine
 10
38.575881
 20
139.910333
 30
0.0
 11
37.227845
 21
139.910333
 31
0.0
  0
LINE
  5
325
100
AcDbEntity
  8
0
390
0
  6
Continuous
 62
     2
100
AcDbLine
 10
37.227845
 20
139.910333
 30
0.0
 11
37.227679
 21
139.910333
 31
0.0
  0
LINE
  5
326
100
AcDbEntity
  8
0
390
0
  6
DOT
 62
     2
100
AcDbLine
 10
33.162965
 20
112.389797
 30
0.0
 11
33.162965
 21
108.264795
 31
0.0
  0
LINE
  5
327
100
AcDbEntity
  8
0
390
0
  6
DOT
 62
     2
100
AcDbLine
 10
33.162965
 20
108.264775
 30
0.0
 11
33.162965
 21
106.910338
 31
0.0
  0
LINE
  5
328
100
AcDbEntity
  8
0
390
0
  6
DOT
 62
     2
100
AcDbLine
 10
38.162955
 20
106.910338
 30
0.0
 11
38.162955
 21
108.264775
 31
0.0
  0
LINE
  5
329
100
AcDbEntity
  8
0
390
0
  6
DOT
 62
     2
100
AcDbLine
 10
38.162955
 20
108.264795
 30
0.0
 11
38.162955
 21
112.389797
 31
0.0
  0
LINE
  5
32A
100
AcDbEntity
  8
0
390
0
  6
DOT
 62
     2
100
AcDbLine
 10
38.162955
 20
112.389814
 30
0.0
 11
38.162955
 21
114.060338
 31
0.0
  0
LINE
  5
32B
100
AcDbEntity
  8
0
390
0
  6
DOT
 62
     2
100
AcDbLine
 10
54.16296
 20
150.389795
 30
0.0
 11
53.76296
 21
150.589795
 31
0.0
  0
LINE
  5
32C
100
AcDbEntity
  8
0
390
0
  6
DOT
 62
     2
100
AcDbLine
 10
53.76296
 20
150.589795
 30
0.0
 11
52.91296
 21
151.014795
 31
0.0
  0
LINE
  5
32D
100
AcDbEntity
  8
0
390
0
  6
DOT
 62
     2
100
AcDbLine
 10
50.41296
 20
151.014795
 30
0.0
 11
49.56296
 21
150.589795
 31
0.0
  0
LINE
  5
32E
100
AcDbEntity
  8
0
390
0
  6
DOT
 62
     2
100
AcDbLine
 10
49.56296
 20
150.589795
 30
0.0
 11
49.16296
 21
150.389795
 31
0.0
  0
LINE
  5
32F
100
AcDbEntity
  8
0
390
0
  6
DOT
 62
     2
100
AcDbLine
 10
54.16296
 20
146.264795
 30
0.0
 11
54.16296
 21
150.389795
 31
0.0
  0
LINE
  5
330
100
AcDbEntity
  8
0
390
0
  6
DOT
 62
     2
100
AcDbLine
 10
49.16296
 20
150.389795
 30
0.0
 11
49.16296
 21
146.264795
 31
0.0
  0
LINE
  5
331
100
AcDbEntity
  8
0
390
0
  6
DOT
 62
     2
100
AcDbLine
 10
49.16296
 20
146.264795
 30
0.0
 11
49.56296
 21
145.864795
 31
0.0
  0
LINE
  5
332
100
AcDbEntity
  8
0
390
0
  6
DOT
 62
     2
100
AcDbLine
 10
49.56296
 20
145.864795
 30
0.0
 11
50.41296
 21
145.014795
 31
0.0
  0
LINE
  5
333
100
AcDbEntity
  8
0
390
0
  6
DOT
 62
     2
100
AcDbLine
 10
52.91296
 20
145.014795
 30
0.0
 11
53.76296
 21
145.864795
 31
0.0
  0
LINE
  5
334
100
AcDbEntity
  8
0
390
0
  6
DOT
 62
     2
100
AcDbLine
 10
53.76296
 20
145.864795
 30
0.0
 11
54.16296
 21
146.264795
 31
0.0
  0
LINE
  5
335
100
AcDbEntity
  8
0
390
0
  6
DOT
 62
     2
100
AcDbLine
 10
52.91296
 20
145.014795
 30
0.0
 11
51.66296
 21
145.737338
 31
0.0
  0
LINE
  5
336
100
AcDbEntity
  8
0
390
0
  6
DOT
 62
     2
100
AcDbLine
 10
51.66296
 20
145.737338
 30
0.0
 11
50.41296
 21
145.014795
 31
0.0
  0
LINE
  5
337
100
AcDbEntity
  8
0
390
0
  6
DOT
 62
     2
100
AcDbLine
 10
38.5759
 20
139.910338
 30
0.0
 11
38.3759
 21
139.510338
 31
0.0
  0
LINE
  5
338
100
AcDbEntity
  8
0
390
0
  6
DOT
 62
     2
100
AcDbLine
 10
38.3759
 20
139.510338
 30
0.0
 11
37.9509
 21
138.660338
 31
0.0
  0
LINE
  5
339
100
AcDbEntity
  8
0
390
0
  6
DOT
 62
     2
100
AcDbLine
 10
37.9509
 20
136.160338
 30
0.0
 11
38.3759
 21
135.310338
 31
0.0
  0
LINE
  5
33A
100
AcDbEntity
  8
0
390
0
  6
DOT
 62
     2
100
AcDbLine
 10
38.3759
 20
135.310338
 30
0.0
 11
38.5759
 21
134.910338
 31
0.0
  0
LINE
  5
33B
100
AcDbEntity
  8
0
390
0
  6
DOT
 62
     2
100
AcDbLine
 10
42.7009
 20
134.910338
 30
0.0
 11
43.1009
 21
135.310338
 31
0.0
  0
LINE
  5
33C
100
AcDbEntity
  8
0
390
0
  6
DOT
 62
     2
100
AcDbLine
 10
43.1009
 20
135.310338
 30
0.0
 11
43.9509
 21
136.160338
 31
0.0
  0
LINE
  5
33D
100
AcDbEntity
  8
0
390
0
  6
DOT
 62
     2
100
AcDbLine
 10
43.9509
 20
138.660338
 30
0.0
 11
43.1009
 21
139.510338
 31
0.0
  0
LINE
  5
33E
100
AcDbEntity
  8
0
390
0
  6
DOT
 62
     2
100
AcDbLine
 10
43.1009
 20
139.510338
 30
0.0
 11
42.7009
 21
139.910338
 31
0.0
  0
LINE
  5
33F
100
AcDbEntity
  8
0
390
0
  6
DOT
 62
     2
100
AcDbLine
 10
43.9509
 20
138.660338
 30
0.0
 11
43.228357
 21
137.410338
 31
0.0
  0
LINE
  5
340
100
AcDbEntity
  8
0
390
0
  6
DOT
 62
     2
100
AcDbLine
 10
43.228357
 20
137.410338
 30
0.0
 11
43.9509
 21
136.160338
 31
0.0
  0
LINE
  5
341
100
AcDbEntity
  8
0
390
0
  6
DOT
 62
     2
100
AcDbLine
 10
37.16421
 20
135.310338
 30
0.0
 11
38.3759
 21
135.310338
 31
0.0
  0
LINE
  5
342
100
AcDbEntity
  8
0
390
0
  6
DOT
 62
     2
100
AcDbLine
 10
38.3759
 20
135.310338
 30
0.0
 11
38.57588
 21
135.310338
 31
0.0
  0
LINE
  5
343
100
AcDbEntity
  8
0
390
0
  6
DOT
 62
     2
100
AcDbLine
 10
43.10092
 20
135.310338
 30
0.0
 11
44.46289
 21
135.310338
 31
0.0
  0
LINE
  5
344
100
AcDbEntity
  8
0
390
0
  6
DOT
 62
     2
100
AcDbLine
 10
44.462837
 20
139.510338
 30
0.0
 11
43.10092
 21
139.510338
 31
0.0
  0
LINE
  5
345
100
AcDbEntity
  8
0
390
0
  6
DOT
 62
     2
100
AcDbLine
 10
38.57588
 20
139.510338
 30
0.0
 11
38.3759
 21
139.510338
 31
0.0
  0
LINE
  5
346
100
AcDbEntity
  8
0
390
0
  6
DOT
 62
     2
100
AcDbLine
 10
38.3759
 20
139.510338
 30
0.0
 11
37.164116
 21
139.510338
 31
0.0
  0
LINE
  5
347
100
AcDbEntity
  8
0
390
0
  6
DOT
 62
     2
100
AcDbLine
 10
49.56296
 20
151.909088
 30
0.0
 11
49.56296
 21
150.589795
 31
0.0
  0
LINE
  5
348
100
AcDbEntity
  8
0
390
0
  6
DOT
 62
     2
100
AcDbLine
 10
49.56296
 20
150.589795
 30
0.0
 11
49.56296
 21
150.389815
 31
0.0
  0
LINE
  5
349
100
AcDbEntity
  8
0
390
0
  6
DOT
 62
     2
100
AcDbLine
 10
49.56296
 20
145.864775
 30
0.0
 11
49.56296
 21
144.610408
 31
0.0
  0
LINE
  5
34A
100
AcDbEntity
  8
0
390
0
  6
DOT
 62
     2
100
AcDbLine
 10
53.76296
 20
144.610461
 30
0.0
 11
53.76296
 21
145.864775
 31
0.0
  0
LINE
  5
34B
100
AcDbEntity
  8
0
390
0
  6
DOT
 62
     2
100
AcDbLine
 10
53.76296
 20
150.389815
 30
0.0
 11
53.76296
 21
150.589795
 31
0.0
  0
LINE
  5
34C
100
AcDbEntity
  8
0
390
0
  6
DOT
 62
     2
100
AcDbLine
 10
53.76296
 20
150.589795
 30
0.0
 11
53.76296
 21
151.909182
 31
0.0
  0
LINE
  5
34D
100
AcDbEntity
  8
0
390
0
  6
DOT
 62
     2
100
AcDbLine
 10
33.16296
 20
108.264795
 30
0.0
 11
33.56296
 21
107.864795
 31
0.0
  0
LINE
  5
34E
100
AcDbEntity
  8
0
390
0
  6
DOT
 62
     2
100
AcDbLine
 10
33.56296
 20
107.864795
 30
0.0
 11
34.41296
 21
107.014795
 31
0.0
  0
LINE
  5
34F
100
AcDbEntity
  8
0
390
0
  6
DOT
 62
     2
100
AcDbLine
 10
36.91296
 20
107.014795
 30
0.0
 11
37.76296
 21
107.864795
 31
0.0
  0
LINE
  5
350
100
AcDbEntity
  8
0
390
0
  6
DOT
 62
     2
100
AcDbLine
 10
37.76296
 20
107.864795
 30
0.0
 11
38.16296
 21
108.264795
 31
0.0
  0
LINE
  5
351
100
AcDbEntity
  8
0
390
0
  6
DOT
 62
     2
100
AcDbLine
 10
38.16296
 20
112.389795
 30
0.0
 11
37.76296
 21
112.589795
 31
0.0
  0
LINE
  5
352
100
AcDbEntity
  8
0
390
0
  6
DOT
 62
     2
100
AcDbLine
 10
37.76296
 20
112.589795
 30
0.0
 11
37.106335
 21
112.918107
 31
0.0
  0
LINE
  5
353
100
AcDbEntity
  8
0
390
0
  6
DOT
 62
     2
100
AcDbLine
 10
34.219584
 20
112.918107
 30
0.0
 11
33.56296
 21
112.589795
 31
0.0
  0
LINE
  5
354
100
AcDbEntity
  8
0
390
0
  6
DOT
 62
     2
100
AcDbLine
 10
33.56296
 20
112.589795
 30
0.0
 11
33.16296
 21
112.389795
 31
0.0
  0
LINE
  5
355
100
AcDbEntity
  8
0
390
0
  6
DOT
 62
     2
100
AcDbLine
 10
38.16296
 20
108.264795
 30
0.0
 11
38.16296
 21
112.389795
 31
0.0
  0
LINE
  5
356
100
AcDbEntity
  8
0
390
0
  6
DOT
 62
     2
100
AcDbLine
 10
33.16296
 20
112.389795
 30
0.0
 11
33.16296
 21
108.264795
 31
0.0
  0
LINE
  5
357
100
AcDbEntity
  8
0
390
0
  6
DOT
 62
     2
100
AcDbLine
 10
36.91296
 20
107.014795
 30
0.0
 11
35.66296
 21
107.737338
 31
0.0
  0
LINE
  5
358
100
AcDbEntity
  8
0
390
0
  6
DOT
 62
     2
100
AcDbLine
 10
35.66296
 20
107.737338
 30
0.0
 11
34.41296
 21
107.014795
 31
0.0
  0
LINE
  5
359
100
AcDbEntity
  8
0
390
0
  6
Continuous
 62
     7
100
AcDbLine
 10
62.66296
 20
116.910338
 30
0.0
 11
40.66296
 21
116.910338
 31
0.0
  0
LINE
  5
35A
100
AcDbEntity
  8
0
390
0
  6
Continuous
 62
     7
100
AcDbLine
 10
40.66296
 20
81.910338
 30
0.0
 11
62.66296
 21
81.910338
 31
0.0
  0
LINE
  5
35B
100
AcDbEntity
  8
0
390
0
  6
DOT
 62
     2
100
AcDbLine
 10
33.56296
 20
106.910338
 30
0.0
 11
33.162965
 21
106.910338
 31
0.0
  0
LINE
  5
35C
100
AcDbEntity
  8
0
390
0
  6
DOT
 62
     2
100
AcDbLine
 10
33.162965
 20
106.910338
 30
0.0
 11
30.66296
 21
106.910338
 31
0.0
  0
LINE
  5
35D
100
AcDbEntity
  8
0
390
0
  6
DOT
 62
     2
100
AcDbLine
 10
62.66296
 20
106.910338
 30
0.0
 11
38.162955
 21
106.910338
 31
0.0
  0
LINE
  5
35E
100
AcDbEntity
  8
0
390
0
  6
DOT
 62
     2
100
AcDbLine
 10
38.162955
 20
106.910338
 30
0.0
 11
37.76296
 21
106.910338
 31
0.0
  0
LINE
  5
35F
100
AcDbEntity
  8
0
390
0
  6
DOT
 62
     2
100
AcDbLine
 10
37.76296
 20
106.910338
 30
0.0
 11
37.762519
 21
106.910338
 31
0.0
  0
LINE
  5
360
100
AcDbEntity
  8
0
390
0
  6
DOT
 62
     2
100
AcDbLine
 10
30.66296
 20
91.910338
 30
0.0
 11
62.66296
 21
91.910338
 31
0.0
  0
LINE
  5
361
100
AcDbEntity
  8
0
390
0
  6
DOT
 62
     2
100
AcDbLine
 10
33.56296
 20
114.060338
 30
0.0
 11
33.56296
 21
112.589795
 31
0.0
  0
LINE
  5
362
100
AcDbEntity
  8
0
390
0
  6
DOT
 62
     2
100
AcDbLine
 10
33.56296
 20
112.589795
 30
0.0
 11
33.56296
 21
112.389815
 31
0.0
  0
LINE
  5
363
100
AcDbEntity
  8
0
390
0
  6
DOT
 62
     2
100
AcDbLine
 10
33.56296
 20
107.864775
 30
0.0
 11
33.56296
 21
106.910338
 31
0.0
  0
LINE
  5
364
100
AcDbEntity
  8
0
390
0
  6
DOT
 62
     2
100
AcDbLine
 10
37.76296
 20
106.910214
 30
0.0
 11
37.76296
 21
106.910338
 31
0.0
  0
LINE
  5
365
100
AcDbEntity
  8
0
390
0
  6
DOT
 62
     2
100
AcDbLine
 10
37.76296
 20
106.910338
 30
0.0
 11
37.76296
 21
107.864775
 31
0.0
  0
LINE
  5
366
100
AcDbEntity
  8
0
390
0
  6
DOT
 62
     2
100
AcDbLine
 10
37.76296
 20
112.589795
 30
0.0
 11
37.76296
 21
114.060338
 31
0.0
  0
LINE
  5
367
100
AcDbEntity
  8
0
390
0
  6
DOT
 62
     2
100
AcDbLine
 10
146.578593
 20
150.389795
 30
0.0
 11
141.578583
 21
150.389795
 31
0.0
  0
ARC
  5
368
100
AcDbEntity
  8
0
390
0
  6
DOT
 62
     2
100
AcDbCircle
 10
144.078588
 20
137.410338
 30
0.0
 40
2.1
210
0.0
220
0.0
230
1.0
100
AcDbArc
 50
354.02453
 51
360.0
  0
LINE
  5
369
100
AcDbEntity
  8
0
390
0
  6
DOT
 62
     2
100
AcDbLine
 10
162.578593
 20
112.389795
 30
0.0
 11
157.578583
 21
112.389795
 31
0.0
  0
LINE
  5
36A
100
AcDbEntity
  8
0
390
0
  6
DOT
 62
     2
100
AcDbLine
 10
162.578593
 20
112.389795
 30
0.0
 11
157.578583
 21
112.389795
 31
0.0
  0
LINE
  5
36B
100
AcDbEntity
  8
0
390
0
  6
DOT
 62
     2
100
AcDbLine
 10
173.165647
 20
96.910333
 30
0.0
 11
173.165647
 21
101.910343
 31
0.0
  0
LINE
  5
36C
100
AcDbEntity
  8
0
390
0
  6
DOT
 62
     2
100
AcDbLine
 10
173.165647
 20
101.510338
 30
0.0
 11
173.165647
 21
101.910343
 31
0.0
  0
LINE
  5
36D
100
AcDbEntity
  8
0
390
0
  6
DOT
 62
     2
100
AcDbLine
 10
173.165647
 20
96.910333
 30
0.0
 11
173.165647
 21
97.310338
 31
0.0
  0
ARC
  5
36E
100
AcDbEntity
  8
0
390
0
  6
Continuous
 62
     2
100
AcDbCircle
 10
144.080866
 20
166.478297
 30
0.0
 40
14.632707
210
0.0
220
0.0
230
1.0
100
AcDbArc
 50
261.703825
 51
279.828177
  0
LINE
  5
36F
100
AcDbEntity
  8
0
390
0
  6
Continuous
 62
     2
100
AcDbLine
 10
141.969511
 20
151.998715
 30
0.0
 11
141.578593
 21
152.060338
 31
0.0
  0
CIRCLE
  5
370
100
AcDbEntity
  8
0
390
0
  6
DOT
 62
     2
100
AcDbCircle
 10
144.078441
 20
137.411714
 30
0.0
 40
2.499854
210
0.0
220
0.0
230
1.0
  0
LINE
  5
371
100
AcDbEntity
  8
0
390
0
  6
DOT
 62
     2
100
AcDbLine
 10
174.513702
 20
96.910343
 30
0.0
 11
174.548093
 21
97.117761
 31
0.0
  0
LINE
  5
372
100
AcDbEntity
  8
0
390
0
  6
DOT
 62
     2
100
AcDbLine
 10
174.548178
 20
101.702382
 30
0.0
 11
174.513702
 21
101.910333
 31
0.0
  0
LINE
  5
373
100
AcDbEntity
  8
0
390
0
  6
DOT
 62
     2
100
AcDbLine
 10
167.149657
 20
96.910343
 30
0.0
 11
167.211099
 21
97.091441
 31
0.0
  0
LINE
  5
374
100
AcDbEntity
  8
0
390
0
  6
DOT
 62
     2
100
AcDbLine
 10
167.211142
 20
101.729104
 30
0.0
 11
167.149657
 21
101.910333
 31
0.0
  0
LINE
  5
375
100
AcDbEntity
  8
0
390
0
  6
DOT
 62
     2
100
AcDbLine
 10
146.578588
 20
150.389795
 30
0.0
 11
141.578588
 21
150.389795
 31
0.0
  0
LINE
  5
376
100
AcDbEntity
  8
0
390
0
  6
DOT
 62
     2
100
AcDbLine
 10
146.578588
 20
146.264795
 30
0.0
 11
141.578588
 21
146.264795
 31
0.0
  0
LINE
  5
377
100
AcDbEntity
  8
0
390
0
  6
DOT
 62
     2
100
AcDbLine
 10
145.328588
 20
145.014795
 30
0.0
 11
142.828588
 21
145.014795
 31
0.0
  0
LINE
  5
378
100
AcDbEntity
  8
0
390
0
  6
DOT
 62
     2
100
AcDbLine
 10
144.800276
 20
150.918107
 30
0.0
 11
144.800276
 21
150.389795
 31
0.0
  0
LINE
  5
379
100
AcDbEntity
  8
0
390
0
  6
DOT
 62
     2
100
AcDbLine
 10
144.800276
 20
150.389795
 30
0.0
 11
144.800276
 21
148.014795
 31
0.0
  0
LINE
  5
37A
100
AcDbEntity
  8
0
390
0
  6
DOT
 62
     2
100
AcDbLine
 10
143.3569
 20
150.918107
 30
0.0
 11
143.3569
 21
150.389795
 31
0.0
  0
LINE
  5
37B
100
AcDbEntity
  8
0
390
0
  6
DOT
 62
     2
100
AcDbLine
 10
143.3569
 20
150.389795
 30
0.0
 11
143.3569
 21
148.014795
 31
0.0
  0
LINE
  5
37C
100
AcDbEntity
  8
0
390
0
  6
DOT
 62
     2
100
AcDbLine
 10
143.3569
 20
148.014795
 30
0.0
 11
144.800276
 21
148.014795
 31
0.0
  0
LINE
  5
37D
100
AcDbEntity
  8
0
390
0
  6
DOT
 62
     2
100
AcDbLine
 10
144.800276
 20
148.014795
 30
0.0
 11
145.521963
 21
148.014795
 31
0.0
  0
LINE
  5
37E
100
AcDbEntity
  8
0
390
0
  6
DOT
 62
     2
100
AcDbLine
 10
142.635212
 20
148.014795
 30
0.0
 11
143.3569
 21
148.014795
 31
0.0
  0
LINE
  5
37F
100
AcDbEntity
  8
0
390
0
  6
DOT
 62
     2
100
AcDbLine
 10
145.521963
 20
150.918107
 30
0.0
 11
145.521963
 21
150.389795
 31
0.0
  0
LINE
  5
380
100
AcDbEntity
  8
0
390
0
  6
DOT
 62
     2
100
AcDbLine
 10
145.521963
 20
150.389795
 30
0.0
 11
145.521963
 21
148.014795
 31
0.0
  0
LINE
  5
381
100
AcDbEntity
  8
0
390
0
  6
DOT
 62
     2
100
AcDbLine
 10
142.635212
 20
150.918107
 30
0.0
 11
142.635212
 21
150.389795
 31
0.0
  0
LINE
  5
382
100
AcDbEntity
  8
0
390
0
  6
DOT
 62
     2
100
AcDbLine
 10
142.635212
 20
150.389795
 30
0.0
 11
142.635212
 21
148.014795
 31
0.0
  0
CIRCLE
  5
383
100
AcDbEntity
  8
0
390
0
  6
DOT
 62
     2
100
AcDbCircle
 10
144.078588
 20
137.410338
 30
0.0
 40
1.25
210
0.0
220
0.0
230
1.0
  0
ARC
  5
384
100
AcDbEntity
  8
0
390
0
  6
DOT
 62
     2
100
AcDbCircle
 10
144.078588
 20
137.410338
 30
0.0
 40
2.5
210
0.0
220
0.0
230
1.0
100
AcDbArc
 50
270.0
 51
272.019071
  0
ARC
  5
385
100
AcDbEntity
  8
0
390
0
  6
DOT
 62
     2
100
AcDbCircle
 10
144.078588
 20
137.410338
 30
0.0
 40
2.5
210
0.0
220
0.0
230
1.0
100
AcDbArc
 50
180.0
 51
188.418927
  0
LINE
  5
386
100
AcDbEntity
  8
0
390
0
  6
DOT
 62
     2
100
AcDbLine
 10
143.3569
 20
136.160338
 30
0.0
 11
142.635212
 21
137.410338
 31
0.0
  0
LINE
  5
387
100
AcDbEntity
  8
0
390
0
  6
DOT
 62
     2
100
AcDbLine
 10
142.635212
 20
137.410338
 30
0.0
 11
143.3569
 21
138.660338
 31
0.0
  0
LINE
  5
388
100
AcDbEntity
  8
0
390
0
  6
DOT
 62
     2
100
AcDbLine
 10
144.800276
 20
138.660338
 30
0.0
 11
145.521963
 21
137.410338
 31
0.0
  0
LINE
  5
389
100
AcDbEntity
  8
0
390
0
  6
DOT
 62
     2
100
AcDbLine
 10
145.521963
 20
137.410338
 30
0.0
 11
144.800276
 21
136.160338
 31
0.0
  0
LINE
  5
38A
100
AcDbEntity
  8
0
390
0
  6
DOT
 62
     2
100
AcDbLine
 10
144.800276
 20
136.160338
 30
0.0
 11
143.3569
 21
136.160338
 31
0.0
  0
LINE
  5
38B
100
AcDbEntity
  8
0
390
0
  6
DOT
 62
     2
100
AcDbLine
 10
143.3569
 20
138.660338
 30
0.0
 11
144.800276
 21
138.660338
 31
0.0
  0
LINE
  5
38C
100
AcDbEntity
  8
0
390
0
  6
Continuous
 62
     7
100
AcDbLine
 10
171.078588
 20
154.910338
 30
0.0
 11
171.078588
 21
119.910338
 31
0.0
  0
LINE
  5
38D
100
AcDbEntity
  8
0
390
0
  6
Continuous
 62
     7
100
AcDbLine
 10
149.078588
 20
154.910338
 30
0.0
 11
149.078588
 21
119.910338
 31
0.0
  0
CIRCLE
  5
38E
100
AcDbEntity
  8
0
390
0
  6
DOT
 62
     2
100
AcDbCircle
 10
144.078554
 20
137.411212
 30
0.0
 40
2.099966
210
0.0
220
0.0
230
1.0
  0
LINE
  5
38F
100
AcDbEntity
  8
0
390
0
  6
DOT
 62
     2
100
AcDbLine
 10
162.578588
 20
108.264795
 30
0.0
 11
157.578588
 21
108.264795
 31
0.0
  0
LINE
  5
390
100
AcDbEntity
  8
0
390
0
  6
DOT
 62
     2
100
AcDbLine
 10
162.578588
 20
112.389795
 30
0.0
 11
157.578588
 21
112.389795
 31
0.0
  0
LINE
  5
391
100
AcDbEntity
  8
0
390
0
  6
DOT
 62
     2
100
AcDbLine
 10
161.328588
 20
113.014795
 30
0.0
 11
161.328588
 21
112.918107
 31
0.0
  0
LINE
  5
392
100
AcDbEntity
  8
0
390
0
  6
DOT
 62
     2
100
AcDbLine
 10
158.828588
 20
112.918107
 30
0.0
 11
158.828588
 21
113.014795
 31
0.0
  0
ARC
  5
393
100
AcDbEntity
  8
0
390
0
  6
DOT
 62
     2
100
AcDbCircle
 10
159.453588
 20
110.94103
 30
0.0
 40
2.073514
210
0.0
220
0.0
230
1.0
100
AcDbArc
 50
72.457045
 51
107.542955
  0
ARC
  5
394
100
AcDbEntity
  8
0
390
0
  6
DOT
 62
     2
100
AcDbCircle
 10
160.703588
 20
110.94103
 30
0.0
 40
2.073514
210
0.0
220
0.0
230
1.0
100
AcDbArc
 50
72.457045
 51
107.542955
  0
LINE
  5
395
100
AcDbEntity
  8
0
390
0
  6
DOT
 62
     2
100
AcDbLine
 10
160.078588
 20
112.918107
 30
0.0
 11
160.078588
 21
112.389795
 31
0.0
  0
LINE
  5
396
100
AcDbEntity
  8
0
390
0
  6
DOT
 62
     2
100
AcDbLine
 10
160.078588
 20
112.389795
 30
0.0
 11
160.078588
 21
110.014795
 31
0.0
  0
LINE
  5
397
100
AcDbEntity
  8
0
390
0
  6
DOT
 62
     2
100
AcDbLine
 10
158.828588
 20
110.014795
 30
0.0
 11
160.078588
 21
110.014795
 31
0.0
  0
LINE
  5
398
100
AcDbEntity
  8
0
390
0
  6
DOT
 62
     2
100
AcDbLine
 10
160.078588
 20
110.014795
 30
0.0
 11
161.328588
 21
110.014795
 31
0.0
  0
LINE
  5
399
100
AcDbEntity
  8
0
390
0
  6
DOT
 62
     2
100
AcDbLine
 10
161.328588
 20
112.918107
 30
0.0
 11
161.328588
 21
112.389795
 31
0.0
  0
LINE
  5
39A
100
AcDbEntity
  8
0
390
0
  6
DOT
 62
     2
100
AcDbLine
 10
161.328588
 20
112.389795
 30
0.0
 11
161.328588
 21
110.014795
 31
0.0
  0
LINE
  5
39B
100
AcDbEntity
  8
0
390
0
  6
DOT
 62
     2
100
AcDbLine
 10
158.828588
 20
112.918107
 30
0.0
 11
158.828588
 21
112.389795
 31
0.0
  0
LINE
  5
39C
100
AcDbEntity
  8
0
390
0
  6
DOT
 62
     2
100
AcDbLine
 10
158.828588
 20
112.389795
 30
0.0
 11
158.828588
 21
110.014795
 31
0.0
  0
LINE
  5
39D
100
AcDbEntity
  8
0
390
0
  6
DOT
 62
     2
100
AcDbLine
 10
169.040647
 20
96.910338
 30
0.0
 11
169.040647
 21
101.910338
 31
0.0
  0
LINE
  5
39E
100
AcDbEntity
  8
0
390
0
  6
DOT
 62
     2
100
AcDbLine
 10
173.165647
 20
96.910338
 30
0.0
 11
173.165647
 21
101.910338
 31
0.0
  0
LINE
  5
39F
100
AcDbEntity
  8
0
390
0
  6
DOT
 62
     2
100
AcDbLine
 10
170.790647
 20
100.660338
 30
0.0
 11
170.790647
 21
99.410338
 31
0.0
  0
LINE
  5
3A0
100
AcDbEntity
  8
0
390
0
  6
DOT
 62
     2
100
AcDbLine
 10
170.790647
 20
99.410338
 30
0.0
 11
170.790647
 21
98.160338
 31
0.0
  0
LINE
  5
3A1
100
AcDbEntity
  8
0
390
0
  6
DOT
 62
     2
100
AcDbLine
 10
173.693959
 20
99.410338
 30
0.0
 11
173.165647
 21
99.410338
 31
0.0
  0
LINE
  5
3A2
100
AcDbEntity
  8
0
390
0
  6
DOT
 62
     2
100
AcDbLine
 10
173.165647
 20
99.410338
 30
0.0
 11
170.790647
 21
99.410338
 31
0.0
  0
LINE
  5
3A3
100
AcDbEntity
  8
0
390
0
  6
DOT
 62
     2
100
AcDbLine
 10
173.693959
 20
98.160338
 30
0.0
 11
173.165647
 21
98.160338
 31
0.0
  0
LINE
  5
3A4
100
AcDbEntity
  8
0
390
0
  6
DOT
 62
     2
100
AcDbLine
 10
173.165647
 20
98.160338
 30
0.0
 11
170.790647
 21
98.160338
 31
0.0
  0
LINE
  5
3A5
100
AcDbEntity
  8
0
390
0
  6
DOT
 62
     2
100
AcDbLine
 10
173.693959
 20
100.660338
 30
0.0
 11
173.165647
 21
100.660338
 31
0.0
  0
LINE
  5
3A6
100
AcDbEntity
  8
0
390
0
  6
DOT
 62
     2
100
AcDbLine
 10
173.165647
 20
100.660338
 30
0.0
 11
170.790647
 21
100.660338
 31
0.0
  0
CIRCLE
  5
3A7
100
AcDbEntity
  8
0
390
0
  6
Continuous
 62
     7
100
AcDbCircle
 10
160.078588
 20
99.410338
 30
0.0
 40
14.55
210
0.0
220
0.0
230
1.0
  0
CIRCLE
  5
3A8
100
AcDbEntity
  8
0
390
0
  6
Continuous
 62
     7
100
AcDbCircle
 10
160.078588
 20
99.410338
 30
0.0
 40
17.5
210
0.0
220
0.0
230
1.0
  0
CIRCLE
  5
3A9
100
AcDbEntity
  8
0
390
0
  6
Continuous
 62
     7
100
AcDbCircle
 10
160.078588
 20
99.410338
 30
0.0
 40
7.5
210
0.0
220
0.0
230
1.0
  0
LINE
  5
3AA
100
AcDbEntity
  8
0
390
0
  6
DOT
 62
     2
100
AcDbLine
 10
146.178588
 20
145.864795
 30
0.0
 11
146.178588
 21
150.389795
 31
0.0
  0
LINE
  5
3AB
100
AcDbEntity
  8
0
390
0
  6
DOT
 62
     2
100
AcDbLine
 10
141.978588
 20
150.389795
 30
0.0
 11
141.978588
 21
145.864795
 31
0.0
  0
LINE
  5
3AC
100
AcDbEntity
  8
0
390
0
  6
DOT
 62
     2
100
AcDbLine
 10
162.178588
 20
107.864795
 30
0.0
 11
162.178588
 21
112.389795
 31
0.0
  0
LINE
  5
3AD
100
AcDbEntity
  8
0
390
0
  6
DOT
 62
     2
100
AcDbLine
 10
157.978588
 20
112.389795
 30
0.0
 11
157.978588
 21
107.864795
 31
0.0
  0
LINE
  5
3AE
100
AcDbEntity
  8
0
390
0
  6
DOT
 62
     2
100
AcDbLine
 10
168.640647
 20
97.310338
 30
0.0
 11
173.165647
 21
97.310338
 31
0.0
  0
LINE
  5
3AF
100
AcDbEntity
  8
0
390
0
  6
DOT
 62
     2
100
AcDbLine
 10
173.165647
 20
101.510338
 30
0.0
 11
168.640647
 21
101.510338
 31
0.0
  0
LINE
  5
3B0
100
AcDbEntity
  8
0
390
0
  6
DOT
 62
     2
100
AcDbLine
 10
141.578593
 20
152.060338
 30
0.0
 11
141.578593
 21
150.389814
 31
0.0
  0
LINE
  5
3B1
100
AcDbEntity
  8
0
390
0
  6
DOT
 62
     2
100
AcDbLine
 10
141.578593
 20
146.264775
 30
0.0
 11
141.578593
 21
144.910338
 31
0.0
  0
LINE
  5
3B2
100
AcDbEntity
  8
0
390
0
  6
DOT
 62
     2
100
AcDbLine
 10
146.578583
 20
146.26479
 30
0.0
 11
146.578583
 21
150.389797
 31
0.0
  0
LINE
  5
3B3
100
AcDbEntity
  8
0
390
0
  6
DOT
 62
     2
100
AcDbLine
 10
146.578583
 20
150.389814
 30
0.0
 11
146.578583
 21
152.060338
 31
0.0
  0
LINE
  5
3B4
100
AcDbEntity
  8
0
390
0
  6
DOT
 62
     2
100
AcDbLine
 10
157.578593
 20
113.845648
 30
0.0
 11
157.578593
 21
113.845453
 31
0.0
  0
LINE
  5
3B5
100
AcDbEntity
  8
0
390
0
  6
DOT
 62
     2
100
AcDbLine
 10
157.578593
 20
113.845453
 30
0.0
 11
157.578593
 21
113.743954
 31
0.0
  0
LINE
  5
3B6
100
AcDbEntity
  8
0
390
0
  6
DOT
 62
     2
100
AcDbLine
 10
157.578593
 20
112.389797
 30
0.0
 11
157.578593
 21
108.264795
 31
0.0
  0
LINE
  5
3B7
100
AcDbEntity
  8
0
390
0
  6
DOT
 62
     2
100
AcDbLine
 10
157.578593
 20
108.264775
 30
0.0
 11
157.578593
 21
106.481818
 31
0.0
  0
LINE
  5
3B8
100
AcDbEntity
  8
0
390
0
  6
DOT
 62
     2
100
AcDbLine
 10
162.578583
 20
106.481408
 30
0.0
 11
162.578583
 21
108.264775
 31
0.0
  0
LINE
  5
3B9
100
AcDbEntity
  8
0
390
0
  6
DOT
 62
     2
100
AcDbLine
 10
162.578583
 20
108.264795
 30
0.0
 11
162.578583
 21
112.389797
 31
0.0
  0
LINE
  5
3BA
100
AcDbEntity
  8
0
390
0
  6
DOT
 62
     2
100
AcDbLine
 10
162.578583
 20
113.743954
 30
0.0
 11
162.578583
 21
113.845453
 31
0.0
  0
LINE
  5
3BB
100
AcDbEntity
  8
0
390
0
  6
DOT
 62
     2
100
AcDbLine
 10
174.513702
 20
101.910333
 30
0.0
 11
174.412203
 21
101.910333
 31
0.0
  0
LINE
  5
3BC
100
AcDbEntity
  8
0
390
0
  6
DOT
 62
     2
100
AcDbLine
 10
173.16565
 20
101.910333
 30
0.0
 11
169.040642
 21
101.910333
 31
0.0
  0
LINE
  5
3BD
100
AcDbEntity
  8
0
390
0
  6
DOT
 62
     2
100
AcDbLine
 10
169.040628
 20
101.910333
 30
0.0
 11
167.149657
 21
101.910333
 31
0.0
  0
LINE
  5
3BE
100
AcDbEntity
  8
0
390
0
  6
DOT
 62
     2
100
AcDbLine
 10
167.149725
 20
96.910343
 30
0.0
 11
169.040628
 21
96.910343
 31
0.0
  0
LINE
  5
3BF
100
AcDbEntity
  8
0
390
0
  6
DOT
 62
     2
100
AcDbLine
 10
169.040642
 20
96.910343
 30
0.0
 11
173.16565
 21
96.910343
 31
0.0
  0
LINE
  5
3C0
100
AcDbEntity
  8
0
390
0
  6
DOT
 62
     2
100
AcDbLine
 10
173.165667
 20
96.910343
 30
0.0
 11
174.412203
 21
96.910343
 31
0.0
  0
LINE
  5
3C1
100
AcDbEntity
  8
0
390
0
  6
DOT
 62
     2
100
AcDbLine
 10
174.412203
 20
96.910343
 30
0.0
 11
174.513702
 21
96.910343
 31
0.0
  0
LINE
  5
3C2
100
AcDbEntity
  8
0
390
0
  6
DOT
 62
     2
100
AcDbLine
 10
146.578588
 20
150.389795
 30
0.0
 11
146.178588
 21
150.589795
 31
0.0
  0
LINE
  5
3C3
100
AcDbEntity
  8
0
390
0
  6
DOT
 62
     2
100
AcDbLine
 10
146.178588
 20
150.589795
 30
0.0
 11
145.521963
 21
150.918107
 31
0.0
  0
LINE
  5
3C4
100
AcDbEntity
  8
0
390
0
  6
DOT
 62
     2
100
AcDbLine
 10
142.635212
 20
150.918107
 30
0.0
 11
141.978588
 21
150.589795
 31
0.0
  0
LINE
  5
3C5
100
AcDbEntity
  8
0
390
0
  6
DOT
 62
     2
100
AcDbLine
 10
141.978588
 20
150.589795
 30
0.0
 11
141.578588
 21
150.389795
 31
0.0
  0
LINE
  5
3C6
100
AcDbEntity
  8
0
390
0
  6
DOT
 62
     2
100
AcDbLine
 10
146.578588
 20
146.264795
 30
0.0
 11
146.578588
 21
150.389795
 31
0.0
  0
LINE
  5
3C7
100
AcDbEntity
  8
0
390
0
  6
DOT
 62
     2
100
AcDbLine
 10
141.578588
 20
150.389795
 30
0.0
 11
141.578588
 21
146.264795
 31
0.0
  0
LINE
  5
3C8
100
AcDbEntity
  8
0
390
0
  6
DOT
 62
     2
100
AcDbLine
 10
141.578588
 20
146.264795
 30
0.0
 11
141.978588
 21
145.864795
 31
0.0
  0
LINE
  5
3C9
100
AcDbEntity
  8
0
390
0
  6
DOT
 62
     2
100
AcDbLine
 10
141.978588
 20
145.864795
 30
0.0
 11
142.828588
 21
145.014795
 31
0.0
  0
LINE
  5
3CA
100
AcDbEntity
  8
0
390
0
  6
DOT
 62
     2
100
AcDbLine
 10
145.328588
 20
145.014795
 30
0.0
 11
146.178588
 21
145.864795
 31
0.0
  0
LINE
  5
3CB
100
AcDbEntity
  8
0
390
0
  6
DOT
 62
     2
100
AcDbLine
 10
146.178588
 20
145.864795
 30
0.0
 11
146.578588
 21
146.264795
 31
0.0
  0
LINE
  5
3CC
100
AcDbEntity
  8
0
390
0
  6
DOT
 62
     2
100
AcDbLine
 10
145.328588
 20
145.014795
 30
0.0
 11
144.078588
 21
145.737338
 31
0.0
  0
LINE
  5
3CD
100
AcDbEntity
  8
0
390
0
  6
DOT
 62
     2
100
AcDbLine
 10
144.078588
 20
145.737338
 30
0.0
 11
142.828588
 21
145.014795
 31
0.0
  0
LINE
  5
3CE
100
AcDbEntity
  8
0
390
0
  6
Continuous
 62
     7
100
AcDbLine
 10
171.078588
 20
154.910338
 30
0.0
 11
149.078588
 21
154.910338
 31
0.0
  0
LINE
  5
3CF
100
AcDbEntity
  8
0
390
0
  6
Continuous
 62
     7
100
AcDbLine
 10
149.078588
 20
119.910338
 30
0.0
 11
171.078588
 21
119.910338
 31
0.0
  0
LINE
  5
3D0
100
AcDbEntity
  8
0
390
0
  6
DOT
 62
     2
100
AcDbLine
 10
141.978588
 20
144.910338
 30
0.0
 11
141.578593
 21
144.910338
 31
0.0
  0
LINE
  5
3D1
100
AcDbEntity
  8
0
390
0
  6
DOT
 62
     2
100
AcDbLine
 10
141.578593
 20
144.910338
 30
0.0
 11
139.078588
 21
144.910338
 31
0.0
  0
LINE
  5
3D2
100
AcDbEntity
  8
0
390
0
  6
DOT
 62
     2
100
AcDbLine
 10
171.078588
 20
144.910338
 30
0.0
 11
146.578583
 21
144.910338
 31
0.0
  0
LINE
  5
3D3
100
AcDbEntity
  8
0
390
0
  6
DOT
 62
     2
100
AcDbLine
 10
146.578583
 20
144.910338
 30
0.0
 11
146.178588
 21
144.910338
 31
0.0
  0
LINE
  5
3D4
100
AcDbEntity
  8
0
390
0
  6
DOT
 62
     2
100
AcDbLine
 10
146.178588
 20
144.910338
 30
0.0
 11
146.178146
 21
144.910338
 31
0.0
  0
LINE
  5
3D5
100
AcDbEntity
  8
0
390
0
  6
DOT
 62
     2
100
AcDbLine
 10
139.078588
 20
129.910338
 30
0.0
 11
171.078588
 21
129.910338
 31
0.0
  0
LINE
  5
3D6
100
AcDbEntity
  8
0
390
0
  6
DOT
 62
     2
100
AcDbLine
 10
141.978588
 20
152.060338
 30
0.0
 11
141.978588
 21
150.589795
 31
0.0
  0
LINE
  5
3D7
100
AcDbEntity
  8
0
390
0
  6
DOT
 62
     2
100
AcDbLine
 10
141.978588
 20
150.589795
 30
0.0
 11
141.978588
 21
150.389815
 31
0.0
  0
LINE
  5
3D8
100
AcDbEntity
  8
0
390
0
  6
DOT
 62
     2
100
AcDbLine
 10
141.978588
 20
145.864775
 30
0.0
 11
141.978588
 21
144.910338
 31
0.0
  0
LINE
  5
3D9
100
AcDbEntity
  8
0
390
0
  6
DOT
 62
     2
100
AcDbLine
 10
146.178588
 20
144.910215
 30
0.0
 11
146.178588
 21
144.910338
 31
0.0
  0
LINE
  5
3DA
100
AcDbEntity
  8
0
390
0
  6
DOT
 62
     2
100
AcDbLine
 10
146.178588
 20
144.910338
 30
0.0
 11
146.178588
 21
145.864775
 31
0.0
  0
LINE
  5
3DB
100
AcDbEntity
  8
0
390
0
  6
DOT
 62
     2
100
AcDbLine
 10
146.178588
 20
150.589795
 30
0.0
 11
146.178588
 21
152.060338
 31
0.0
  0
LINE
  5
3DC
100
AcDbEntity
  8
0
390
0
  6
DOT
 62
     2
100
AcDbLine
 10
162.578588
 20
108.264795
 30
0.0
 11
162.578588
 21
112.389795
 31
0.0
  0
LINE
  5
3DD
100
AcDbEntity
  8
0
390
0
  6
DOT
 62
     2
100
AcDbLine
 10
157.578588
 20
112.389795
 30
0.0
 11
157.578588
 21
108.264795
 31
0.0
  0
LINE
  5
3DE
100
AcDbEntity
  8
0
390
0
  6
DOT
 62
     2
100
AcDbLine
 10
157.578588
 20
108.264795
 30
0.0
 11
157.978588
 21
107.864795
 31
0.0
  0
LINE
  5
3DF
100
AcDbEntity
  8
0
390
0
  6
DOT
 62
     2
100
AcDbLine
 10
157.978588
 20
107.864795
 30
0.0
 11
158.828588
 21
107.014795
 31
0.0
  0
LINE
  5
3E0
100
AcDbEntity
  8
0
390
0
  6
DOT
 62
     2
100
AcDbLine
 10
161.328588
 20
107.014795
 30
0.0
 11
162.178588
 21
107.864795
 31
0.0
  0
LINE
  5
3E1
100
AcDbEntity
  8
0
390
0
  6
DOT
 62
     2
100
AcDbLine
 10
162.178588
 20
107.864795
 30
0.0
 11
162.578588
 21
108.264795
 31
0.0
  0
LINE
  5
3E2
100
AcDbEntity
  8
0
390
0
  6
DOT
 62
     2
100
AcDbLine
 10
162.578588
 20
112.389795
 30
0.0
 11
162.178588
 21
112.589795
 31
0.0
  0
LINE
  5
3E3
100
AcDbEntity
  8
0
390
0
  6
DOT
 62
     2
100
AcDbLine
 10
162.178588
 20
112.589795
 30
0.0
 11
161.328588
 21
113.014795
 31
0.0
  0
LINE
  5
3E4
100
AcDbEntity
  8
0
390
0
  6
DOT
 62
     2
100
AcDbLine
 10
158.828588
 20
113.014795
 30
0.0
 11
157.978588
 21
112.589795
 31
0.0
  0
LINE
  5
3E5
100
AcDbEntity
  8
0
390
0
  6
DOT
 62
     2
100
AcDbLine
 10
157.978588
 20
112.589795
 30
0.0
 11
157.578588
 21
112.389795
 31
0.0
  0
LINE
  5
3E6
100
AcDbEntity
  8
0
390
0
  6
DOT
 62
     2
100
AcDbLine
 10
161.328588
 20
107.014795
 30
0.0
 11
160.078588
 21
107.737338
 31
0.0
  0
LINE
  5
3E7
100
AcDbEntity
  8
0
390
0
  6
DOT
 62
     2
100
AcDbLine
 10
160.078588
 20
107.737338
 30
0.0
 11
158.828588
 21
107.014795
 31
0.0
  0
LINE
  5
3E8
100
AcDbEntity
  8
0
390
0
  6
DOT
 62
     2
100
AcDbLine
 10
169.040647
 20
96.910338
 30
0.0
 11
173.165647
 21
96.910338
 31
0.0
  0
LINE
  5
3E9
100
AcDbEntity
  8
0
390
0
  6
DOT
 62
     2
100
AcDbLine
 10
173.165647
 20
101.910338
 30
0.0
 11
169.040647
 21
101.910338
 31
0.0
  0
LINE
  5
3EA
100
AcDbEntity
  8
0
390
0
  6
DOT
 62
     2
100
AcDbLine
 10
173.165647
 20
96.910338
 30
0.0
 11
173.365647
 21
97.310338
 31
0.0
  0
LINE
  5
3EB
100
AcDbEntity
  8
0
390
0
  6
DOT
 62
     2
100
AcDbLine
 10
173.365647
 20
97.310338
 30
0.0
 11
173.790647
 21
98.160338
 31
0.0
  0
LINE
  5
3EC
100
AcDbEntity
  8
0
390
0
  6
DOT
 62
     2
100
AcDbLine
 10
173.790647
 20
100.660338
 30
0.0
 11
173.365647
 21
101.510338
 31
0.0
  0
LINE
  5
3ED
100
AcDbEntity
  8
0
390
0
  6
DOT
 62
     2
100
AcDbLine
 10
173.365647
 20
101.510338
 30
0.0
 11
173.165647
 21
101.910338
 31
0.0
  0
LINE
  5
3EE
100
AcDbEntity
  8
0
390
0
  6
DOT
 62
     2
100
AcDbLine
 10
169.040647
 20
101.910338
 30
0.0
 11
168.640647
 21
101.510338
 31
0.0
  0
LINE
  5
3EF
100
AcDbEntity
  8
0
390
0
  6
DOT
 62
     2
100
AcDbLine
 10
168.640647
 20
101.510338
 30
0.0
 11
167.790647
 21
100.660338
 31
0.0
  0
LINE
  5
3F0
100
AcDbEntity
  8
0
390
0
  6
DOT
 62
     2
100
AcDbLine
 10
167.790647
 20
98.160338
 30
0.0
 11
168.640647
 21
97.310338
 31
0.0
  0
LINE
  5
3F1
100
AcDbEntity
  8
0
390
0
  6
DOT
 62
     2
100
AcDbLine
 10
168.640647
 20
97.310338
 30
0.0
 11
169.040647
 21
96.910338
 31
0.0
  0
LINE
  5
3F2
100
AcDbEntity
  8
0
390
0
  6
DOT
 62
     2
100
AcDbLine
 10
167.790647
 20
98.160338
 30
0.0
 11
168.513191
 21
99.410338
 31
0.0
  0
LINE
  5
3F3
100
AcDbEntity
  8
0
390
0
  6
DOT
 62
     2
100
AcDbLine
 10
168.513191
 20
99.410338
 30
0.0
 11
167.790647
 21
100.660338
 31
0.0
  0
LINE
  5
3F4
100
AcDbEntity
  8
0
390
0
  6
DOT
 62
     2
100
AcDbLine
 10
174.5773
 20
101.510338
 30
0.0
 11
173.365647
 21
101.510338
 31
0.0
  0
LINE
  5
3F5
100
AcDbEntity
  8
0
390
0
  6
DOT
 62
     2
100
AcDbLine
 10
173.365647
 20
101.510338
 30
0.0
 11
173.165667
 21
101.510338
 31
0.0
  0
LINE
  5
3F6
100
AcDbEntity
  8
0
390
0
  6
DOT
 62
     2
100
AcDbLine
 10
168.640627
 20
101.510338
 30
0.0
 11
167.278713
 21
101.510338
 31
0.0
  0
LINE
  5
3F7
100
AcDbEntity
  8
0
390
0
  6
DOT
 62
     2
100
AcDbLine
 10
167.27868
 20
97.310338
 30
0.0
 11
168.640627
 21
97.310338
 31
0.0
  0
LINE
  5
3F8
100
AcDbEntity
  8
0
390
0
  6
DOT
 62
     2
100
AcDbLine
 10
173.165667
 20
97.310338
 30
0.0
 11
173.365647
 21
97.310338
 31
0.0
  0
LINE
  5
3F9
100
AcDbEntity
  8
0
390
0
  6
DOT
 62
     2
100
AcDbLine
 10
173.365647
 20
97.310338
 30
0.0
 11
174.577329
 21
97.310338
 31
0.0
  0
LINE
  5
3FA
100
AcDbEntity
  8
0
390
0
  6
DOT
 62
     2
100
AcDbLine
 10
157.978588
 20
113.909051
 30
0.0
 11
157.978588
 21
112.589795
 31
0.0
  0
LINE
  5
3FB
100
AcDbEntity
  8
0
390
0
  6
DOT
 62
     2
100
AcDbLine
 10
157.978588
 20
112.589795
 30
0.0
 11
157.978588
 21
112.389815
 31
0.0
  0
LINE
  5
3FC
100
AcDbEntity
  8
0
390
0
  6
DOT
 62
     2
100
AcDbLine
 10
157.978588
 20
107.864775
 30
0.0
 11
157.978588
 21
106.610463
 31
0.0
  0
LINE
  5
3FD
100
AcDbEntity
  8
0
390
0
  6
DOT
 62
     2
100
AcDbLine
 10
162.178588
 20
106.610431
 30
0.0
 11
162.178588
 21
107.864775
 31
0.0
  0
LINE
  5
3FE
100
AcDbEntity
  8
0
390
0
  6
DOT
 62
     2
100
AcDbLine
 10
162.178588
 20
112.389815
 30
0.0
 11
162.178588
 21
112.589795
 31
0.0
  0
LINE
  5
3FF
100
AcDbEntity
  8
0
390
0
  6
DOT
 62
     2
100
AcDbLine
 10
162.178588
 20
112.589795
 30
0.0
 11
162.178588
 21
113.90908
 31
0.0
  0
LINE
  5
400
100
AcDbEntity
  8
0
390
0
  6
CENTER
 62
     1
100
AcDbLine
 10
32.16296
 20
137.410338
 30
0.0
 11
71.16296
 21
137.410338
 31
0.0
  0
LINE
  5
401
100
AcDbEntity
  8
0
390
0
  6
CENTER
 62
     1
100
AcDbLine
 10
51.66296
 20
117.910338
 30
0.0
 11
51.66296
 21
156.910338
 31
0.0
  0
LINE
  5
402
100
AcDbEntity
  8
0
390
0
  6
CENTER
 62
     1
100
AcDbLine
 10
140.578588
 20
99.410338
 30
0.0
 11
179.578588
 21
99.410338
 31
0.0
  0
LINE
  5
403
100
AcDbEntity
  8
0
390
0
  6
CENTER
 62
     1
100
AcDbLine
 10
160.078588
 20
79.910338
 30
0.0
 11
160.078588
 21
118.910338
 31
0.0
  0
LINE
  5
404
100
AcDbEntity
  8
0
390
0
  6
CENTER
 62
     1
100
AcDbLine
 10
28.66296
 20
99.410338
 30
0.0
 11
64.66296
 21
99.410338
 31
0.0
  0
LINE
  5
405
100
AcDbEntity
  8
0
390
0
  6
CENTER
 62
     1
100
AcDbLine
 10
137.078588
 20
137.410338
 30
0.0
 11
173.078588
 21
137.410338
 31
0.0
  0
DIMENSION
  5
406
100
AcDbEntity
  8
0
390
0
100
AcDbDimension
  2
*D12
 10
186.843118
 20
129.910338
 30
0.0
 11
183.211868
 21
137.410338
 31
0.0
 71
     5
 72
     1
 41
1.0
 42
0.0
  3
Standard
100
AcDbAlignedDimension
 13
171.078588
 23
129.910338
 33
0.0
 14
171.078588
 24
144.910338
 34
0.0
 50
90.0
100
AcDbRotatedDimension
1001
ACAD
1000
DSTYLE
1002
{
1070
    47
1040
0.018
1070
    71
1070
     1
1070
    48
1040
0.0
1070
    71
1070
     1
1070
     3
1000
%%c<>H8
1070
   271
1070
     1
1070
   179
1070
     1
1002
}
  0
DIMENSION
  5
419
100
AcDbEntity
  8
0
390
0
100
AcDbDimension
  2
*D13
 10
194.250972
 20
119.910338
 30
0.0
 11
190.941881
 21
137.410338
 31
0.0
 71
     5
 72
     1
 41
1.0
 42
0.0
  3
Standard
100
AcDbAlignedDimension
 13
171.078588
 23
119.910338
 33
0.0
 14
171.078588
 24
154.910338
 34
0.0
 50
90.0
100
AcDbRotatedDimension
1001
ACAD
1000
DSTYLE
1002
{
1070
     3
1000
%%c<>
1070
   271
1070
     1
1070
   179
1070
     1
1002
}
  0
DIMENSION
  5
42B
100
AcDbEntity
  8
0
390
0
100
AcDbDimension
  2
*D14
 10
171.078588
 20
174.627438
 30
0.0
 11
155.078588
 21
177.777438
 31
0.0
 71
     5
 72
     1
 41
1.0
 42
0.0
  3
Standard
100
AcDbAlignedDimension
 13
139.078588
 23
152.060338
 33
0.0
 14
171.078588
 24
154.910338
 34
0.0
100
AcDbRotatedDimension
1001
ACAD
1000
DSTYLE
1002
{
1070
   271
1070
     1
1070
   179
1070
     1
1002
}
  0
DIMENSION
  5
43D
100
AcDbEntity
  8
0
390
0
100
AcDbDimension
  2
*D15
 10
149.078588
 20
160.471625
 30
0.0
 11
160.078588
 21
163.613671
 31
0.0
 71
     5
 72
     1
 41
1.0
 42
0.0
  3
Standard
100
AcDbAlignedDimension
 13
149.078588
 23
154.910338
 33
0.0
 14
171.078588
 24
154.910338
 34
0.0
100
AcDbRotatedDimension
1001
ACAD
1000
DSTYLE
1002
{
1070
   271
1070
     1
1070
   179
1070
     1
1002
}
  0
LINE
  5
44F
100
AcDbEntity
  8
0
390
0
  6
CENTER
 62
     1
100
AcDbLine
 10
144.078588
 20
154.060338
 30
0.0
 11
144.078588
 21
142.910338
 31
0.0
  0
DIMENSION
  5
450
100
AcDbEntity
  8
0
390
0
100
AcDbDimension
  2
*D16
 10
171.078588
 20
168.028488
 30
0.0
 11
157.578588
 21
171.170533
 31
0.0
 71
     5
 72
     1
 41
1.0
 42
0.0
  3
Standard
100
AcDbAlignedDimension
 13
171.078588
 23
154.910338
 33
0.0
 14
144.078588
 24
154.060338
 34
0.0
100
AcDbRotatedDimension
1001
ACAD
1000
DSTYLE
1002
{
1070
   271
1070
     1
1070
   179
1070
     1
1002
}
  0
DIMENSION
  5
462
100
AcDbEntity
  8
0
390
0
100
AcDbDimension
  2
*D17
 10
51.66296
 20
157.960338
 30
0.0
 11
32.503623
 21
156.569675
 31
0.0
 70
     2
 71
     5
 72
     1
 41
1.0
 42
0.0
210
0.0
220
0.0
230
1.0
  3
Standard
100
AcDb2LineAngularDimension
 13
31.11296
 23
137.410338
 33
0.0
 14
26.882339
 24
137.410338
 34
0.0
 15
51.66296
 25
162.190959
 35
0.0
 16
34.882877
 26
154.190421
 36
0.0
1001
ACAD
1000
DSTYLE
1002
{
1070
   271
1070
     1
1070
   179
1070
     1
1002
}
  0
LINE
  5
474
100
AcDbEntity
  8
0
390
0
  6
Continuous
 62
     7
100
AcDbLine
 10
247.593991
 20
178.181716
 30
0.0
 11
248.430507
 21
178.311125
 31
0.0
  0
LINE
  5
475
100
AcDbEntity
  8
0
390
0
  6
Continuous
 62
     7
100
AcDbLine
 10
247.390971
 20
177.759695
 30
0.0
 11
247.593991
 21
178.181716
 31
0.0
  0
LINE
  5
476
100
AcDbEntity
  8
0
390
0
  6
Continuous
 62
     7
100
AcDbLine
 10
249.042879
 20
177.957572
 30
0.0
 11
248.947161
 21
177.79761
 31
0.0
  0
LINE
  5
477
100
AcDbEntity
  8
0
390
0
  6
Continuous
 62
     7
100
AcDbLine
 10
248.430507
 20
178.311125
 30
0.0
 11
249.042879
 21
177.957572
 31
0.0
  0
ELLIPSE
  5
478
100
AcDbEntity
  8
0
390
0
  6
Continuous
 62
     7
100
AcDbEllipse
 10
259.661493
 20
164.597112
 30
0.0
 11
5.250000000000032
 21
9.093266739736622
 31
-0.000000000000001
210
-0.0
220
0.0000000000000001
230
1.0
 40
0.57735
 41
5.4977871437821397
 42
6.2831853071795809
  0
ELLIPSE
  5
479
100
AcDbEntity
  8
0
390
0
  6
Continuous
 62
     7
100
AcDbEllipse
 10
259.661493
 20
164.597112
 30
0.0
 11
5.250000000000032
 21
9.093266739736622
 31
-0.0000000000000005
210
-0.0
220
0.0000000000000001
230
1.0
 40
0.57735
 41
3.1415926535897962
 42
5.4977871437821406
  0
ELLIPSE
  5
47A
100
AcDbEntity
  8
0
390
0
  6
Continuous
 62
     7
100
AcDbEllipse
 10
259.661493
 20
164.597112
 30
0.0
 11
5.250000000000032
 21
9.093266739736622
 31
-0.0000000000000005
210
-0.0
220
0.0000000000000001
230
1.0
 40
0.57735
 41
6.28318530717958
 42
9.4247779607693829
  0
ELLIPSE
  5
47B
100
AcDbEntity
  8
0
390
0
  6
Continuous
 62
     7
100
AcDbEllipse
 10
259.661493
 20
164.597112
 30
0.0
 11
4.3650000000000073
 21
7.5604017750381667
 31
-0.0000000000000008
210
-0.0
220
0.0000000000000001
230
1.0
 40
0.57735
 41
5.4977871437821397
 42
6.2831853071795862
  0
ELLIPSE
  5
47C
100
AcDbEntity
  8
0
390
0
  6
Continuous
 62
     7
100
AcDbEllipse
 10
259.661493
 20
164.597112
 30
0.0
 11
4.3650000000000073
 21
7.5604017750381667
 31
-0.0000000000000004
210
-0.0
220
0.0000000000000001
230
1.0
 40
0.57735
 41
3.1415926535897971
 42
5.4977871437821397
  0
ELLIPSE
  5
47D
100
AcDbEntity
  8
0
390
0
  6
Continuous
 62
     7
100
AcDbEllipse
 10
259.661493
 20
164.597112
 30
0.0
 11
4.3650000000000073
 21
7.5604017750381667
 31
-0.0000000000000004
210
-0.0
220
0.0000000000000001
230
1.0
 40
0.57735
 41
0.0
 42
3.1415926535897971
  0
ELLIPSE
  5
47E
100
AcDbEntity
  8
0
390
0
  6
Continuous
 62
     7
100
AcDbEllipse
 10
259.661493
 20
164.597112
 30
0.0
 11
2.2500000000000298
 21
3.8971143170299927
 31
-0.0000000000000002
210
-0.0
220
0.0000000000000001
230
1.0
 40
0.57735
 41
5.4977871437821459
 42
6.2831853071795836
  0
ELLIPSE
  5
47F
100
AcDbEntity
  8
0
390
0
  6
Continuous
 62
     7
100
AcDbEllipse
 10
259.661493
 20
164.597112
 30
0.0
 11
2.2500000000000298
 21
3.8971143170299927
 31
-0.0000000000000002
210
-0.0
220
0.0000000000000001
230
1.0
 40
0.57735
 41
3.1415926535898038
 42
5.4977871437821468
  0
ELLIPSE
  5
480
100
AcDbEntity
  8
0
390
0
  6
Continuous
 62
     7
100
AcDbEllipse
 10
259.661493
 20
164.597112
 30
0.0
 11
2.2500000000000298
 21
3.8971143170299927
 31
-0.0000000000000002
210
-0.0
220
0.0000000000000001
230
1.0
 40
0.57735
 41
6.2831853071795836
 42
9.4247779607693918
  0
LINE
  5
481
100
AcDbEntity
  8
0
390
0
  6
Continuous
 62
     7
100
AcDbLine
 10
268.171699
 20
149.613094
 30
0.0
 11
267.865512
 21
148.823945
 31
0.0
  0
LINE
  5
482
100
AcDbEntity
  8
0
390
0
  6
Continuous
 62
     7
100
AcDbLine
 10
267.865512
 20
150.04869
 30
0.0
 11
268.171699
 21
149.613094
 31
0.0
  0
LINE
  5
483
100
AcDbEntity
  8
0
390
0
  6
Continuous
 62
     7
100
AcDbLine
 10
267.25314
 20
148.470392
 30
0.0
 11
267.151426
 21
148.649593
 31
0.0
  0
LINE
  5
484
100
AcDbEntity
  8
0
390
0
  6
Continuous
 62
     7
100
AcDbLine
 10
267.865512
 20
148.823945
 30
0.0
 11
267.25314
 21
148.470392
 31
0.0
  0
LINE
  5
485
100
AcDbEntity
  8
0
390
0
  6
Continuous
 62
     7
100
AcDbLine
 10
267.865512
 20
148.823945
 30
0.0
 11
267.245481
 21
149.181921
 31
0.0
  0
ELLIPSE
  5
486
100
AcDbEntity
  8
0
390
0
  6
Continuous
 62
     7
100
AcDbEllipse
 10
250.327683
 20
145.98099
 30
0.0
 11
5.2499999999999769
 21
-9.093266739736622
 31
0.0000000000000005
210
0.0000000000000001
220
0.0000000000000001
230
1.0
 40
0.57735
 41
6.28318530717958
 42
7.0685834705770327
  0
ELLIPSE
  5
487
100
AcDbEntity
  8
0
390
0
  6
Continuous
 62
     7
100
AcDbEllipse
 10
250.327683
 20
145.98099
 30
0.0
 11
5.2499999999999769
 21
-9.093266739736622
 31
0.0000000000000005
210
0.0000000000000001
220
0.0000000000000001
230
1.0
 40
0.57735
 41
3.1415926535897949
 42
6.28318530717958
  0
ELLIPSE
  5
488
100
AcDbEntity
  8
0
390
0
  6
Continuous
 62
     7
100
AcDbEllipse
 10
259.661493
 20
151.369867
 30
0.0
 11
5.250000000000032
 21
-9.093266739736622
 31
0.0000000000000005
210
0.0000000000000001
220
0.0000000000000001
230
1.0
 40
0.57735
 41
0.0000000000000059
 42
0.7853981633974471
  0
ELLIPSE
  5
489
100
AcDbEntity
  8
0
390
0
  6
Continuous
 62
     7
100
AcDbEllipse
 10
259.661493
 20
151.369867
 30
0.0
 11
5.250000000000032
 21
-9.093266739736622
 31
0.0000000000000005
210
0.0000000000000001
220
0.0000000000000001
230
1.0
 40
0.57735
 41
0.7853981633974467
 42
2.0105164367635071
  0
ELLIPSE
  5
48A
100
AcDbEntity
  8
0
390
0
  6
Continuous
 62
     7
100
AcDbEllipse
 10
250.327683
 20
145.98099
 30
0.0
 11
5.2499999999999769
 21
-9.093266739736622
 31
0.0000000000000005
210
0.0000000000000001
220
0.0000000000000001
230
1.0
 40
0.57735
 41
0.7853981633974515
 42
3.1415926535897949
  0
ELLIPSE
  5
48B
100
AcDbEntity
  8
0
390
0
  6
Continuous
 62
     7
100
AcDbEllipse
 10
250.327683
 20
145.98099
 30
0.0
 11
4.3650000000000073
 21
-7.5604017750381391
 31
0.0000000000000004
210
0.0000000000000001
220
0.0000000000000001
230
1.0
 40
0.57735
 41
0.7853981633974474
 42
3.1415926535897958
  0
ELLIPSE
  5
48C
100
AcDbEntity
  8
0
390
0
  6
Continuous
 62
     7
100
AcDbEllipse
 10
250.327683
 20
145.98099
 30
0.0
 11
4.3650000000000073
 21
-7.5604017750381391
 31
0.0000000000000004
210
0.0000000000000001
220
0.0000000000000001
230
1.0
 40
0.57735
 41
6.2831853071795862
 42
7.0685834705770336
  0
ELLIPSE
  5
48D
100
AcDbEntity
  8
0
390
0
  6
Continuous
 62
     7
100
AcDbEllipse
 10
250.327683
 20
145.98099
 30
0.0
 11
4.3650000000000073
 21
-7.5604017750381391
 31
0.0000000000000004
210
0.0000000000000001
220
0.0000000000000001
230
1.0
 40
0.57735
 41
3.1415926535897958
 42
6.2831853071795862
  0
ELLIPSE
  5
48E
100
AcDbEntity
  8
0
390
0
  6
Continuous
 62
     7
100
AcDbEllipse
 10
250.327683
 20
145.98099
 30
0.0
 11
2.2499999999999742
 21
-3.8971143170299651
 31
0.0000000000000002
210
0.0000000000000001
220
0.0000000000000001
230
1.0
 40
0.57735
 41
0.7853981633974508
 42
3.1415926535897984
  0
ELLIPSE
  5
48F
100
AcDbEntity
  8
0
390
0
  6
Continuous
 62
     7
100
AcDbEllipse
 10
250.327683
 20
145.98099
 30
0.0
 11
2.2499999999999742
 21
-3.8971143170299651
 31
0.0000000000000002
210
0.0000000000000001
220
0.0000000000000001
230
1.0
 40
0.57735
 41
6.2831853071795836
 42
7.0685834705770363
  0
ELLIPSE
  5
490
100
AcDbEntity
  8
0
390
0
  6
Continuous
 62
     7
100
AcDbEllipse
 10
250.327683
 20
145.98099
 30
0.0
 11
2.2499999999999742
 21
-3.8971143170299651
 31
0.0000000000000002
210
0.0000000000000001
220
0.0000000000000001
230
1.0
 40
0.57735
 41
3.1415926535897989
 42
6.2831853071795836
  0
LINE
  5
491
100
AcDbEntity
  8
0
390
0
  6
Continuous
 62
     7
100
AcDbLine
 10
264.911493
 20
173.690379
 30
0.0
 11
255.577683
 21
179.079256
 31
0.0
  0
LINE
  5
492
100
AcDbEntity
  8
0
390
0
  6
Continuous
 62
     7
100
AcDbLine
 10
245.077683
 20
160.892723
 30
0.0
 11
254.411493
 21
155.503845
 31
0.0
  0
LINE
  5
493
100
AcDbEntity
  8
0
390
0
  6
Continuous
 62
     7
100
AcDbLine
 10
255.577683
 20
136.887723
 30
0.0
 11
264.911493
 21
142.276601
 31
0.0
  0
LINE
  5
494
100
AcDbEntity
  8
0
390
0
  6
Continuous
 62
     7
100
AcDbLine
 10
250.116623
 20
157.98349
 30
0.0
 11
245.077683
 21
155.074257
 31
0.0
  0
LINE
  5
495
100
AcDbEntity
  8
0
390
0
  6
Continuous
 62
     7
100
AcDbLine
 10
247.593991
 20
178.181716
 30
0.0
 11
247.593991
 21
177.683647
 31
0.0
  0
LINE
  5
496
100
AcDbEntity
  8
0
390
0
  6
Continuous
 62
     7
100
AcDbLine
 10
248.430507
 20
178.311125
 30
0.0
 11
248.430507
 21
177.647881
 31
0.0
  0
ELLIPSE
  5
497
100
AcDbEntity
  8
0
390
0
  6
Continuous
 62
     7
100
AcDbEllipse
 10
250.327683
 20
169.98599
 30
0.0
 11
5.250000000000032
 21
9.093266739736622
 31
-0.0000000000000005
210
-0.0
220
0.0000000000000001
230
1.0
 40
0.57735
 41
6.28318530717958
 42
9.4247779607693776
  0
LINE
  5
498
100
AcDbEntity
  8
0
390
0
  6
Continuous
 62
     7
100
AcDbLine
 10
268.171699
 20
149.613094
 30
0.0
 11
267.694713
 21
149.888482
 31
0.0
  0
INSERT
  5
4A1
100
AcDbEntity
  8
0
390
0
100
AcDbBlockReference
  2
AID1975
 10
0.0
 20
0.0
 30
0.0
  0
POINT
  5
4A2
100
AcDbEntity
  8
0
390
0
 62
     7
100
AcDbPoint
 10
165.940342
 20
90.705857
 30
0.0
  0
LINE
  5
4A3
100
AcDbEntity
  8
0
390
0
  6
DOT
 62
     2
100
AcDbLine
 10
37.9509
 20
138.660338
 30
0.0
 11
38.047588
 21
138.660338
 31
0.0
  0
LINE
  5
4A4
100
AcDbEntity
  8
0
390
0
  6
DOT
 62
     2
100
AcDbLine
 10
38.047588
 20
136.160338
 30
0.0
 11
37.9509
 21
136.160338
 31
0.0
  0
LINE
  5
4A5
100
AcDbEntity
  8
0
390
0
  6
DOT
 62
     2
100
AcDbLine
 10
36.91296
 20
107.014795
 30
0.0
 11
34.41296
 21
107.014795
 31
0.0
  0
LINE
  5
4A6
100
AcDbEntity
  8
0
390
0
  6
DOT
 62
     2
100
AcDbLine
 10
173.790647
 20
98.160338
 30
0.0
 11
173.693959
 21
98.160338
 31
0.0
  0
LINE
  5
4A7
100
AcDbEntity
  8
0
390
0
  6
DOT
 62
     2
100
AcDbLine
 10
173.693959
 20
100.660338
 30
0.0
 11
173.790647
 21
100.660338
 31
0.0
  0
LINE
  5
4A8
100
AcDbEntity
  8
0
390
0
  6
DOT
 62
     2
100
AcDbLine
 10
42.7009
 20
139.910338
 30
0.0
 11
38.5759
 21
139.910338
 31
0.0
  0
LINE
  5
4A9
100
AcDbEntity
  8
0
390
0
  6
DOT
 62
     2
100
AcDbLine
 10
38.5759
 20
134.910338
 30
0.0
 11
42.7009
 21
134.910338
 31
0.0
  0
ARC
  5
4AA
100
AcDbEntity
  8
0
390
0
  6
DOT
 62
     2
100
AcDbCircle
 10
40.023318
 20
136.785338
 30
0.0
 40
2.072229
210
0.0
220
0.0
230
1.0
100
AcDbArc
 50
162.445814
 51
197.554186
  0
ARC
  5
4AB
100
AcDbEntity
  8
0
390
0
  6
DOT
 62
     2
100
AcDbCircle
 10
40.023318
 20
138.035338
 30
0.0
 40
2.072229
210
0.0
220
0.0
230
1.0
100
AcDbArc
 50
162.445814
 51
197.554186
  0
LINE
  5
4AC
100
AcDbEntity
  8
0
390
0
  6
DOT
 62
     2
100
AcDbLine
 10
43.9509
 20
138.660338
 30
0.0
 11
43.9509
 21
136.160338
 31
0.0
  0
POLYLINE
  5
4AD
100
AcDbEntity
  8
0
390
0
  6
DOT
 62
     2
100
AcDb2dPolyline
 66
     1
 10
0.0
 20
0.0
 30
0.0
 40
0.1
 41
0.1
  0
VERTEX
  5
4AE
100
AcDbEntity
  8
0
390
0
 62
     2
100
AcDbVertex
100
AcDb2dVertex
 10
34.941272
 20
112.918107
 30
0.0
  0
VERTEX
  5
4AF
100
AcDbEntity
  8
0
390
0
 62
     2
100
AcDbVertex
100
AcDb2dVertex
 10
34.881715
 20
112.945965
 30
0.0
  0
VERTEX
  5
4B0
100
AcDbEntity
  8
0
390
0
 62
     2
100
AcDbVertex
100
AcDb2dVertex
 10
34.82173
 20
112.969831
 30
0.0
  0
VERTEX
  5
4B1
100
AcDbEntity
  8
0
390
0
 62
     2
100
AcDbVertex
100
AcDb2dVertex
 10
34.761005
 20
112.989226
 30
0.0
  0
VERTEX
  5
4B2
100
AcDbEntity
  8
0
390
0
 62
     2
100
AcDbVertex
100
AcDb2dVertex
 10
34.699927
 20
113.003473
 30
0.0
  0
VERTEX
  5
4B3
100
AcDbEntity
  8
0
390
0
 62
     2
100
AcDbVertex
100
AcDb2dVertex
 10
34.637206
 20
113.01221
 30
0.0
  0
VERTEX
  5
4B4
100
AcDbEntity
  8
0
390
0
 62
     2
100
AcDbVertex
100
AcDb2dVertex
 10
34.574347
 20
113.014765
 30
0.0
  0
VERTEX
  5
4B5
100
AcDbEntity
  8
0
390
0
 62
     2
100
AcDbVertex
100
AcDb2dVertex
 10
34.510879
 20
113.010926
 30
0.0
  0
VERTEX
  5
4B6
100
AcDbEntity
  8
0
390
0
 62
     2
100
AcDbVertex
100
AcDb2dVertex
 10
34.447582
 20
113.000832
 30
0.0
  0
VERTEX
  5
4B7
100
AcDbEntity
  8
0
390
0
 62
     2
100
AcDbVertex
100
AcDb2dVertex
 10
34.390252
 20
112.986502
 30
0.0
  0
VERTEX
  5
4B8
100
AcDbEntity
  8
0
390
0
 62
     2
100
AcDbVertex
100
AcDb2dVertex
 10
34.333157
 20
112.967658
 30
0.0
  0
VERTEX
  5
4B9
100
AcDbEntity
  8
0
390
0
 62
     2
100
AcDbVertex
100
AcDb2dVertex
 10
34.276205
 20
112.944685
 30
0.0
  0
VERTEX
  5
4BA
100
AcDbEntity
  8
0
390
0
 62
     2
100
AcDbVertex
100
AcDb2dVertex
 10
34.219584
 20
112.918107
 30
0.0
  0
SEQEND
  5
4BB
100
AcDbEntity
  8
0
390
0
  0
ARC
  5
4BC
100
AcDbEntity
  8
0
390
0
  6
DOT
 62
     2
100
AcDbCircle
 10
35.66296
 20
110.271124
 30
0.0
 40
2.743602
210
0.0
220
0.0
230
1.0
100
AcDbArc
 50
74.749246
 51
105.250754
  0
POLYLINE
  5
4BD
100
AcDbEntity
  8
0
390
0
  6
DOT
 62
     2
100
AcDb2dPolyline
 66
     1
 10
0.0
 20
0.0
 30
0.0
 40
0.1
 41
0.1
  0
VERTEX
  5
4BE
100
AcDbEntity
  8
0
390
0
 62
     2
100
AcDbVertex
100
AcDb2dVertex
 10
37.106335
 20
112.918107
 30
0.0
  0
VERTEX
  5
4BF
100
AcDbEntity
  8
0
390
0
 62
     2
100
AcDbVertex
100
AcDb2dVertex
 10
37.046779
 20
112.945965
 30
0.0
  0
VERTEX
  5
4C0
100
AcDbEntity
  8
0
390
0
 62
     2
100
AcDbVertex
100
AcDb2dVertex
 10
36.986793
 20
112.969831
 30
0.0
  0
VERTEX
  5
4C1
100
AcDbEntity
  8
0
390
0
 62
     2
100
AcDbVertex
100
AcDb2dVertex
 10
36.926068
 20
112.989226
 30
0.0
  0
VERTEX
  5
4C2
100
AcDbEntity
  8
0
390
0
 62
     2
100
AcDbVertex
100
AcDb2dVertex
 10
36.864991
 20
113.003473
 30
0.0
  0
VERTEX
  5
4C3
100
AcDbEntity
  8
0
390
0
 62
     2
100
AcDbVertex
100
AcDb2dVertex
 10
36.802269
 20
113.01221
 30
0.0
  0
VERTEX
  5
4C4
100
AcDbEntity
  8
0
390
0
 62
     2
100
AcDbVertex
100
AcDb2dVertex
 10
36.73941
 20
113.014765
 30
0.0
  0
VERTEX
  5
4C5
100
AcDbEntity
  8
0
390
0
 62
     2
100
AcDbVertex
100
AcDb2dVertex
 10
36.675943
 20
113.010926
 30
0.0
  0
VERTEX
  5
4C6
100
AcDbEntity
  8
0
390
0
 62
     2
100
AcDbVertex
100
AcDb2dVertex
 10
36.612645
 20
113.000832
 30
0.0
  0
VERTEX
  5
4C7
100
AcDbEntity
  8
0
390
0
 62
     2
100
AcDbVertex
100
AcDb2dVertex
 10
36.555316
 20
112.986502
 30
0.0
  0
VERTEX
  5
4C8
100
AcDbEntity
  8
0
390
0
 62
     2
100
AcDbVertex
100
AcDb2dVertex
 10
36.498221
 20
112.967658
 30
0.0
  0
VERTEX
  5
4C9
100
AcDbEntity
  8
0
390
0
 62
     2
100
AcDbVertex
100
AcDb2dVertex
 10
36.441268
 20
112.944685
 30
0.0
  0
VERTEX
  5
4CA
100
AcDbEntity
  8
0
390
0
 62
     2
100
AcDbVertex
100
AcDb2dVertex
 10
36.384648
 20
112.918107
 30
0.0
  0
SEQEND
  5
4CB
100
AcDbEntity
  8
0
390
0
  0
LINE
  5
4CC
100
AcDbEntity
  8
0
390
0
  6
DOT
 62
     2
100
AcDbLine
 10
54.162955
 20
150.389814
 30
0.0
 11
54.162955
 21
151.845453
 31
0.0
  0
LINE
  5
4CD
100
AcDbEntity
  8
0
390
0
  6
DOT
 62
     2
100
AcDbLine
 10
37.76296
 20
112.389815
 30
0.0
 11
37.76296
 21
112.589795
 31
0.0
  0
POLYLINE
  5
4CE
100
AcDbEntity
  8
0
390
0
  6
DOT
 62
     2
100
AcDb2dPolyline
 66
     1
 10
0.0
 20
0.0
 30
0.0
 40
0.1
 41
0.1
  0
VERTEX
  5
4CF
100
AcDbEntity
  8
0
390
0
 62
     2
100
AcDbVertex
100
AcDb2dVertex
 10
143.3569
 20
150.918107
 30
0.0
  0
VERTEX
  5
4D0
100
AcDbEntity
  8
0
390
0
 62
     2
100
AcDbVertex
100
AcDb2dVertex
 10
143.297343
 20
150.945965
 30
0.0
  0
VERTEX
  5
4D1
100
AcDbEntity
  8
0
390
0
 62
     2
100
AcDbVertex
100
AcDb2dVertex
 10
143.237358
 20
150.969831
 30
0.0
  0
VERTEX
  5
4D2
100
AcDbEntity
  8
0
390
0
 62
     2
100
AcDbVertex
100
AcDb2dVertex
 10
143.176633
 20
150.989226
 30
0.0
  0
VERTEX
  5
4D3
100
AcDbEntity
  8
0
390
0
 62
     2
100
AcDbVertex
100
AcDb2dVertex
 10
143.115555
 20
151.003473
 30
0.0
  0
VERTEX
  5
4D4
100
AcDbEntity
  8
0
390
0
 62
     2
100
AcDbVertex
100
AcDb2dVertex
 10
143.052834
 20
151.01221
 30
0.0
  0
VERTEX
  5
4D5
100
AcDbEntity
  8
0
390
0
 62
     2
100
AcDbVertex
100
AcDb2dVertex
 10
142.989975
 20
151.014765
 30
0.0
  0
VERTEX
  5
4D6
100
AcDbEntity
  8
0
390
0
 62
     2
100
AcDbVertex
100
AcDb2dVertex
 10
142.926507
 20
151.010926
 30
0.0
  0
VERTEX
  5
4D7
100
AcDbEntity
  8
0
390
0
 62
     2
100
AcDbVertex
100
AcDb2dVertex
 10
142.86321
 20
151.000832
 30
0.0
  0
VERTEX
  5
4D8
100
AcDbEntity
  8
0
390
0
 62
     2
100
AcDbVertex
100
AcDb2dVertex
 10
142.80588
 20
150.986502
 30
0.0
  0
VERTEX
  5
4D9
100
AcDbEntity
  8
0
390
0
 62
     2
100
AcDbVertex
100
AcDb2dVertex
 10
142.748785
 20
150.967658
 30
0.0
  0
VERTEX
  5
4DA
100
AcDbEntity
  8
0
390
0
 62
     2
100
AcDbVertex
100
AcDb2dVertex
 10
142.691833
 20
150.944685
 30
0.0
  0
VERTEX
  5
4DB
100
AcDbEntity
  8
0
390
0
 62
     2
100
AcDbVertex
100
AcDb2dVertex
 10
142.635212
 20
150.918107
 30
0.0
  0
SEQEND
  5
4DC
100
AcDbEntity
  8
0
390
0
  0
ARC
  5
4DD
100
AcDbEntity
  8
0
390
0
  6
DOT
 62
     2
100
AcDbCircle
 10
144.078588
 20
148.2727
 30
0.0
 40
2.742081
210
0.0
220
0.0
230
1.0
100
AcDbArc
 50
74.74058
 51
105.25942
  0
POLYLINE
  5
4DE
100
AcDbEntity
  8
0
390
0
  6
DOT
 62
     2
100
AcDb2dPolyline
 66
     1
 10
0.0
 20
0.0
 30
0.0
 40
0.1
 41
0.1
  0
VERTEX
  5
4DF
100
AcDbEntity
  8
0
390
0
 62
     2
100
AcDbVertex
100
AcDb2dVertex
 10
145.521963
 20
150.918107
 30
0.0
  0
VERTEX
  5
4E0
100
AcDbEntity
  8
0
390
0
 62
     2
100
AcDbVertex
100
AcDb2dVertex
 10
145.462407
 20
150.945965
 30
0.0
  0
VERTEX
  5
4E1
100
AcDbEntity
  8
0
390
0
 62
     2
100
AcDbVertex
100
AcDb2dVertex
 10
145.402421
 20
150.969831
 30
0.0
  0
VERTEX
  5
4E2
100
AcDbEntity
  8
0
390
0
 62
     2
100
AcDbVertex
100
AcDb2dVertex
 10
145.341696
 20
150.989226
 30
0.0
  0
VERTEX
  5
4E3
100
AcDbEntity
  8
0
390
0
 62
     2
100
AcDbVertex
100
AcDb2dVertex
 10
145.280619
 20
151.003473
 30
0.0
  0
VERTEX
  5
4E4
100
AcDbEntity
  8
0
390
0
 62
     2
100
AcDbVertex
100
AcDb2dVertex
 10
145.217897
 20
151.01221
 30
0.0
  0
VERTEX
  5
4E5
100
AcDbEntity
  8
0
390
0
 62
     2
100
AcDbVertex
100
AcDb2dVertex
 10
145.155038
 20
151.014765
 30
0.0
  0
VERTEX
  5
4E6
100
AcDbEntity
  8
0
390
0
 62
     2
100
AcDbVertex
100
AcDb2dVertex
 10
145.091571
 20
151.010926
 30
0.0
  0
VERTEX
  5
4E7
100
AcDbEntity
  8
0
390
0
 62
     2
100
AcDbVertex
100
AcDb2dVertex
 10
145.028273
 20
151.000832
 30
0.0
  0
VERTEX
  5
4E8
100
AcDbEntity
  8
0
390
0
 62
     2
100
AcDbVertex
100
AcDb2dVertex
 10
144.970944
 20
150.986502
 30
0.0
  0
VERTEX
  5
4E9
100
AcDbEntity
  8
0
390
0
 62
     2
100
AcDbVertex
100
AcDb2dVertex
 10
144.913849
 20
150.967658
 30
0.0
  0
VERTEX
  5
4EA
100
AcDbEntity
  8
0
390
0
 62
     2
100
AcDbVertex
100
AcDb2dVertex
 10
144.856896
 20
150.944685
 30
0.0
  0
VERTEX
  5
4EB
100
AcDbEntity
  8
0
390
0
 62
     2
100
AcDbVertex
100
AcDb2dVertex
 10
144.800276
 20
150.918107
 30
0.0
  0
SEQEND
  5
4EC
100
AcDbEntity
  8
0
390
0
  0
ARC
  5
4ED
100
AcDbEntity
  8
0
390
0
  6
DOT
 62
     2
100
AcDbCircle
 10
144.078588
 20
152.111288
 30
0.0
 40
7.500911
210
0.0
220
0.0
230
1.0
100
AcDbArc
 50
253.741826
 51
286.258174
  0
ARC
  5
4EE
100
AcDbEntity
  8
0
390
0
  6
DOT
 62
     2
100
AcDbCircle
 10
171.71823
 20
100.035338
 30
0.0
 40
2.072229
210
0.0
220
0.0
230
1.0
100
AcDbArc
 50
342.445814
 51
17.554186
  0
ARC
  5
4EF
100
AcDbEntity
  8
0
390
0
  6
DOT
 62
     2
100
AcDbCircle
 10
171.71823
 20
98.785338
 30
0.0
 40
2.072229
210
0.0
220
0.0
230
1.0
100
AcDbArc
 50
342.445814
 51
17.554186
  0
LINE
  5
4F0
100
AcDbEntity
  8
0
390
0
  6
DOT
 62
     2
100
AcDbLine
 10
167.790647
 20
98.160338
 30
0.0
 11
167.790647
 21
100.660338
 31
0.0
  0
LINE
  5
4F1
100
AcDbEntity
  8
0
390
0
  6
DOT
 62
     2
100
AcDbLine
 10
146.178588
 20
150.389815
 30
0.0
 11
146.178588
 21
150.589795
 31
0.0
  0
ARC
  5
4F2
100
AcDbEntity
  8
0
390
0
  6
DOT
 62
     2
100
AcDbCircle
 10
35.66296
 20
113.982104
 30
0.0
 40
7.500657
210
0.0
220
0.0
230
1.0
100
AcDbArc
 50
250.530593
 51
289.469407
  0
LINE
  5
4F3
100
AcDbEntity
  8
0
390
0
  6
DOT
 62
     2
100
AcDbLine
 10
34.219584
 20
112.918107
 30
0.0
 11
34.277648
 21
112.945316
 31
0.0
  0
LINE
  5
4F4
100
AcDbEntity
  8
0
390
0
  6
DOT
 62
     2
100
AcDbLine
 10
141.578593
 20
144.910338
 30
0.0
 11
141.578593
 21
144.909965
 31
0.0
  0
LINE
  5
4F5
100
AcDbEntity
  8
0
390
0
  6
DOT
 62
     2
100
AcDbLine
 10
146.578583
 20
144.910338
 30
0.0
 11
146.578583
 21
146.264775
 31
0.0
  0
LINE
  5
4F6
100
AcDbEntity
  8
0
390
0
  6
DOT
 62
     2
100
AcDbLine
 10
38.5759
 20
139.910343
 30
0.0
 11
38.5759
 21
134.910333
 31
0.0
  0
LINE
  5
4F7
100
AcDbEntity
  8
0
390
0
  6
DOT
 62
     2
100
AcDbLine
 10
35.66296
 20
112.389795
 30
0.0
 11
33.162955
 21
112.389795
 31
0.0
  0
LINE
  5
4F8
100
AcDbEntity
  8
0
390
0
  6
DOT
 62
     2
100
AcDbLine
 10
38.162965
 20
112.389795
 30
0.0
 11
33.162955
 21
112.389795
 31
0.0
  0
LINE
  5
4F9
100
AcDbEntity
  8
0
390
0
  6
DOT
 62
     2
100
AcDbLine
 10
38.162965
 20
112.389795
 30
0.0
 11
37.76296
 21
112.389795
 31
0.0
  0
ARC
  5
4FA
100
AcDbEntity
  8
0
390
0
  6
DOT
 62
     2
100
AcDbCircle
 10
35.66296
 20
99.410338
 30
0.0
 40
2.1
210
0.0
220
0.0
230
1.0
100
AcDbArc
 50
0.0
 51
2.323324
  0
ARC
  5
4FB
100
AcDbEntity
  8
0
390
0
  6
DOT
 62
     2
100
AcDbCircle
 10
35.66296
 20
99.410338
 30
0.0
 40
2.1
210
0.0
220
0.0
230
1.0
100
AcDbArc
 50
354.397469
 51
0.0
  0
ARC
  5
4FC
100
AcDbEntity
  8
0
390
0
  6
DOT
 62
     2
100
AcDbCircle
 10
51.66296
 20
137.410338
 30
0.0
 40
14.55
210
0.0
220
0.0
230
1.0
100
AcDbArc
 50
170.106289
 51
180.0
  0
ARC
  5
4FD
100
AcDbEntity
  8
0
390
0
  6
DOT
 62
     2
100
AcDbCircle
 10
51.66296
 20
137.410338
 30
0.0
 40
14.55
210
0.0
220
0.0
230
1.0
100
AcDbArc
 50
99.893711
 51
170.106289
  0
ARC
  5
4FE
100
AcDbEntity
  8
0
390
0
  6
DOT
 62
     2
100
AcDbCircle
 10
51.66296
 20
137.410338
 30
0.0
 40
14.55
210
0.0
220
0.0
230
1.0
100
AcDbArc
 50
90.000704
 51
99.893711
  0
ARC
  5
4FF
100
AcDbEntity
  8
0
390
0
  6
DOT
 62
     2
100
AcDbCircle
 10
51.66296
 20
137.410338
 30
0.0
 40
14.55
210
0.0
220
0.0
230
1.0
100
AcDbArc
 50
88.502683
 51
90.000704
  0
ARC
  5
500
100
AcDbEntity
  8
0
390
0
  6
DOT
 62
     2
100
AcDbCircle
 10
51.66296
 20
137.410338
 30
0.0
 40
14.55
210
0.0
220
0.0
230
1.0
100
AcDbArc
 50
80.106289
 51
88.502683
  0
ARC
  5
501
100
AcDbEntity
  8
0
390
0
  6
DOT
 62
     2
100
AcDbCircle
 10
51.66296
 20
137.410338
 30
0.0
 40
14.55
210
0.0
220
0.0
230
1.0
100
AcDbArc
 50
189.893711
 51
80.106289
  0
ARC
  5
502
100
AcDbEntity
  8
0
390
0
  6
DOT
 62
     2
100
AcDbCircle
 10
51.66296
 20
137.410338
 30
0.0
 40
14.55
210
0.0
220
0.0
230
1.0
100
AcDbArc
 50
180.0
 51
189.893711
  0
CIRCLE
  5
503
100
AcDbEntity
  8
0
390
0
  6
Continuous
 62
     7
100
AcDbCircle
 10
51.66296
 20
137.410338
 30
0.0
 40
14.65
210
0.0
220
0.0
230
1.0
  0
CIRCLE
  5
504
100
AcDbEntity
  8
0
390
0
  6
DOT
 62
     2
100
AcDbCircle
 10
51.66296
 20
137.410338
 30
0.0
 40
14.55
210
0.0
220
0.0
230
1.0
  0
LINE
  5
505
100
AcDbEntity
  8
0
390
0
  6
Continuous
 62
     7
100
AcDbLine
 10
30.66296
 20
114.060338
 30
0.0
 11
30.66296
 21
84.760338
 31
0.0
  0
ARC
  5
506
100
AcDbEntity
  8
0
390
0
  6
Continuous
 62
     7
100
AcDbCircle
 10
35.662887
 20
128.558261
 30
0.0
 40
14.649214
210
0.0
220
0.0
230
1.0
100
AcDbArc
 50
261.758405
 51
278.186203
  0
LINE
  5
507
100
AcDbEntity
  8
0
390
0
  6
DOT
 62
     2
100
AcDbLine
 10
37.756169
 20
114.059367
 30
0.0
 11
37.739049
 21
114.05693
 31
0.0
  0
LINE
  5
508
100
AcDbEntity
  8
0
390
0
  6
Continuous
 62
     7
100
AcDbLine
 10
37.748797
 20
114.058315
 30
0.0
 11
37.76296
 21
114.060338
 31
0.0
  0
LINE
  5
509
100
AcDbEntity
  8
0
390
0
  6
Continuous
 62
     7
100
AcDbLine
 10
33.563435
 20
114.060338
 30
0.0
 11
33.56296
 21
114.060338
 31
0.0
  0
LINE
  5
50A
100
AcDbEntity
  8
0
390
0
  6
DOT
 62
     2
100
AcDbLine
 10
33.56296
 20
114.060338
 30
0.0
 11
33.163727
 21
114.060338
 31
0.0
  0
LINE
  5
50B
100
AcDbEntity
  8
0
390
0
  6
DOT
 62
     2
100
AcDbLine
 10
33.163727
 20
114.060338
 30
0.0
 11
33.16328
 21
114.060338
 31
0.0
  0
LINE
  5
50C
100
AcDbEntity
  8
0
390
0
  6
DOT
 62
     2
100
AcDbLine
 10
33.16328
 20
114.060338
 30
0.0
 11
33.162965
 21
114.060338
 31
0.0
  0
LINE
  5
50D
100
AcDbEntity
  8
0
390
0
  6
Continuous
 62
     7
100
AcDbLine
 10
33.162965
 20
114.060338
 30
0.0
 11
30.66296
 21
114.060338
 31
0.0
  0
LINE
  5
50E
100
AcDbEntity
  8
0
390
0
  6
Continuous
 62
     7
100
AcDbLine
 10
40.66296
 20
114.060338
 30
0.0
 11
38.162955
 21
114.060338
 31
0.0
  0
LINE
  5
50F
100
AcDbEntity
  8
0
390
0
  6
DOT
 62
     2
100
AcDbLine
 10
38.162955
 20
114.060338
 30
0.0
 11
38.16243
 21
114.060338
 31
0.0
  0
LINE
  5
510
100
AcDbEntity
  8
0
390
0
  6
DOT
 62
     2
100
AcDbLine
 10
38.16243
 20
114.060338
 30
0.0
 11
38.162297
 21
114.060338
 31
0.0
  0
LINE
  5
511
100
AcDbEntity
  8
0
390
0
  6
DOT
 62
     2
100
AcDbLine
 10
38.162297
 20
114.060338
 30
0.0
 11
37.76296
 21
114.060338
 31
0.0
  0
LINE
  5
512
100
AcDbEntity
  8
0
390
0
  6
Continuous
 62
     7
100
AcDbLine
 10
37.76296
 20
114.060338
 30
0.0
 11
37.762685
 21
114.060338
 31
0.0
  0
LINE
  5
513
100
AcDbEntity
  8
0
390
0
  6
Continuous
 62
     7
100
AcDbLine
 10
30.66296
 20
84.760338
 30
0.0
 11
40.66296
 21
84.760338
 31
0.0
  0
LINE
  5
514
100
AcDbEntity
  8
0
390
0
  6
DOT
 62
     2
100
AcDbLine
 10
62.66296
 20
113.960338
 30
0.0
 11
40.66296
 21
113.960338
 31
0.0
  0
LINE
  5
515
100
AcDbEntity
  8
0
390
0
  6
DOT
 62
     2
100
AcDbLine
 10
40.66296
 20
84.860338
 30
0.0
 11
62.66296
 21
84.860338
 31
0.0
  0
LINE
  5
516
100
AcDbEntity
  8
0
390
0
  6
Continuous
 62
     7
100
AcDbLine
 10
139.078588
 20
152.060338
 30
0.0
 11
139.078588
 21
122.760338
 31
0.0
  0
ARC
  5
517
100
AcDbEntity
  8
0
390
0
  6
Continuous
 62
     7
100
AcDbCircle
 10
144.078515
 20
166.558261
 30
0.0
 40
14.649214
210
0.0
220
0.0
230
1.0
100
AcDbArc
 50
261.758405
 51
278.186203
  0
LINE
  5
518
100
AcDbEntity
  8
0
390
0
  6
Continuous
 62
     7
100
AcDbLine
 10
146.164425
 20
152.058315
 30
0.0
 11
146.178588
 21
152.060338
 31
0.0
  0
CIRCLE
  5
519
100
AcDbEntity
  8
0
390
0
  6
Continuous
 62
     7
100
AcDbCircle
 10
160.078588
 20
99.410338
 30
0.0
 40
14.55
210
0.0
220
0.0
230
1.0
  0
CIRCLE
  5
51A
100
AcDbEntity
  8
0
390
0
  6
DOT
 62
     2
100
AcDbCircle
 10
160.078588
 20
99.410338
 30
0.0
 40
14.65
210
0.0
220
0.0
230
1.0
  0
LINE
  5
51B
100
AcDbEntity
  8
0
390
0
  6
DOT
 62
     2
100
AcDbLine
 10
141.578593
 20
150.389797
 30
0.0
 11
141.578593
 21
146.26479
 31
0.0
  0
LINE
  5
51C
100
AcDbEntity
  8
0
390
0
  6
DOT
 62
     2
100
AcDbLine
 10
157.578593
 20
113.743954
 30
0.0
 11
157.578593
 21
112.389814
 31
0.0
  0
LINE
  5
51D
100
AcDbEntity
  8
0
390
0
  6
DOT
 62
     2
100
AcDbLine
 10
162.578583
 20
112.389814
 30
0.0
 11
162.578583
 21
113.743954
 31
0.0
  0
LINE
  5
51E
100
AcDbEntity
  8
0
390
0
  6
DOT
 62
     2
100
AcDbLine
 10
174.412203
 20
101.910333
 30
0.0
 11
173.165667
 21
101.910333
 31
0.0
  0
LINE
  5
51F
100
AcDbEntity
  8
0
390
0
  6
Continuous
 62
     7
100
AcDbLine
 10
141.979046
 20
152.060338
 30
0.0
 11
141.978588
 21
152.060338
 31
0.0
  0
LINE
  5
520
100
AcDbEntity
  8
0
390
0
  6
DOT
 62
     2
100
AcDbLine
 10
141.978588
 20
152.060338
 30
0.0
 11
141.57957
 21
152.060338
 31
0.0
  0
LINE
  5
521
100
AcDbEntity
  8
0
390
0
  6
DOT
 62
     2
100
AcDbLine
 10
141.579527
 20
152.060338
 30
0.0
 11
141.578593
 21
152.060338
 31
0.0
  0
LINE
  5
522
100
AcDbEntity
  8
0
390
0
  6
Continuous
 62
     7
100
AcDbLine
 10
141.578593
 20
152.060338
 30
0.0
 11
139.078588
 21
152.060338
 31
0.0
  0
LINE
  5
523
100
AcDbEntity
  8
0
390
0
  6
Continuous
 62
     7
100
AcDbLine
 10
149.078588
 20
152.060338
 30
0.0
 11
146.578583
 21
152.060338
 31
0.0
  0
LINE
  5
524
100
AcDbEntity
  8
0
390
0
  6
DOT
 62
     2
100
AcDbLine
 10
146.578583
 20
152.060338
 30
0.0
 11
146.178588
 21
152.060338
 31
0.0
  0
LINE
  5
525
100
AcDbEntity
  8
0
390
0
  6
Continuous
 62
     7
100
AcDbLine
 10
146.178588
 20
152.060338
 30
0.0
 11
146.178324
 21
152.060338
 31
0.0
  0
LINE
  5
526
100
AcDbEntity
  8
0
390
0
  6
Continuous
 62
     7
100
AcDbLine
 10
139.078588
 20
122.760338
 30
0.0
 11
149.078588
 21
122.760338
 31
0.0
  0
LINE
  5
527
100
AcDbEntity
  8
0
390
0
  6
DOT
 62
     2
100
AcDbLine
 10
171.078588
 20
151.960338
 30
0.0
 11
149.078588
 21
151.960338
 31
0.0
  0
LINE
  5
528
100
AcDbEntity
  8
0
390
0
  6
DOT
 62
     2
100
AcDbLine
 10
149.078588
 20
122.860338
 30
0.0
 11
171.078588
 21
122.860338
 31
0.0
  0
ELLIPSE
  5
529
100
AcDbEntity
  8
0
390
0
  6
Continuous
 62
     7
100
AcDbEllipse
 10
259.661493
 20
164.597112
 30
0.0
 11
4.3650000000000073
 21
7.5604017750381667
 31
-0.0000000000000008
210
-0.0
220
0.0000000000000001
230
1.0
 40
0.57735
 41
5.4977871437821397
 42
6.2831853071795862
  0
ELLIPSE
  5
52A
100
AcDbEntity
  8
0
390
0
  6
Continuous
 62
     7
100
AcDbEllipse
 10
259.661493
 20
164.597112
 30
0.0
 11
4.3650000000000073
 21
7.5604017750381667
 31
-0.0000000000000004
210
-0.0
220
0.0000000000000001
230
1.0
 40
0.57735
 41
3.1415926535897971
 42
5.4977871437821397
  0
ELLIPSE
  5
52B
100
AcDbEntity
  8
0
390
0
  6
Continuous
 62
     7
100
AcDbEllipse
 10
259.661493
 20
164.597112
 30
0.0
 11
4.3650000000000073
 21
7.5604017750381667
 31
-0.0000000000000004
210
-0.0
220
0.0000000000000001
230
1.0
 40
0.57735
 41
0.0
 42
3.1415926535897971
  0
ELLIPSE
  5
52C
100
AcDbEntity
  8
0
390
0
  6
Continuous
 62
     7
100
AcDbEllipse
 10
246.085043
 20
172.435479
 30
0.0
 11
4.3949999999999818
 21
7.612363299265235
 31
-0.0000000000000004
210
-0.0
220
0.0000000000000001
230
1.0
 40
0.57735
 41
0.0000000000000071
 42
3.1415926535897865
  0
POLYLINE
  5
52D
100
AcDbEntity
  8
0
390
0
  6
Continuous
 62
     7
100
AcDb2dPolyline
 66
     1
 10
0.0
 20
0.0
 30
0.0
 40
0.1
 41
0.1
  0
VERTEX
  5
52E
100
AcDbEntity
  8
0
390
0
 62
     7
100
AcDbVertex
100
AcDb2dVertex
 10
248.98801
 20
177.816185
 30
0.0
  0
VERTEX
  5
52F
100
AcDbEntity
  8
0
390
0
 62
     7
100
AcDbVertex
100
AcDb2dVertex
 10
249.027949
 20
177.835782
 30
0.0
  0
VERTEX
  5
530
100
AcDbEntity
  8
0
390
0
 62
     7
100
AcDbVertex
100
AcDb2dVertex
 10
249.066503
 20
177.856066
 30
0.0
  0
VERTEX
  5
531
100
AcDbEntity
  8
0
390
0
 62
     7
100
AcDbVertex
100
AcDb2dVertex
 10
249.10386
 20
177.877148
 30
0.0
  0
VERTEX
  5
532
100
AcDbEntity
  8
0
390
0
 62
     7
100
AcDbVertex
100
AcDb2dVertex
 10
249.139679
 20
177.898851
 30
0.0
  0
VERTEX
  5
533
100
AcDbEntity
  8
0
390
0
 62
     7
100
AcDbVertex
100
AcDb2dVertex
 10
249.174628
 20
177.921633
 30
0.0
  0
VERTEX
  5
534
100
AcDbEntity
  8
0
390
0
 62
     7
100
AcDbVertex
100
AcDb2dVertex
 10
249.207844
 20
177.944986
 30
0.0
  0
VERTEX
  5
535
100
AcDbEntity
  8
0
390
0
 62
     7
100
AcDbVertex
100
AcDb2dVertex
 10
249.239491
 20
177.969049
 30
0.0
  0
VERTEX
  5
536
100
AcDbEntity
  8
0
390
0
 62
     7
100
AcDbVertex
100
AcDb2dVertex
 10
249.26926
 20
177.993613
 30
0.0
  0
VERTEX
  5
537
100
AcDbEntity
  8
0
390
0
 62
     7
100
AcDbVertex
100
AcDb2dVertex
 10
249.296149
 20
178.017747
 30
0.0
  0
VERTEX
  5
538
100
AcDbEntity
  8
0
390
0
 62
     7
100
AcDbVertex
100
AcDb2dVertex
 10
249.321195
 20
178.042277
 30
0.0
  0
VERTEX
  5
539
100
AcDbEntity
  8
0
390
0
 62
     7
100
AcDbVertex
100
AcDb2dVertex
 10
249.344737
 20
178.067602
 30
0.0
  0
VERTEX
  5
53A
100
AcDbEntity
  8
0
390
0
 62
     7
100
AcDbVertex
100
AcDb2dVertex
 10
249.366308
 20
178.093289
 30
0.0
  0
VERTEX
  5
53B
100
AcDbEntity
  8
0
390
0
 62
     7
100
AcDbVertex
100
AcDb2dVertex
 10
249.385855
 20
178.11928
 30
0.0
  0
VERTEX
  5
53C
100
AcDbEntity
  8
0
390
0
 62
     7
100
AcDbVertex
100
AcDb2dVertex
 10
249.403325
 20
178.145518
 30
0.0
  0
VERTEX
  5
53D
100
AcDbEntity
  8
0
390
0
 62
     7
100
AcDbVertex
100
AcDb2dVertex
 10
249.418966
 20
178.172483
 30
0.0
  0
VERTEX
  5
53E
100
AcDbEntity
  8
0
390
0
 62
     7
100
AcDbVertex
100
AcDb2dVertex
 10
249.432415
 20
178.199659
 30
0.0
  0
VERTEX
  5
53F
100
AcDbEntity
  8
0
390
0
 62
     7
100
AcDbVertex
100
AcDb2dVertex
 10
249.443345
 20
178.226194
 30
0.0
  0
VERTEX
  5
540
100
AcDbEntity
  8
0
390
0
 62
     7
100
AcDbVertex
100
AcDb2dVertex
 10
249.452173
 20
178.252865
 30
0.0
  0
VERTEX
  5
541
100
AcDbEntity
  8
0
390
0
 62
     7
100
AcDbVertex
100
AcDb2dVertex
 10
249.458976
 20
178.280103
 30
0.0
  0
VERTEX
  5
542
100
AcDbEntity
  8
0
390
0
 62
     7
100
AcDbVertex
100
AcDb2dVertex
 10
249.463583
 20
178.307444
 30
0.0
  0
VERTEX
  5
543
100
AcDbEntity
  8
0
390
0
 62
     7
100
AcDbVertex
100
AcDb2dVertex
 10
249.465984
 20
178.334832
 30
0.0
  0
VERTEX
  5
544
100
AcDbEntity
  8
0
390
0
 62
     7
100
AcDbVertex
100
AcDb2dVertex
 10
249.466363
 20
178.350777
 30
0.0
  0
SEQEND
  5
545
100
AcDbEntity
  8
0
390
0
  0
POLYLINE
  5
546
100
AcDbEntity
  8
0
390
0
  6
Continuous
 62
     7
100
AcDb2dPolyline
 66
     1
 10
0.0
 20
0.0
 30
0.0
 40
0.1
 41
0.1
  0
VERTEX
  5
547
100
AcDbEntity
  8
0
390
0
 62
     7
100
AcDbVertex
100
AcDb2dVertex
 10
246.946363
 20
178.350777
 30
0.0
  0
VERTEX
  5
548
100
AcDbEntity
  8
0
390
0
 62
     7
100
AcDbVertex
100
AcDb2dVertex
 10
246.961136
 20
178.228545
 30
0.0
  0
VERTEX
  5
549
100
AcDbEntity
  8
0
390
0
 62
     7
100
AcDbVertex
100
AcDb2dVertex
 10
246.995639
 20
178.129578
 30
0.0
  0
VERTEX
  5
54A
100
AcDbEntity
  8
0
390
0
 62
     7
100
AcDbVertex
100
AcDb2dVertex
 10
247.049079
 20
178.036115
 30
0.0
  0
VERTEX
  5
54B
100
AcDbEntity
  8
0
390
0
 62
     7
100
AcDbVertex
100
AcDb2dVertex
 10
247.121435
 20
177.948332
 30
0.0
  0
VERTEX
  5
54C
100
AcDbEntity
  8
0
390
0
 62
     7
100
AcDbVertex
100
AcDb2dVertex
 10
247.212462
 20
177.867627
 30
0.0
  0
VERTEX
  5
54D
100
AcDbEntity
  8
0
390
0
 62
     7
100
AcDbVertex
100
AcDb2dVertex
 10
247.316182
 20
177.798787
 30
0.0
  0
VERTEX
  5
54E
100
AcDbEntity
  8
0
390
0
 62
     7
100
AcDbVertex
100
AcDb2dVertex
 10
247.43516
 20
177.73953
 30
0.0
 42
0.197027
  0
VERTEX
  5
54F
100
AcDbEntity
  8
0
390
0
 62
     7
100
AcDbVertex
100
AcDb2dVertex
 10
248.98801
 20
177.816185
 30
0.0
  0
SEQEND
  5
550
100
AcDbEntity
  8
0
390
0
  0
POLYLINE
  5
551
100
AcDbEntity
  8
0
390
0
  6
Continuous
 62
     7
100
AcDb2dPolyline
 66
     1
 10
0.0
 20
0.0
 30
0.0
 40
0.1
 41
0.1
  0
VERTEX
  5
552
100
AcDbEntity
  8
0
390
0
 62
     7
100
AcDbVertex
100
AcDb2dVertex
 10
249.466363
 20
178.350777
 30
0.0
  0
VERTEX
  5
553
100
AcDbEntity
  8
0
390
0
 62
     7
100
AcDbVertex
100
AcDb2dVertex
 10
249.444656
 20
178.471751
 30
0.0
  0
VERTEX
  5
554
100
AcDbEntity
  8
0
390
0
 62
     7
100
AcDbVertex
100
AcDb2dVertex
 10
249.387799
 20
178.579436
 30
0.0
  0
VERTEX
  5
555
100
AcDbEntity
  8
0
390
0
 62
     7
100
AcDbVertex
100
AcDb2dVertex
 10
249.322471
 20
178.657834
 30
0.0
  0
VERTEX
  5
556
100
AcDbEntity
  8
0
390
0
 62
     7
100
AcDbVertex
100
AcDb2dVertex
 10
249.240261
 20
178.731718
 30
0.0
 42
0.24324
  0
VERTEX
  5
557
100
AcDbEntity
  8
0
390
0
 62
     7
100
AcDbVertex
100
AcDb2dVertex
 10
247.417693
 20
178.954194
 30
0.0
  0
VERTEX
  5
558
100
AcDbEntity
  8
0
390
0
 62
     7
100
AcDbVertex
100
AcDb2dVertex
 10
247.30022
 20
178.893189
 30
0.0
  0
VERTEX
  5
559
100
AcDbEntity
  8
0
390
0
 62
     7
100
AcDbVertex
100
AcDb2dVertex
 10
247.196814
 20
178.821503
 30
0.0
  0
VERTEX
  5
55A
100
AcDbEntity
  8
0
390
0
 62
     7
100
AcDbVertex
100
AcDb2dVertex
 10
247.110999
 20
178.742065
 30
0.0
  0
VERTEX
  5
55B
100
AcDbEntity
  8
0
390
0
 62
     7
100
AcDbVertex
100
AcDb2dVertex
 10
247.041453
 20
178.654081
 30
0.0
  0
VERTEX
  5
55C
100
AcDbEntity
  8
0
390
0
 62
     7
100
AcDbVertex
100
AcDb2dVertex
 10
246.99078
 20
178.561019
 30
0.0
  0
VERTEX
  5
55D
100
AcDbEntity
  8
0
390
0
 62
     7
100
AcDbVertex
100
AcDb2dVertex
 10
246.958846
 20
178.463198
 30
0.0
  0
VERTEX
  5
55E
100
AcDbEntity
  8
0
390
0
 62
     7
100
AcDbVertex
100
AcDb2dVertex
 10
246.946486
 20
178.361985
 30
0.0
  0
VERTEX
  5
55F
100
AcDbEntity
  8
0
390
0
 62
     7
100
AcDbVertex
100
AcDb2dVertex
 10
246.946363
 20
178.350777
 30
0.0
  0
SEQEND
  5
560
100
AcDbEntity
  8
0
390
0
  0
ELLIPSE
  5
561
100
AcDbEntity
  8
0
390
0
  6
Continuous
 62
     7
100
AcDbEllipse
 10
250.327683
 20
145.98099
 30
0.0
 11
4.3650000000000073
 21
-7.5604017750381391
 31
0.0000000000000004
210
0.0000000000000001
220
0.0000000000000001
230
1.0
 40
0.57735
 41
0.7853981633974474
 42
3.1415926535897958
  0
ELLIPSE
  5
562
100
AcDbEntity
  8
0
390
0
  6
Continuous
 62
     7
100
AcDbEllipse
 10
250.327683
 20
145.98099
 30
0.0
 11
4.3650000000000073
 21
-7.5604017750381391
 31
0.0000000000000004
210
0.0000000000000001
220
0.0000000000000001
230
1.0
 40
0.57735
 41
6.2831853071795862
 42
7.0685834705770336
  0
ELLIPSE
  5
563
100
AcDbEntity
  8
0
390
0
  6
Continuous
 62
     7
100
AcDbEllipse
 10
250.327683
 20
145.98099
 30
0.0
 11
4.3650000000000073
 21
-7.5604017750381391
 31
0.0000000000000004
210
0.0000000000000001
220
0.0000000000000001
230
1.0
 40
0.57735
 41
3.1415926535897958
 42
6.2831853071795862
  0
ELLIPSE
  5
564
100
AcDbEntity
  8
0
390
0
  6
Continuous
 62
     7
100
AcDbEllipse
 10
263.904134
 20
153.819357
 30
0.0
 11
4.3949999999999818
 21
-7.6123632992652066
 31
0.0000000000000004
210
0.0000000000000001
220
0.0000000000000001
230
1.0
 40
0.57735
 41
6.2831853071795862
 42
7.0685834705770336
  0
POLYLINE
  5
565
100
AcDbEntity
  8
0
390
0
  6
Continuous
 62
     7
100
AcDb2dPolyline
 66
     1
 10
0.0
 20
0.0
 30
0.0
 40
0.1
 41
0.1
  0
VERTEX
  5
566
100
AcDbEntity
  8
0
390
0
 62
     7
100
AcDbVertex
100
AcDb2dVertex
 10
267.112477
 20
148.614961
 30
0.0
  0
VERTEX
  5
567
100
AcDbEntity
  8
0
390
0
 62
     7
100
AcDbVertex
100
AcDb2dVertex
 10
267.109475
 20
148.570442
 30
0.0
  0
VERTEX
  5
568
100
AcDbEntity
  8
0
390
0
 62
     7
100
AcDbVertex
100
AcDb2dVertex
 10
267.107765
 20
148.526747
 30
0.0
  0
VERTEX
  5
569
100
AcDbEntity
  8
0
390
0
 62
     7
100
AcDbVertex
100
AcDb2dVertex
 10
267.107351
 20
148.483988
 30
0.0
  0
VERTEX
  5
56A
100
AcDbEntity
  8
0
390
0
 62
     7
100
AcDbVertex
100
AcDb2dVertex
 10
267.108234
 20
148.442278
 30
0.0
  0
VERTEX
  5
56B
100
AcDbEntity
  8
0
390
0
 62
     7
100
AcDbVertex
100
AcDb2dVertex
 10
267.110501
 20
148.400491
 30
0.0
  0
VERTEX
  5
56C
100
AcDbEntity
  8
0
390
0
 62
     7
100
AcDbVertex
100
AcDb2dVertex
 10
267.114142
 20
148.35989
 30
0.0
  0
VERTEX
  5
56D
100
AcDbEntity
  8
0
390
0
 62
     7
100
AcDbVertex
100
AcDb2dVertex
 10
267.119147
 20
148.320583
 30
0.0
  0
VERTEX
  5
56E
100
AcDbEntity
  8
0
390
0
 62
     7
100
AcDbVertex
100
AcDb2dVertex
 10
267.125509
 20
148.282677
 30
0.0
  0
VERTEX
  5
56F
100
AcDbEntity
  8
0
390
0
 62
     7
100
AcDbVertex
100
AcDb2dVertex
 10
267.132993
 20
148.247222
 30
0.0
  0
VERTEX
  5
570
100
AcDbEntity
  8
0
390
0
 62
     7
100
AcDbVertex
100
AcDb2dVertex
 10
267.141755
 20
148.213144
 30
0.0
  0
VERTEX
  5
571
100
AcDbEntity
  8
0
390
0
 62
     7
100
AcDbVertex
100
AcDb2dVertex
 10
267.151779
 20
148.180524
 30
0.0
  0
VERTEX
  5
572
100
AcDbEntity
  8
0
390
0
 62
     7
100
AcDbVertex
100
AcDb2dVertex
 10
267.163046
 20
148.149443
 30
0.0
  0
VERTEX
  5
573
100
AcDbEntity
  8
0
390
0
 62
     7
100
AcDbVertex
100
AcDb2dVertex
 10
267.175938
 20
148.1191
 30
0.0
  0
VERTEX
  5
574
100
AcDbEntity
  8
0
390
0
 62
     7
100
AcDbVertex
100
AcDb2dVertex
 10
267.190142
 20
148.090427
 30
0.0
  0
VERTEX
  5
575
100
AcDbEntity
  8
0
390
0
 62
     7
100
AcDbVertex
100
AcDb2dVertex
 10
267.20563
 20
148.063491
 30
0.0
  0
VERTEX
  5
576
100
AcDbEntity
  8
0
390
0
 62
     7
100
AcDbVertex
100
AcDb2dVertex
 10
267.222374
 20
148.038357
 30
0.0
  0
VERTEX
  5
577
100
AcDbEntity
  8
0
390
0
 62
     7
100
AcDbVertex
100
AcDb2dVertex
 10
267.239945
 20
148.015562
 30
0.0
  0
VERTEX
  5
578
100
AcDbEntity
  8
0
390
0
 62
     7
100
AcDbVertex
100
AcDb2dVertex
 10
267.258708
 20
147.994513
 30
0.0
  0
VERTEX
  5
579
100
AcDbEntity
  8
0
390
0
 62
     7
100
AcDbVertex
100
AcDb2dVertex
 10
267.278627
 20
147.975251
 30
0.0
  0
VERTEX
  5
57A
100
AcDbEntity
  8
0
390
0
 62
     7
100
AcDbVertex
100
AcDb2dVertex
 10
267.299666
 20
147.957821
 30
0.0
  0
VERTEX
  5
57B
100
AcDbEntity
  8
0
390
0
 62
     7
100
AcDbVertex
100
AcDb2dVertex
 10
267.322472
 20
147.941816
 30
0.0
  0
VERTEX
  5
57C
100
AcDbEntity
  8
0
390
0
 62
     7
100
AcDbVertex
100
AcDb2dVertex
 10
267.336271
 20
147.933399
 30
0.0
  0
SEQEND
  5
57D
100
AcDbEntity
  8
0
390
0
  0
ELLIPSE
  5
57E
100
AcDbEntity
  8
0
390
0
  6
Continuous
 62
     7
100
AcDbEllipse
 10
263.904134
 20
153.819357
 30
0.0
 11
4.3949999999999818
 21
-7.6123632992652066
 31
0.0000000000000004
210
0.0000000000000001
220
0.0000000000000001
230
1.0
 40
0.57735
 41
0.7853981633974476
 42
2.2796722325847707
  0
POLYLINE
  5
57F
100
AcDbEntity
  8
0
390
0
  6
Continuous
 62
     7
100
AcDb2dPolyline
 66
     1
 10
0.0
 20
0.0
 30
0.0
 40
0.1
 41
0.1
  0
VERTEX
  5
580
100
AcDbEntity
  8
0
390
0
 62
     7
100
AcDbVertex
100
AcDb2dVertex
 10
268.596272
 20
150.115783
 30
0.0
  0
VERTEX
  5
581
100
AcDbEntity
  8
0
390
0
 62
     7
100
AcDbVertex
100
AcDb2dVertex
 10
268.483738
 20
150.163905
 30
0.0
  0
VERTEX
  5
582
100
AcDbEntity
  8
0
390
0
 62
     7
100
AcDbVertex
100
AcDb2dVertex
 10
268.379921
 20
150.183718
 30
0.0
  0
VERTEX
  5
583
100
AcDbEntity
  8
0
390
0
 62
     7
100
AcDbVertex
100
AcDb2dVertex
 10
268.272152
 20
150.18413
 30
0.0
  0
VERTEX
  5
584
100
AcDbEntity
  8
0
390
0
 62
     7
100
AcDbVertex
100
AcDb2dVertex
 10
268.160513
 20
150.165465
 30
0.0
  0
VERTEX
  5
585
100
AcDbEntity
  8
0
390
0
 62
     7
100
AcDbVertex
100
AcDb2dVertex
 10
268.044801
 20
150.12691
 30
0.0
  0
VERTEX
  5
586
100
AcDbEntity
  8
0
390
0
 62
     7
100
AcDbVertex
100
AcDb2dVertex
 10
267.933569
 20
150.071647
 30
0.0
  0
VERTEX
  5
587
100
AcDbEntity
  8
0
390
0
 62
     7
100
AcDbVertex
100
AcDb2dVertex
 10
267.822247
 20
149.997884
 30
0.0
 42
0.19795
  0
VERTEX
  5
588
100
AcDbEntity
  8
0
390
0
 62
     7
100
AcDbVertex
100
AcDb2dVertex
 10
267.112477
 20
148.614961
 30
0.0
  0
SEQEND
  5
589
100
AcDbEntity
  8
0
390
0
  0
POLYLINE
  5
58A
100
AcDbEntity
  8
0
390
0
  6
Continuous
 62
     7
100
AcDb2dPolyline
 66
     1
 10
0.0
 20
0.0
 30
0.0
 40
0.1
 41
0.1
  0
VERTEX
  5
58B
100
AcDbEntity
  8
0
390
0
 62
     7
100
AcDbVertex
100
AcDb2dVertex
 10
267.336271
 20
147.933399
 30
0.0
  0
VERTEX
  5
58C
100
AcDbEntity
  8
0
390
0
 62
     7
100
AcDbVertex
100
AcDb2dVertex
 10
267.452091
 20
147.891682
 30
0.0
  0
VERTEX
  5
58D
100
AcDbEntity
  8
0
390
0
 62
     7
100
AcDbVertex
100
AcDb2dVertex
 10
267.573824
 20
147.887136
 30
0.0
  0
VERTEX
  5
58E
100
AcDbEntity
  8
0
390
0
 62
     7
100
AcDbVertex
100
AcDb2dVertex
 10
267.674242
 20
147.904514
 30
0.0
  0
VERTEX
  5
58F
100
AcDbEntity
  8
0
390
0
 62
     7
100
AcDbVertex
100
AcDb2dVertex
 10
267.778434
 20
147.93842
 30
0.0
 42
0.243331
  0
VERTEX
  5
590
100
AcDbEntity
  8
0
390
0
 62
     7
100
AcDbVertex
100
AcDb2dVertex
 10
268.88315
 20
149.405594
 30
0.0
  0
VERTEX
  5
591
100
AcDbEntity
  8
0
390
0
 62
     7
100
AcDbVertex
100
AcDb2dVertex
 10
268.889072
 20
149.53845
 30
0.0
  0
VERTEX
  5
592
100
AcDbEntity
  8
0
390
0
 62
     7
100
AcDbVertex
100
AcDb2dVertex
 10
268.878685
 20
149.66364
 30
0.0
  0
VERTEX
  5
593
100
AcDbEntity
  8
0
390
0
 62
     7
100
AcDbVertex
100
AcDb2dVertex
 10
268.853065
 20
149.776783
 30
0.0
  0
VERTEX
  5
594
100
AcDbEntity
  8
0
390
0
 62
     7
100
AcDbVertex
100
AcDb2dVertex
 10
268.811326
 20
149.881913
 30
0.0
  0
VERTEX
  5
595
100
AcDbEntity
  8
0
390
0
 62
     7
100
AcDbVertex
100
AcDb2dVertex
 10
268.755993
 20
149.972379
 30
0.0
  0
VERTEX
  5
596
100
AcDbEntity
  8
0
390
0
 62
     7
100
AcDbVertex
100
AcDb2dVertex
 10
268.687585
 20
150.048583
 30
0.0
  0
VERTEX
  5
597
100
AcDbEntity
  8
0
390
0
 62
     7
100
AcDbVertex
100
AcDb2dVertex
 10
268.605916
 20
150.110072
 30
0.0
  0
VERTEX
  5
598
100
AcDbEntity
  8
0
390
0
 62
     7
100
AcDbVertex
100
AcDb2dVertex
 10
268.596272
 20
150.115783
 30
0.0
  0
SEQEND
  5
599
100
AcDbEntity
  8
0
390
0
  0
LINE
  5
59A
100
AcDbEntity
  8
0
390
0
  6
Continuous
 62
     7
100
AcDbLine
 10
251.851016
 20
179.256311
 30
0.0
 11
250.480043
 21
180.047843
 31
0.0
  0
LINE
  5
59B
100
AcDbEntity
  8
0
390
0
  6
Continuous
 62
     7
100
AcDbLine
 10
241.690043
 20
164.823116
 30
0.0
 11
243.061016
 21
164.031584
 31
0.0
  0
LINE
  5
59C
100
AcDbEntity
  8
0
390
0
  6
Continuous
 62
     7
100
AcDbLine
 10
266.92816
 20
145.415462
 30
0.0
 11
268.299134
 21
146.206994
 31
0.0
  0
DIMENSION
  5
59D
100
AcDbEntity
  8
0
390
0
100
AcDbDimension
  2
*D19
 10
133.198193
 20
152.060338
 30
0.0
 11
129.889102
 21
137.410338
 31
0.0
 71
     5
 72
     1
 41
1.0
 42
0.0
  3
Standard
100
AcDbAlignedDimension
 13
139.078588
 23
152.060338
 33
0.0
 14
139.078588
 24
122.760338
 34
0.0
 50
270.0
100
AcDbRotatedDimension
1001
ACAD
1000
DSTYLE
1002
{
1070
     3
1000
%%c<>
1070
   271
1070
     1
1070
   179
1070
     1
1002
}
  0
INSERT
  5
5B4
100
AcDbEntity
  8
0
390
0
100
AcDbBlockReference
  2
AID2189
 10
0.0
 20
0.0
 30
0.0
  0
INSERT
  5
5BE
100
AcDbEntity
  8
0
390
0
100
AcDbBlockReference
  2
AID2195
 10
0.0
 20
0.0
 30
0.0
  0
INSERT
  5
5C8
100
AcDbEntity
  8
0
390
0
100
AcDbBlockReference
  2
AID2201
 10
0.0
 20
0.0
 30
0.0
  0
MTEXT
  5
5C9
100
AcDbEntity
  8
0
390
0
 62
     7
100
AcDbMText
 10
94.174559
 20
17.277045
 30
0.0
 40
3.0
 41
2.781818
 71
     7
 72
     1
  1
2
210
0.0
220
0.0
230
1.0
 73
     1
 44
1.0
  0
LINE
  5
5CA
100
AcDbEntity
  8
0
390
0
  6
DOT
 62
     2
100
AcDbLine
 10
52.91296
 20
145.014795
 30
0.0
 11
50.41296
 21
145.014795
 31
0.0
  0
LINE
  5
5CB
100
AcDbEntity
  8
0
390
0
  6
DOT
 62
     2
100
AcDbLine
 10
141.578593
 20
144.910338
 30
0.0
 11
141.617693
 21
144.897396
 31
0.0
  0
ARC
  5
5CC
100
AcDbEntity
  8
0
390
0
  6
DOT
 62
     2
100
AcDbCircle
 10
144.078588
 20
151.983738
 30
0.0
 40
7.502196
210
0.0
220
0.0
230
1.0
100
AcDbArc
 50
250.53475
 51
289.46525
  0
LINE
  5
5CD
100
AcDbEntity
  8
0
390
0
  6
DOT
 62
     2
100
AcDbLine
 10
161.328588
 20
107.014795
 30
0.0
 11
158.828588
 21
107.014795
 31
0.0
  0
ENDSEC
  0
SECTION
  2
OBJECTS
  0
DICTIONARY
  5
19
100
AcDbDictionary
280
     0
281
     1
  3
ACAD_GROUP
350
1A
  3
ACAD_MLINESTYLE
350
1B
  3
ACAD_LAYOUT
350
1E
  3
ACAD_PLOTSETTINGS
350
22
  3
ACAD_PLOTSTYLENAME
350
1F
  3
ACAD_WIPEOUT_VARS
350
23
  0
DICTIONARY
  5
1A
102
{ACAD_REACTORS
330
19
102
}
100
AcDbDictionary
280
     0
281
     1
  0
DICTIONARY
  5
1B
102
{ACAD_REACTORS
330
19
102
}
100
AcDbDictionary
280
     0
281
     1
  3
Standard
350
1C
  0
MLINESTYLE
  5
1C
102
{ACAD_REACTORS
330
1B
102
}
100
AcDbMlineStyle
  2
Standard
 70
     0
  3

 62
     0
 51
90.0
 52
90.0
 71
     2
 49
0.5
 62
   256
  6
ByLayer
 49
-0.5
 62
   256
  6
ByLayer
  0
ACDBDICTIONARYWDFLT
  5
1F
102
{ACAD_REACTORS
330
19
102
}
100
AcDbDictionary
281
     1
  3
Normal
350
1D
100
AcDbDictionaryWithDefault
340
1D
  0
ACDBPLACEHOLDER
  5
1D
102
{ACAD_REACTORS
330
1F
102
}
  0
LAYOUT
  5
20
102
{ACAD_REACTORS
330
1E
102
}
100
AcDbPlotSettings
  1

  2

  4

  6

 40
0.0
 41
0.0
 42
0.0
 43
0.0
 44
0.0
 45
0.0
 46
0.0
 47
0.0
 48
0.0
 49
0.0
140
0.0
141
0.0
142
1.0
143
1.0
 70
  1024
 72
     0
 73
     0
 74
     0
  7

 75
     0
147
1.0
148
0.0
149
0.0
100
AcDbLayout
  1
Model
 70
     0
 71
     1
 10
0.0
 20
0.0
 11
0.0
 21
0.0
 12
0.0
 22
0.0
 32
0.0
 14
0.0
 24
0.0
 34
0.0
 15
0.0
 25
0.0
 35
0.0
146
0.0
 13
0.0
 23
0.0
 33
0.0
 16
0.0
 26
0.0
 36
0.0
 17
0.0
 27
0.0
 37
0.0
 76
     0
330
A
331
0
345
0
346
0
  0
LAYOUT
  5
21
102
{ACAD_REACTORS
330
1E
102
}
100
AcDbPlotSettings
  1

  2

  4

  6

 40
0.0
 41
0.0
 42
0.0
 43
0.0
 44
0.0
 45
0.0
 46
0.0
 47
0.0
 48
0.0
 49
0.0
140
0.0
141
0.0
142
1.0
143
1.0
 70
     0
 72
     0
 73
     0
 74
     0
  7

 75
     0
147
1.0
148
0.0
149
0.0
100
AcDbLayout
  1
Layout1
 70
     0
 71
     2
 10
0.0
 20
0.0
 11
0.0
 21
0.0
 12
0.0
 22
0.0
 32
0.0
 14
0.0
 24
0.0
 34
0.0
 15
0.0
 25
0.0
 35
0.0
146
0.0
 13
0.0
 23
0.0
 33
0.0
 16
0.0
 26
0.0
 36
0.0
 17
0.0
 27
0.0
 37
0.0
 76
     0
330
B
331
0
345
0
346
0
  0
DICTIONARY
  5
1E
102
{ACAD_REACTORS
330
19
102
}
100
AcDbDictionary
280
     0
281
     1
  3
Layout1
350
21
  3
Model
350
20
  0
DICTIONARY
  5
22
102
{ACAD_REACTORS
330
19
102
}
100
AcDbDictionary
280
     0
281
     1
  0
WIPEOUTVARIABLES
  5
23
100
AcDbWipeoutVariables
 70
     1
  0
ENDSEC
  0
EOF
