  0
SECTION
  2
HEADER
  9
$ACADVER
  1
AC1015
  9
$ACADMAINTVER
 70
     6
  9
$DWGCODEPAGE
  3
DOS932
  9
$INSBASE
 10
0.0
 20
0.0
 30
0.0
  9
$EXTMIN
 10
0.0
 20
0.0
 30
0.0
  9
$EXTMAX
 10
297.0
 20
200.0
 30
10.0
  9
$LIMMIN
 10
0.0
 20
0.0
  9
$LIMMAX
 10
297.0
 20
200.0
  9
$ORTHOMODE
 70
     0
  9
$REGENMODE
 70
     1
  9
$FILLMODE
 70
     1
  9
$QTEXTMODE
 70
     0
  9
$MIRRTEXT
 70
     1
  9
$LTSCALE
 40
10.0
  9
$ATTMODE
 70
     1
  9
$TEXTSIZE
 40
0.2
  9
$TRACEWID
 40
0.05
  9
$TEXTSTYLE
  7
Standard
  9
$CLAYER
  8
0
  9
$CELTYPE
  6
Continuous
  9
$CECOLOR
 62
   256
  9
$CELTSCALE
 40
1.0
  9
$DISPSILH
 70
     0
  9
$DIMSCALE
 40
1.0
  9
$DIMASZ
 40
1.05
  9
$DIMEXO
 40
1.05
  9
$DIMDLI
 40
0.38
  9
$DIMRND
 40
0.0
  9
$DIMDLE
 40
0.0
  9
$DIMEXE
 40
1.05
  9
$DIMTP
 40
0.0
  9
$DIMTM
 40
0.0
  9
$DIMTXT
 40
3.5
  9
$DIMCEN
 40
0.09
  9
$DIMTSZ
 40
0.0
  9
$DIMTOL
 70
     0
  9
$DIMLIM
 70
     0
  9
$DIMTIH
 70
     0
  9
$DIMTOH
 70
     0
  9
$DIMSE1
 70
     0
  9
$DIMSE2
 70
     0
  9
$DIMTAD
 70
     1
  9
$DIMZIN
 70
     0
  9
$DIMBLK
  1

  9
$DIMASO
 70
     1
  9
$DIMSHO
 70
     1
  9
$DIMPOST
  1

  9
$DIMAPOST
  1

  9
$DIMALT
 70
     0
  9
$DIMALTD
 70
     2
  9
$DIMALTF
 40
25.4
  9
$DIMLFAC
 40
1.0
  9
$DIMTOFL
 70
     0
  9
$DIMTVP
 40
0.0
  9
$DIMTIX
 70
     0
  9
$DIMSOXD
 70
     0
  9
$DIMSAH
 70
     0
  9
$DIMBLK1
  1

  9
$DIMBLK2
  1

  9
$DIMSTYLE
  2
Standard
  9
$DIMCLRD
 70
     7
  9
$DIMCLRE
 70
     7
  9
$DIMCLRT
 70
     7
  9
$DIMTFAC
 40
0.5
  9
$DIMGAP
 40
1.75
  9
$DIMJUST
 70
     0
  9
$DIMSD1
 70
     0
  9
$DIMSD2
 70
     0
  9
$DIMTOLJ
 70
     1
  9
$DIMTZIN
 70
     0
  9
$DIMALTZ
 70
     0
  9
$DIMALTTZ
 70
     0
  9
$DIMUPT
 70
     0
  9
$DIMDEC
 70
     1
  9
$DIMTDEC
 70
     4
  9
$DIMALTU
 70
     2
  9
$DIMALTTD
 70
     2
  9
$DIMTXSTY
  7
Standard
  9
$DIMAUNIT
 70
     0
  9
$DIMADEC
 70
     0
  9
$DIMALTRND
 40
0.0
  9
$DIMAZIN
 70
     0
  9
$DIMDSEP
 70
     0
  9
$DIMATFIT
 70
     3
  9
$DIMFRAC
 70
     0
  9
$DIMLDRBLK
  1

  9
$DIMLUNIT
 70
     2
  9
$DIMLWD
 70
     0
  9
$DIMLWE
 70
     0
  9
$DIMTMOVE
 70
     0
  9
$LUNITS
 70
     2
  9
$LUPREC
 70
     4
  9
$SKETCHINC
 40
0.1
  9
$FILLETRAD
 40
0.0
  9
$AUNITS
 70
     0
  9
$AUPREC
 70
     0
  9
$MENU
  1
acad
  9
$ELEVATION
 40
0.0
  9
$PELEVATION
 40
0.0
  9
$THICKNESS
 40
0.0
  9
$LIMCHECK
 70
     0
  9
$CHAMFERA
 40
0.0
  9
$CHAMFERB
 40
0.0
  9
$CHAMFERC
 40
0.0
  9
$CHAMFERD
 40
0.0
  9
$SKPOLY
 70
     0
  9
$TDCREATE
 40
2458393.373495370
  9
$TDUCREATE
 40
0.000000000
  9
$TDUPDATE
 40
2458089.333541667
  9
$TDUUPDATE
 40
0.000000000
  9
$TDINDWG
 40
0.0000000000
  9
$TDUSRTIMER
 40
0.0000000000
  9
$USRTIMER
 70
     1
  9
$ANGBASE
 50
0.0
  9
$ANGDIR
 70
     0
  9
$PDMODE
 70
     0
  9
$PDSIZE
 40
0.0
  9
$PLINEWID
 40
0.0
  9
$SPLFRAME
 70
     0
  9
$SPLINETYPE
 70
     6
  9
$SPLINESEGS
 70
     8
  9
$HANDSEED
  5
645
  9
$SURFTAB1
 70
     6
  9
$SURFTAB2
 70
     6
  9
$SURFTYPE
 70
     6
  9
$SURFU
 70
     6
  9
$SURFV
 70
     6
  9
$UCSBASE
  2

  9
$UCSNAME
  2

  9
$UCSORG
 10
0.0
 20
0.0
 30
0.0
  9
$UCSXDIR
 10
1.0
 20
0.0
 30
0.0
  9
$UCSYDIR
 10
0.0
 20
1.0
 30
0.0
  9
$UCSORTHOREF
  2

  9
$UCSORTHOVIEW
 70
     0
  9
$UCSORGTOP
 10
0.0
 20
0.0
 30
0.0
  9
$UCSORGBOTTOM
 10
0.0
 20
0.0
 30
0.0
  9
$UCSORGLEFT
 10
0.0
 20
0.0
 30
0.0
  9
$UCSORGRIGHT
 10
0.0
 20
0.0
 30
0.0
  9
$UCSORGFRONT
 10
0.0
 20
0.0
 30
0.0
  9
$UCSORGBACK
 10
0.0
 20
0.0
 30
0.0
  9
$PUCSBASE
  2

  9
$PUCSNAME
  2

  9
$PUCSORG
 10
0.0
 20
0.0
 30
0.0
  9
$PUCSXDIR
 10
1.0
 20
0.0
 30
0.0
  9
$PUCSYDIR
 10
0.0
 20
1.0
 30
0.0
  9
$PUCSORTHOREF
  2

  9
$PUCSORTHOVIEW
 70
     0
  9
$PUCSORGTOP
 10
0.0
 20
0.0
 30
0.0
  9
$PUCSORGBOTTOM
 10
0.0
 20
0.0
 30
0.0
  9
$PUCSORGLEFT
 10
0.0
 20
0.0
 30
0.0
  9
$PUCSORGRIGHT
 10
0.0
 20
0.0
 30
0.0
  9
$PUCSORGFRONT
 10
0.0
 20
0.0
 30
0.0
  9
$PUCSORGBACK
 10
0.0
 20
0.0
 30
0.0
  9
$USERI1
 70
     0
  9
$USERI2
 70
     0
  9
$USERI3
 70
     0
  9
$USERI4
 70
     0
  9
$USERI5
 70
     0
  9
$USERR1
 40
0.0
  9
$USERR2
 40
0.0
  9
$USERR3
 40
0.0
  9
$USERR4
 40
0.0
  9
$USERR5
 40
0.0
  9
$WORLDVIEW
 70
     1
  9
$SHADEDGE
 70
     3
  9
$SHADEDIF
 70
    70
  9
$TILEMODE
 70
     1
  9
$MAXACTVP
 70
    16
  9
$PINSBASE
 10
0.0
 20
0.0
 30
0.0
  9
$PLIMCHECK
 70
     0
  9
$PEXTMIN
 10
1.000000E+20
 20
1.000000E+20
 30
1.000000E+20
  9
$PEXTMAX
 10
-1.000000E+20
 20
-1.000000E+20
 30
-1.000000E+20
  9
$PLIMMIN
 10
0.0
 20
0.0
  9
$PLIMMAX
 10
12.0
 20
9.0
  9
$UNITMODE
 70
     0
  9
$VISRETAIN
 70
     0
  9
$PLINEGEN
 70
     1
  9
$PSLTSCALE
 70
     0
  9
$TREEDEPTH
 70
  3020
  9
$CMLSTYLE
  2
Standard
  9
$CMLJUST
 70
     0
  9
$CMLSCALE
 40
1.0
  9
$PROXYGRAPHICS
 70
     0
  9
$MEASUREMENT
 70
     1
  9
$CELWEIGHT
370
     0
  9
$ENDCAPS
280
     0
  9
$JOINSTYLE
280
     0
  9
$LWDISPLAY
290
     0
  9
$INSUNITS
 70
     0
  9
$HYPERLINKBASE
  1

  9
$STYLESHEET
  1

  9
$XEDIT
290
     1
  9
$CEPSNTYPE
380
     0
  9
$PSTYLEMODE
290
     1
  9
$FINGERPRINTGUID
  2

  9
$VERSIONGUID
  2

  9
$EXTNAMES
290
     1
  9
$PSVPSCALE
 40
0.0
  0
ENDSEC
  0
SECTION
  2
CLASSES
  0
CLASS
  1
LWPOLYLINE
  2
AcDbPolyline
  3
AutoCAD 2000
 90
        0
280
     0
281
     1
  0
CLASS
  1
IMAGE
  2
AcDbRasterImage
  3
ISM
 90
      127
280
     0
281
     1
  0
CLASS
  1
OLE2FRAME
  2
AcDbOle2Frame
  3
AutoCAD 2000
 90
        0
280
     0
281
     1
  0
CLASS
  1
HATCH
  2
AcDbHatch
  3
AutoCAD 2000
 90
        0
280
     0
281
     1
  0
CLASS
  1
DICTIONARYVAR
  2
AcDbDictionaryVar
  3
AutoCAD 2000
 90
        0
280
     0
281
     0
  0
CLASS
  1
RASTERVARIABLES
  2
AcDbRasterVariables
  3
ISM
 90
        0
280
     0
281
     0
  0
CLASS
  1
IMAGEDEF
  2
AcDbRasterImageDef
  3
ISM
 90
        0
280
     0
281
     0
  0
CLASS
  1
IMAGEDEF_REACTOR
  2
AcDbRasterImageDefReactor
  3
ISM
 90
        1
280
     0
281
     0
  0
CLASS
  1
IDBUFFER
  2
AcDbIdBuffer
  3
AutoCAD 2000
 90
        0
280
     0
281
     0
  0
CLASS
  1
SPATIAL_FILTER
  2
AcDbSpatialFilter
  3
AutoCAD 2000
 90
        0
280
     0
281
     0
  0
CLASS
  1
XRECORD
  2
AcDbXrecord
  3
AutoCAD 2000
 90
        0
280
     0
281
     0
  0
CLASS
  1
SORTENTSTABLE
  2
AcDbSortentsTable
  3
AutoCAD 2000
 90
        0
280
     0
281
     0
  0
CLASS
  1
LAYER_INDEX
  2
AcDbLayerIndex
  3
AutoCAD 2000
 90
        0
280
     0
281
     0
  0
CLASS
  1
SPATIAL_INDEX
  2
AcDbSpatialIndex
  3
AutoCAD 2000
 90
        0
280
     0
281
     0
  0
CLASS
  1
OBJECT_PTR
  2
CAseDLPNTableRecord
  3
"ASE-LPNTableRecord"
 90
        1
280
     0
281
     0
  0
CLASS
  1
LAYOUT
  2
AcDbLayout
  3
AutoCAD 2000
 90
        0
280
     0
281
     0
  0
CLASS
  1
PLOTSETTINGS
  2
AcDbPlotSettings
  3
AutoCAD 2000
 90
        0
280
     0
281
     0
  0
CLASS
  1
ACDBDICTIONARYWDFLT
  2
AcDbDictionaryWithDefault
  3
AutoCAD 2000
 90
        0
280
     0
281
     0
  0
CLASS
  1
ACDBPLACEHOLDER
  2
AcDbPlaceHolder
  3
AutoCAD 2000
 90
        0
280
     0
281
     0
  0
CLASS
  1
VBA_PROJECT
  2
AcDbVbaProject
  3
acadvba
 90
        0
280
     0
281
     0
  0
CLASS
  1
WIPEOUT
  2
AcDbWipeout
  3
WipeOut|AutoCAD Express Tool|expresstools@autodesk.com
 90
      127
280
     0
281
     1
  0
CLASS
  1
WIPEOUTVARIABLES
  2
AcDbWipeoutVariables
  3
WipeOut|AutoCAD Express Tool|expresstools@autodesk.com
 90
        0
280
     0
281
     0
  0
CLASS
  1
RTEXT
  2
RText
  3
RText|AutoCAD Express Tool|expresstools@autodesk.com
 90
        0
280
     0
281
     1
  0
CLASS
  1
ARCALIGNEDTEXT
  2
AcDbArcAlignedText
  3
ATEXT|AutoCAD Express Tool|expresstools@autodesk.com
 90
        0
280
     0
281
     1
  0
ENDSEC
  0
SECTION
  2
TABLES
  0
TABLE
  2
VPORT
  5
7
100
AcDbSymbolTable
 70
     1
  0
VPORT
  5
15
100
AcDbSymbolTableRecord
100
AcDbViewportTableRecord
  2
*ACTIVE
 70
     0
 10
0.0
 20
0.0
 11
1.0
 21
1.0
 12
6.591288
 22
4.579184
 13
0.0
 23
0.0
 14
1.0
 24
1.0
 15
0.0
 25
0.0
 16
0.0
 26
0.0
 36
1.0
 17
0.0
 27
0.0
 37
0.0
 40
9.158369
 41
0.688564
 42
50.0
 43
0.0
 44
0.0
 50
0.0
 51
0.0
 71
     0
 72
   100
 73
     1
 74
     1
 75
     0
 76
     0
 77
     0
 78
     0
281
     0
 65
     0
110
0.0
120
0.0
130
0.0
111
1.0
121
0.0
131
0.0
112
0.0
122
1.0
132
0.0
345
0
346
0
 79
     0
146
0.0
  0
ENDTAB
  0
TABLE
  2
LTYPE
  5
4
100
AcDbSymbolTable
 70
     5
  0
LTYPE
  5
11
100
AcDbSymbolTableRecord
100
AcDbLinetypeTableRecord
  2
ByBlock
 70
    64
  3

 72
    65
 73
     0
 40
0.0
  0
LTYPE
  5
12
100
AcDbSymbolTableRecord
100
AcDbLinetypeTableRecord
  2
ByLayer
 70
    64
  3

 72
    65
 73
     0
 40
0.0
  0
LTYPE
  5
13
100
AcDbSymbolTableRecord
100
AcDbLinetypeTableRecord
  2
Continuous
 70
    64
  3
Solid line
 72
    65
 73
     0
 40
0.0
  0
LTYPE
  5
106
100
AcDbSymbolTableRecord
100
AcDbLinetypeTableRecord
  2
CENTER
 70
    64
  3
____ _ ____ _ ____ _ ____ _ ____ _ ____ _ ____
 72
    65
 73
     4
 40
2.0
 49
1.25
 74
     0
 49
-0.25
 74
     0
 49
0.25
 74
     0
 49
-0.25
 74
     0
  0
LTYPE
  5
2CD
100
AcDbSymbolTableRecord
100
AcDbLinetypeTableRecord
  2
DOT
 70
    64
  3
..............................................
 72
    65
 73
     2
 40
0.5
 49
0.25
 74
     0
 49
-0.25
 74
     0
  0
ENDTAB
  0
TABLE
  2
LAYER
  5
2
100
AcDbSymbolTable
 70
     1
  0
LAYER
  5
14
100
AcDbSymbolTableRecord
100
AcDbLayerTableRecord
  2
0
 70
     0
 62
     7
  6
Continuous
290
     1
370
    -3
390
1D
  0
ENDTAB
  0
TABLE
  2
STYLE
  5
3
100
AcDbSymbolTable
 70
     2
  0
STYLE
  5
17
100
AcDbSymbolTableRecord
100
AcDbTextStyleTableRecord
  2
Standard
 70
     0
 40
0.0
 41
1.0
 50
0.0
 71
     0
 42
0.0
  3
ＭＳ Ｐゴシック
  4

1001
ACAD
1000
ＭＳ Ｐゴシック
1071
        1
  0
STYLE
  5
161
100
AcDbSymbolTableRecord
100
AcDbTextStyleTableRecord
  2
TopStyle2
 70
     0
 40
0.0
 41
1.0
 50
0.0
 71
     0
 42
0.0
  3
HG丸ｺﾞｼｯｸM-PRO
  4

1001
ACAD
1000
HG丸ｺﾞｼｯｸM-PRO
1071
        2
  0
ENDTAB
  0
TABLE
  2
VIEW
  5
5
100
AcDbSymbolTable
 70
     0
  0
ENDTAB
  0
TABLE
  2
UCS
  5
6
100
AcDbSymbolTable
 70
     0
  0
ENDTAB
  0
TABLE
  2
APPID
  5
8
100
AcDbSymbolTable
 70
     2
  0
APPID
  5
16
100
AcDbSymbolTableRecord
100
AcDbRegAppTableRecord
  2
ACAD
 70
     0
  0
APPID
  5
26
100
AcDbSymbolTableRecord
100
AcDbRegAppTableRecord
  2
TOPsolid_Draft
 70
     0
  0
ENDTAB
  0
TABLE
  2
DIMSTYLE
  5
9
100
AcDbSymbolTable
 70
     1
100
AcDbDimStyleTable
 71
     0
  0
DIMSTYLE
105
18
100
AcDbSymbolTableRecord
100
AcDbDimStyleTableRecord
  2
Standard
 70
     0
  3

  4

 40
1.0
 41
1.05
 42
1.05
 43
0.38
 44
1.05
 45
0.0
 46
0.0
 47
0.0
 48
0.0
 71
     0
 72
     0
 73
     0
 74
     0
 75
     0
 76
     0
 77
     1
 78
     0
 79
     0
140
3.5
141
0.09
142
0.0
143
25.4
144
1.0
145
0.0
146
0.5
147
1.75
148
0.0
170
     0
171
     2
172
     0
173
     0
174
     0
175
     0
176
     7
177
     7
178
     7
179
     0
271
     1
272
     4
273
     2
274
     2
275
     0
276
     0
277
     2
278
    46
279
     0
280
     0
281
     0
282
     0
283
     1
284
     0
285
     0
286
     0
288
     0
289
     3
340
17
341
0
342
0
343
0
344
0
371
    -2
372
    -2
  0
ENDTAB
  0
TABLE
  2
BLOCK_RECORD
  5
1
100
AcDbSymbolTable
 70
    23
  0
BLOCK_RECORD
  5
A
100
AcDbSymbolTableRecord
100
AcDbBlockTableRecord
  2
*MODEL_SPACE
340
20
  0
BLOCK_RECORD
  5
B
100
AcDbSymbolTableRecord
100
AcDbBlockTableRecord
  2
*PAPER_SPACE
340
21
  0
BLOCK_RECORD
  5
27
100
AcDbSymbolTableRecord
100
AcDbBlockTableRecord
  2
$DFT_DRAWING
340
0
102
{BLKREFS
331
58
102
}
  0
BLOCK_RECORD
  5
29
100
AcDbSymbolTableRecord
100
AcDbBlockTableRecord
  2
$DFT_DRAWING950
340
0
102
{BLKREFS
331
56
102
}
  0
BLOCK_RECORD
  5
59
100
AcDbSymbolTableRecord
100
AcDbBlockTableRecord
  2
AID85
340
0
102
{BLKREFS
331
80
102
}
  0
BLOCK_RECORD
  5
8E
100
AcDbSymbolTableRecord
100
AcDbBlockTableRecord
  2
AID185
340
0
102
{BLKREFS
331
B8
102
}
  0
BLOCK_RECORD
  5
BE
100
AcDbSymbolTableRecord
100
AcDbBlockTableRecord
  2
AID274
340
0
102
{BLKREFS
331
C7
102
}
  0
BLOCK_RECORD
  5
C8
100
AcDbSymbolTableRecord
100
AcDbBlockTableRecord
  2
AID279
340
0
102
{BLKREFS
331
D1
102
}
  0
BLOCK_RECORD
  5
D2
100
AcDbSymbolTableRecord
100
AcDbBlockTableRecord
  2
AID284
340
0
102
{BLKREFS
331
DB
102
}
  0
BLOCK_RECORD
  5
DC
100
AcDbSymbolTableRecord
100
AcDbBlockTableRecord
  2
AID289
340
0
102
{BLKREFS
331
E5
102
}
  0
BLOCK_RECORD
  5
E6
100
AcDbSymbolTableRecord
100
AcDbBlockTableRecord
  2
AID294
340
0
102
{BLKREFS
331
EF
102
}
  0
BLOCK_RECORD
  5
FC
100
AcDbSymbolTableRecord
100
AcDbBlockTableRecord
  2
AID323
340
0
102
{BLKREFS
331
10A
102
}
  0
BLOCK_RECORD
  5
10D
100
AcDbSymbolTableRecord
100
AcDbBlockTableRecord
  2
AID339
340
0
102
{BLKREFS
331
11F
102
}
  0
BLOCK_RECORD
  5
164
100
AcDbSymbolTableRecord
100
AcDbBlockTableRecord
  2
AID504
340
0
102
{BLKREFS
331
2CC
102
}
  0
BLOCK_RECORD
  5
2F4
100
AcDbSymbolTableRecord
100
AcDbBlockTableRecord
  2
AID1302
340
0
102
{BLKREFS
331
2FC
102
}
  0
BLOCK_RECORD
  5
2FF
100
AcDbSymbolTableRecord
100
AcDbBlockTableRecord
  2
*D13
340
0
  0
BLOCK_RECORD
  5
311
100
AcDbSymbolTableRecord
100
AcDbBlockTableRecord
  2
*D14
340
0
  0
BLOCK_RECORD
  5
323
100
AcDbSymbolTableRecord
100
AcDbBlockTableRecord
  2
*D15
340
0
  0
BLOCK_RECORD
  5
55F
100
AcDbSymbolTableRecord
100
AcDbBlockTableRecord
  2
*D16
340
0
  0
BLOCK_RECORD
  5
579
100
AcDbSymbolTableRecord
100
AcDbBlockTableRecord
  2
*D17
340
0
  0
BLOCK_RECORD
  5
58B
100
AcDbSymbolTableRecord
100
AcDbBlockTableRecord
  2
*D18
340
0
  0
BLOCK_RECORD
  5
59D
100
AcDbSymbolTableRecord
100
AcDbBlockTableRecord
  2
*D19
340
0
  0
BLOCK_RECORD
  5
5AF
100
AcDbSymbolTableRecord
100
AcDbBlockTableRecord
  2
*D20
340
0
  0
BLOCK_RECORD
  5
5C0
100
AcDbSymbolTableRecord
100
AcDbBlockTableRecord
  2
AID2178
340
0
102
{BLKREFS
331
5CB
102
}
  0
BLOCK_RECORD
  5
5CC
100
AcDbSymbolTableRecord
100
AcDbBlockTableRecord
  2
AID2184
340
0
102
{BLKREFS
331
5D7
102
}
  0
ENDTAB
  0
ENDSEC
  0
SECTION
  2
BLOCKS
  0
BLOCK
  5
D
100
AcDbEntity
  8
0
390
0
100
AcDbBlockBegin
  2
*MODEL_SPACE
 70
     0
 10
0.0
 20
0.0
 30
0.0
  3
*MODEL_SPACE
  1

  0
ENDBLK
  5
E
100
AcDbEntity
  8
0
390
0
100
AcDbBlockEnd
  0
BLOCK
  5
F
100
AcDbEntity
 67
     1
  8
0
390
0
100
AcDbBlockBegin
  2
*PAPER_SPACE
 70
     0
 10
0.0
 20
0.0
 30
0.0
  3
*PAPER_SPACE
  1

  0
ENDBLK
  5
10
100
AcDbEntity
 67
     1
  8
0
390
0
100
AcDbBlockEnd
  0
BLOCK
  5
28
100
AcDbEntity
  8
0
390
0
100
AcDbBlockBegin
  2
$DFT_DRAWING
 70
     0
 10
0.0
 20
0.0
 30
0.0
  3
D_FRAME_DRAWING
  1

  0
INSERT
  5
56
100
AcDbEntity
  8
0
390
0
100
AcDbBlockReference
  2
$DFT_DRAWING950
 10
0.0
 20
0.0
 30
0.0
  0
ENDBLK
  5
57
100
AcDbEntity
  8
0
390
0
100
AcDbBlockEnd
  0
BLOCK
  5
2A
100
AcDbEntity
  8
0
390
0
100
AcDbBlockBegin
  2
$DFT_DRAWING950
 70
     0
 10
0.0
 20
0.0
 30
0.0
  3
#draft drawing
  1

  0
LINE
  5
2B
100
AcDbEntity
  8
0
390
0
  6
Continuous
 62
     8
100
AcDbLine
 10
10.0
 20
10.0
 30
0.0
 11
287.0
 21
10.0
 31
0.0
  0
LINE
  5
2C
100
AcDbEntity
  8
0
390
0
  6
Continuous
 62
     8
100
AcDbLine
 10
287.0
 20
10.0
 30
0.0
 11
287.0
 21
200.0
 31
0.0
  0
LINE
  5
2D
100
AcDbEntity
  8
0
390
0
  6
Continuous
 62
     8
100
AcDbLine
 10
287.0
 20
200.0
 30
0.0
 11
10.0
 21
200.0
 31
0.0
  0
LINE
  5
2E
100
AcDbEntity
  8
0
390
0
  6
Continuous
 62
     8
100
AcDbLine
 10
10.0
 20
200.0
 30
0.0
 11
10.0
 21
10.0
 31
0.0
  0
LINE
  5
2F
100
AcDbEntity
  8
0
390
0
  6
Continuous
 62
     8
100
AcDbLine
 10
74.25
 20
200.0
 30
0.0
 11
74.25
 21
205.0
 31
0.0
  0
MTEXT
  5
30
100
AcDbEntity
  8
0
390
0
 62
     8
100
AcDbMText
 10
37.125
 20
205.0
 30
0.0
 40
3.5
 41
0.408333
 71
     2
 72
     1
  1
1
210
0.0
220
0.0
230
1.0
 73
     1
 44
1.0
  0
LINE
  5
31
100
AcDbEntity
  8
0
390
0
  6
Continuous
 62
     8
100
AcDbLine
 10
74.25
 20
10.0
 30
0.0
 11
74.25
 21
5.0
 31
0.0
  0
MTEXT
  5
32
100
AcDbEntity
  8
0
390
0
 62
     8
100
AcDbMText
 10
37.125
 20
5.0
 30
0.0
 40
3.5
 41
0.408333
 71
     8
 72
     1
  1
1
210
0.0
220
0.0
230
1.0
 73
     1
 44
1.0
  0
LINE
  5
33
100
AcDbEntity
  8
0
390
0
  6
Continuous
 62
     8
100
AcDbLine
 10
148.5
 20
200.0
 30
0.0
 11
148.5
 21
205.0
 31
0.0
  0
MTEXT
  5
34
100
AcDbEntity
  8
0
390
0
 62
     8
100
AcDbMText
 10
111.375
 20
205.0
 30
0.0
 40
3.5
 41
2.547222
 71
     2
 72
     1
  1
2
210
0.0
220
0.0
230
1.0
 73
     1
 44
1.0
  0
LINE
  5
35
100
AcDbEntity
  8
0
390
0
  6
Continuous
 62
     8
100
AcDbLine
 10
222.75
 20
200.0
 30
0.0
 11
222.75
 21
205.0
 31
0.0
  0
MTEXT
  5
36
100
AcDbEntity
  8
0
390
0
 62
     8
100
AcDbMText
 10
185.625
 20
205.0
 30
0.0
 40
3.5
 41
2.723437
 71
     2
 72
     1
  1
3
210
0.0
220
0.0
230
1.0
 73
     1
 44
1.0
  0
LINE
  5
37
100
AcDbEntity
  8
0
390
0
  6
Continuous
 62
     8
100
AcDbLine
 10
222.75
 20
10.0
 30
0.0
 11
222.75
 21
5.0
 31
0.0
  0
MTEXT
  5
38
100
AcDbEntity
  8
0
390
0
 62
     8
100
AcDbMText
 10
259.875
 20
205.0
 30
0.0
 40
3.5
 41
2.716146
 71
     2
 72
     1
  1
4
210
0.0
220
0.0
230
1.0
 73
     1
 44
1.0
  0
MTEXT
  5
39
100
AcDbEntity
  8
0
390
0
 62
     8
100
AcDbMText
 10
259.875
 20
5.0
 30
0.0
 40
3.5
 41
2.716146
 71
     8
 72
     1
  1
4
210
0.0
220
0.0
230
1.0
 73
     1
 44
1.0
  0
LINE
  5
3A
100
AcDbEntity
  8
0
390
0
  6
Continuous
 62
     8
100
AcDbLine
 10
287.0
 20
157.5
 30
0.0
 11
292.0
 21
157.5
 31
0.0
  0
MTEXT
  5
3B
100
AcDbEntity
  8
0
390
0
 62
     8
100
AcDbMText
 10
292.0
 20
183.75
 30
0.0
 40
3.5
 41
3.137923
 71
     6
 72
     1
  1
A
210
0.0
220
0.0
230
1.0
 73
     1
 44
1.0
  0
LINE
  5
3C
100
AcDbEntity
  8
0
390
0
  6
Continuous
 62
     8
100
AcDbLine
 10
10.0
 20
157.5
 30
0.0
 11
5.0
 21
157.5
 31
0.0
  0
MTEXT
  5
3D
100
AcDbEntity
  8
0
390
0
 62
     8
100
AcDbMText
 10
5.0
 20
183.75
 30
0.0
 40
3.5
 41
3.137923
 71
     4
 72
     1
  1
A
210
0.0
220
0.0
230
1.0
 73
     1
 44
1.0
  0
LINE
  5
3E
100
AcDbEntity
  8
0
390
0
  6
Continuous
 62
     8
100
AcDbLine
 10
287.0
 20
105.0
 30
0.0
 11
292.0
 21
105.0
 31
0.0
  0
MTEXT
  5
3F
100
AcDbEntity
  8
0
390
0
 62
     8
100
AcDbMText
 10
292.0
 20
131.25
 30
0.0
 40
3.5
 41
2.527778
 71
     6
 72
     1
  1
B
210
0.0
220
0.0
230
1.0
 73
     1
 44
1.0
  0
LINE
  5
40
100
AcDbEntity
  8
0
390
0
  6
Continuous
 62
     8
100
AcDbLine
 10
10.0
 20
105.0
 30
0.0
 11
5.0
 21
105.0
 31
0.0
  0
MTEXT
  5
41
100
AcDbEntity
  8
0
390
0
 62
     8
100
AcDbMText
 10
5.0
 20
131.25
 30
0.0
 40
3.5
 41
2.527778
 71
     4
 72
     1
  1
B
210
0.0
220
0.0
230
1.0
 73
     1
 44
1.0
  0
LINE
  5
42
100
AcDbEntity
  8
0
390
0
  6
Continuous
 62
     8
100
AcDbLine
 10
287.0
 20
52.5
 30
0.0
 11
292.0
 21
52.5
 31
0.0
  0
MTEXT
  5
43
100
AcDbEntity
  8
0
390
0
 62
     8
100
AcDbMText
 10
292.0
 20
78.75
 30
0.0
 40
3.5
 41
2.966797
 71
     6
 72
     1
  1
C
210
0.0
220
0.0
230
1.0
 73
     1
 44
1.0
  0
LINE
  5
44
100
AcDbEntity
  8
0
390
0
  6
Continuous
 62
     8
100
AcDbLine
 10
10.0
 20
52.5
 30
0.0
 11
5.0
 21
52.5
 31
0.0
  0
MTEXT
  5
45
100
AcDbEntity
  8
0
390
0
 62
     8
100
AcDbMText
 10
5.0
 20
78.75
 30
0.0
 40
3.5
 41
2.966797
 71
     4
 72
     1
  1
C
210
0.0
220
0.0
230
1.0
 73
     1
 44
1.0
  0
MTEXT
  5
46
100
AcDbEntity
  8
0
390
0
 62
     8
100
AcDbMText
 10
292.0
 20
26.25
 30
0.0
 40
3.5
 41
2.722222
 71
     6
 72
     1
  1
D
210
0.0
220
0.0
230
1.0
 73
     1
 44
1.0
  0
MTEXT
  5
47
100
AcDbEntity
  8
0
390
0
 62
     8
100
AcDbMText
 10
5.0
 20
26.25
 30
0.0
 40
3.5
 41
2.722222
 71
     4
 72
     1
  1
D
210
0.0
220
0.0
230
1.0
 73
     1
 44
1.0
  0
LINE
  5
48
100
AcDbEntity
  8
0
390
0
  6
Continuous
 62
     8
100
AcDbLine
 10
148.5
 20
10.0
 30
0.0
 11
148.5
 21
5.0
 31
0.0
  0
LINE
  5
49
100
AcDbEntity
  8
0
390
0
  6
Continuous
 62
     8
100
AcDbLine
 10
158.5
 20
10.0
 30
0.0
 11
158.5
 21
5.0
 31
0.0
  0
LINE
  5
4A
100
AcDbEntity
  8
0
390
0
  6
Continuous
 62
     8
100
AcDbLine
 10
138.5
 20
10.0
 30
0.0
 11
138.5
 21
5.0
 31
0.0
  0
LINE
  5
4B
100
AcDbEntity
  8
0
390
0
  6
Continuous
 62
     8
100
AcDbLine
 10
168.5
 20
10.0
 30
0.0
 11
168.5
 21
5.0
 31
0.0
  0
LINE
  5
4C
100
AcDbEntity
  8
0
390
0
  6
Continuous
 62
     8
100
AcDbLine
 10
128.5
 20
10.0
 30
0.0
 11
128.5
 21
5.0
 31
0.0
  0
LINE
  5
4D
100
AcDbEntity
  8
0
390
0
  6
Continuous
 62
     8
100
AcDbLine
 10
178.5
 20
10.0
 30
0.0
 11
178.5
 21
5.0
 31
0.0
  0
LINE
  5
4E
100
AcDbEntity
  8
0
390
0
  6
Continuous
 62
     8
100
AcDbLine
 10
118.5
 20
10.0
 30
0.0
 11
118.5
 21
5.0
 31
0.0
  0
LINE
  5
4F
100
AcDbEntity
  8
0
390
0
  6
Continuous
 62
     8
100
AcDbLine
 10
188.5
 20
10.0
 30
0.0
 11
188.5
 21
5.0
 31
0.0
  0
LINE
  5
50
100
AcDbEntity
  8
0
390
0
  6
Continuous
 62
     8
100
AcDbLine
 10
108.5
 20
10.0
 30
0.0
 11
108.5
 21
5.0
 31
0.0
  0
LINE
  5
51
100
AcDbEntity
  8
0
390
0
  6
Continuous
 62
     8
100
AcDbLine
 10
198.5
 20
10.0
 30
0.0
 11
198.5
 21
5.0
 31
0.0
  0
LINE
  5
52
100
AcDbEntity
  8
0
390
0
  6
Continuous
 62
     8
100
AcDbLine
 10
98.5
 20
10.0
 30
0.0
 11
98.5
 21
5.0
 31
0.0
  0
LINE
  5
53
100
AcDbEntity
  8
0
390
0
  6
Continuous
 62
     8
100
AcDbLine
 10
198.5
 20
10.0
 30
0.0
 11
98.5
 21
10.0
 31
0.0
  0
LINE
  5
54
100
AcDbEntity
  8
0
390
0
  6
Continuous
 62
     8
100
AcDbLine
 10
198.5
 20
5.0
 30
0.0
 11
98.5
 21
5.0
 31
0.0
  0
ENDBLK
  5
55
100
AcDbEntity
  8
0
390
0
100
AcDbBlockEnd
  0
BLOCK
  5
5A
100
AcDbEntity
  8
0
390
0
100
AcDbBlockBegin
  2
AID85
 70
     0
 10
0.0
 20
0.0
 30
0.0
  3
#draft border with alignment
  1

  0
LINE
  5
5B
100
AcDbEntity
  8
0
390
0
  6
Continuous
 62
     7
100
AcDbLine
 10
172.0
 20
10.0
 30
0.0
 11
287.0
 21
10.0
 31
0.0
  0
LINE
  5
5C
100
AcDbEntity
  8
0
390
0
  6
Continuous
 62
     7
100
AcDbLine
 10
172.0
 20
58.0
 30
0.0
 11
287.0
 21
58.0
 31
0.0
  0
LINE
  5
5D
100
AcDbEntity
  8
0
390
0
  6
Continuous
 62
     7
100
AcDbLine
 10
172.0
 20
10.0
 30
0.0
 11
172.0
 21
58.0
 31
0.0
  0
LINE
  5
5E
100
AcDbEntity
  8
0
390
0
  6
Continuous
 62
     7
100
AcDbLine
 10
287.0
 20
10.0
 30
0.0
 11
287.0
 21
58.0
 31
0.0
  0
LINE
  5
5F
100
AcDbEntity
  8
0
390
0
  6
Continuous
 62
     9
100
AcDbLine
 10
287.0
 20
51.856682
 30
0.0
 11
172.0
 21
51.856682
 31
0.0
  0
LINE
  5
60
100
AcDbEntity
  8
0
390
0
  6
Continuous
 62
     9
100
AcDbLine
 10
287.0
 20
40.642313
 30
0.0
 11
172.0
 21
40.642313
 31
0.0
  0
LINE
  5
61
100
AcDbEntity
  8
0
390
0
  6
Continuous
 62
     9
100
AcDbLine
 10
287.0
 20
36.542169
 30
0.0
 11
172.0
 21
36.542169
 31
0.0
  0
LINE
  5
62
100
AcDbEntity
  8
0
390
0
  6
Continuous
 62
     9
100
AcDbLine
 10
287.0
 20
28.480012
 30
0.0
 11
172.0
 21
28.480012
 31
0.0
  0
LINE
  5
63
100
AcDbEntity
  8
0
390
0
  6
Continuous
 62
     9
100
AcDbLine
 10
191.06501
 20
10.0
 30
0.0
 11
191.06501
 21
28.480012
 31
0.0
  0
LINE
  5
64
100
AcDbEntity
  8
0
390
0
  6
Continuous
 62
     9
100
AcDbLine
 10
210.163182
 20
10.0
 30
0.0
 11
210.163182
 21
28.480012
 31
0.0
  0
LINE
  5
65
100
AcDbEntity
  8
0
390
0
  6
Continuous
 62
     9
100
AcDbLine
 10
229.261081
 20
10.0
 30
0.0
 11
229.261081
 21
28.480012
 31
0.0
  0
LINE
  5
66
100
AcDbEntity
  8
0
390
0
  6
Continuous
 62
     9
100
AcDbLine
 10
287.0
 20
21.382604
 30
0.0
 11
229.261081
 21
21.382604
 31
0.0
  0
LINE
  5
67
100
AcDbEntity
  8
0
390
0
  6
Continuous
 62
     9
100
AcDbLine
 10
248.767874
 20
21.382604
 30
0.0
 11
248.767874
 21
28.480012
 31
0.0
  0
LINE
  5
68
100
AcDbEntity
  8
0
390
0
  6
Continuous
 62
     9
100
AcDbLine
 10
229.261081
 20
24.671098
 30
0.0
 11
210.163182
 21
24.671098
 31
0.0
  0
LINE
  5
69
100
AcDbEntity
  8
0
390
0
  6
Continuous
 62
     9
100
AcDbLine
 10
210.163182
 20
24.668855
 30
0.0
 11
191.06501
 21
24.668855
 31
0.0
  0
LINE
  5
6A
100
AcDbEntity
  8
0
390
0
  6
Continuous
 62
     9
100
AcDbLine
 10
191.06501
 20
24.668855
 30
0.0
 11
172.0
 21
24.668855
 31
0.0
  0
LINE
  5
6B
100
AcDbEntity
  8
0
390
0
  6
Continuous
 62
     9
100
AcDbLine
 10
191.06501
 20
28.480012
 30
0.0
 11
191.06501
 21
36.542169
 31
0.0
  0
LINE
  5
6C
100
AcDbEntity
  8
0
390
0
  6
Continuous
 62
     9
100
AcDbLine
 10
210.163182
 20
28.480012
 30
0.0
 11
210.163182
 21
36.542169
 31
0.0
  0
LINE
  5
6D
100
AcDbEntity
  8
0
390
0
  6
Continuous
 62
     9
100
AcDbLine
 10
229.261081
 20
28.480012
 30
0.0
 11
229.261081
 21
36.542169
 31
0.0
  0
LINE
  5
6E
100
AcDbEntity
  8
0
390
0
  6
Continuous
 62
     9
100
AcDbLine
 10
248.767874
 20
28.480012
 30
0.0
 11
248.767874
 21
36.542169
 31
0.0
  0
LINE
  5
6F
100
AcDbEntity
  8
0
390
0
  6
Continuous
 62
     9
100
AcDbLine
 10
267.887786
 20
28.480012
 30
0.0
 11
267.887786
 21
36.542169
 31
0.0
  0
LINE
  5
70
100
AcDbEntity
  8
0
390
0
  6
Continuous
 62
     9
100
AcDbLine
 10
191.06501
 20
36.542169
 30
0.0
 11
191.06501
 21
40.642313
 31
0.0
  0
LINE
  5
71
100
AcDbEntity
  8
0
390
0
  6
Continuous
 62
     9
100
AcDbLine
 10
210.163182
 20
36.542169
 30
0.0
 11
210.163182
 21
40.642313
 31
0.0
  0
LINE
  5
72
100
AcDbEntity
  8
0
390
0
  6
Continuous
 62
     9
100
AcDbLine
 10
229.261081
 20
36.542169
 30
0.0
 11
229.261081
 21
40.642313
 31
0.0
  0
LINE
  5
73
100
AcDbEntity
  8
0
390
0
  6
Continuous
 62
     9
100
AcDbLine
 10
248.767874
 20
36.542169
 30
0.0
 11
248.767874
 21
40.642313
 31
0.0
  0
LINE
  5
74
100
AcDbEntity
  8
0
390
0
  6
Continuous
 62
     9
100
AcDbLine
 10
267.887786
 20
36.542169
 30
0.0
 11
267.887786
 21
40.642313
 31
0.0
  0
LINE
  5
75
100
AcDbEntity
  8
0
390
0
  6
Continuous
 62
     9
100
AcDbLine
 10
189.056259
 20
40.642313
 30
0.0
 11
189.056259
 21
51.856682
 31
0.0
  0
LINE
  5
76
100
AcDbEntity
  8
0
390
0
  6
Continuous
 62
     9
100
AcDbLine
 10
229.258465
 20
40.642313
 30
0.0
 11
229.258465
 21
51.856682
 31
0.0
  0
LINE
  5
77
100
AcDbEntity
  8
0
390
0
  6
Continuous
 62
     9
100
AcDbLine
 10
247.674009
 20
40.642313
 30
0.0
 11
247.674009
 21
51.856682
 31
0.0
  0
LINE
  5
78
100
AcDbEntity
  8
0
390
0
  6
Continuous
 62
     9
100
AcDbLine
 10
247.674009
 20
46.249498
 30
0.0
 11
287.0
 21
46.249498
 31
0.0
  0
LINE
  5
79
100
AcDbEntity
  8
0
390
0
  6
Continuous
 62
     9
100
AcDbLine
 10
229.258465
 20
46.249498
 30
0.0
 11
247.674009
 21
46.249498
 31
0.0
  0
LINE
  5
7A
100
AcDbEntity
  8
0
390
0
  6
Continuous
 62
     9
100
AcDbLine
 10
189.056259
 20
46.249498
 30
0.0
 11
229.258465
 21
46.249498
 31
0.0
  0
LINE
  5
7B
100
AcDbEntity
  8
0
390
0
  6
Continuous
 62
     9
100
AcDbLine
 10
172.0
 20
46.249498
 30
0.0
 11
189.056259
 21
46.249498
 31
0.0
  0
LINE
  5
7C
100
AcDbEntity
  8
0
390
0
  6
Continuous
 62
     9
100
AcDbLine
 10
189.056015
 20
51.856682
 30
0.0
 11
189.056015
 21
58.0
 31
0.0
  0
LINE
  5
7D
100
AcDbEntity
  8
0
390
0
  6
Continuous
 62
     9
100
AcDbLine
 10
229.257297
 20
51.856682
 30
0.0
 11
229.257297
 21
58.0
 31
0.0
  0
LINE
  5
7E
100
AcDbEntity
  8
0
390
0
  6
Continuous
 62
     9
100
AcDbLine
 10
247.673427
 20
51.856682
 30
0.0
 11
247.673427
 21
58.0
 31
0.0
  0
ENDBLK
  5
7F
100
AcDbEntity
  8
0
390
0
100
AcDbBlockEnd
  0
BLOCK
  5
8F
100
AcDbEntity
  8
0
390
0
100
AcDbBlockBegin
  2
AID185
 70
     0
 10
0.0
 20
0.0
 30
0.0
  3
#draft border with alignment
  1

  0
LINE
  5
90
100
AcDbEntity
  8
0
390
0
  6
Continuous
 62
     7
100
AcDbLine
 10
88.0
 20
10.0
 30
0.0
 11
172.0
 21
10.0
 31
0.0
  0
LINE
  5
91
100
AcDbEntity
  8
0
390
0
  6
Continuous
 62
     7
100
AcDbLine
 10
88.0
 20
43.99
 30
0.0
 11
172.0
 21
43.99
 31
0.0
  0
LINE
  5
92
100
AcDbEntity
  8
0
390
0
  6
Continuous
 62
     7
100
AcDbLine
 10
88.0
 20
10.0
 30
0.0
 11
88.0
 21
43.99
 31
0.0
  0
LINE
  5
93
100
AcDbEntity
  8
0
390
0
  6
Continuous
 62
     7
100
AcDbLine
 10
172.0
 20
10.0
 30
0.0
 11
172.0
 21
43.99
 31
0.0
  0
LINE
  5
94
100
AcDbEntity
  8
0
390
0
  6
Continuous
 62
     9
100
AcDbLine
 10
88.0
 20
15.665
 30
0.0
 11
172.0
 21
15.665
 31
0.0
  0
LINE
  5
95
100
AcDbEntity
  8
0
390
0
  6
Continuous
 62
     9
100
AcDbLine
 10
88.0
 20
21.33
 30
0.0
 11
172.0
 21
21.33
 31
0.0
  0
LINE
  5
96
100
AcDbEntity
  8
0
390
0
  6
Continuous
 62
     9
100
AcDbLine
 10
88.0
 20
26.995
 30
0.0
 11
172.0
 21
26.995
 31
0.0
  0
LINE
  5
97
100
AcDbEntity
  8
0
390
0
  6
Continuous
 62
     9
100
AcDbLine
 10
88.0
 20
32.66
 30
0.0
 11
172.0
 21
32.66
 31
0.0
  0
LINE
  5
98
100
AcDbEntity
  8
0
390
0
  6
Continuous
 62
     9
100
AcDbLine
 10
88.0
 20
38.325
 30
0.0
 11
172.0
 21
38.325
 31
0.0
  0
LINE
  5
99
100
AcDbEntity
  8
0
390
0
  6
Continuous
 62
     9
100
AcDbLine
 10
162.664654
 20
10.0
 30
0.0
 11
162.664654
 21
15.665
 31
0.0
  0
LINE
  5
9A
100
AcDbEntity
  8
0
390
0
  6
Continuous
 62
     9
100
AcDbLine
 10
153.324515
 20
10.0
 30
0.0
 11
153.324515
 21
15.665
 31
0.0
  0
LINE
  5
9B
100
AcDbEntity
  8
0
390
0
  6
Continuous
 62
     9
100
AcDbLine
 10
143.986913
 20
10.0
 30
0.0
 11
143.986913
 21
15.665
 31
0.0
  0
LINE
  5
9C
100
AcDbEntity
  8
0
390
0
  6
Continuous
 62
     9
100
AcDbLine
 10
97.742741
 20
10.0
 30
0.0
 11
97.742741
 21
15.665
 31
0.0
  0
LINE
  5
9D
100
AcDbEntity
  8
0
390
0
  6
Continuous
 62
     9
100
AcDbLine
 10
128.983997
 20
10.0
 30
0.0
 11
128.983997
 21
15.665
 31
0.0
  0
LINE
  5
9E
100
AcDbEntity
  8
0
390
0
  6
Continuous
 62
     9
100
AcDbLine
 10
162.664654
 20
15.665
 30
0.0
 11
162.664654
 21
21.33
 31
0.0
  0
LINE
  5
9F
100
AcDbEntity
  8
0
390
0
  6
Continuous
 62
     9
100
AcDbLine
 10
153.324515
 20
15.665
 30
0.0
 11
153.324515
 21
21.33
 31
0.0
  0
LINE
  5
A0
100
AcDbEntity
  8
0
390
0
  6
Continuous
 62
     9
100
AcDbLine
 10
143.986913
 20
15.665
 30
0.0
 11
143.986913
 21
21.33
 31
0.0
  0
LINE
  5
A1
100
AcDbEntity
  8
0
390
0
  6
Continuous
 62
     9
100
AcDbLine
 10
97.742741
 20
15.665
 30
0.0
 11
97.742741
 21
21.33
 31
0.0
  0
LINE
  5
A2
100
AcDbEntity
  8
0
390
0
  6
Continuous
 62
     9
100
AcDbLine
 10
128.983997
 20
15.665
 30
0.0
 11
128.983997
 21
21.33
 31
0.0
  0
LINE
  5
A3
100
AcDbEntity
  8
0
390
0
  6
Continuous
 62
     9
100
AcDbLine
 10
162.664654
 20
21.33
 30
0.0
 11
162.664654
 21
26.995
 31
0.0
  0
LINE
  5
A4
100
AcDbEntity
  8
0
390
0
  6
Continuous
 62
     9
100
AcDbLine
 10
153.324515
 20
21.33
 30
0.0
 11
153.324515
 21
26.995
 31
0.0
  0
LINE
  5
A5
100
AcDbEntity
  8
0
390
0
  6
Continuous
 62
     9
100
AcDbLine
 10
143.986913
 20
21.33
 30
0.0
 11
143.986913
 21
26.995
 31
0.0
  0
LINE
  5
A6
100
AcDbEntity
  8
0
390
0
  6
Continuous
 62
     9
100
AcDbLine
 10
97.742741
 20
21.33
 30
0.0
 11
97.742741
 21
26.995
 31
0.0
  0
LINE
  5
A7
100
AcDbEntity
  8
0
390
0
  6
Continuous
 62
     9
100
AcDbLine
 10
128.983997
 20
21.33
 30
0.0
 11
128.983997
 21
26.995
 31
0.0
  0
LINE
  5
A8
100
AcDbEntity
  8
0
390
0
  6
Continuous
 62
     9
100
AcDbLine
 10
162.664654
 20
26.995
 30
0.0
 11
162.664654
 21
32.66
 31
0.0
  0
LINE
  5
A9
100
AcDbEntity
  8
0
390
0
  6
Continuous
 62
     9
100
AcDbLine
 10
153.324515
 20
26.995
 30
0.0
 11
153.324515
 21
32.66
 31
0.0
  0
LINE
  5
AA
100
AcDbEntity
  8
0
390
0
  6
Continuous
 62
     9
100
AcDbLine
 10
143.986913
 20
26.995
 30
0.0
 11
143.986913
 21
32.66
 31
0.0
  0
LINE
  5
AB
100
AcDbEntity
  8
0
390
0
  6
Continuous
 62
     9
100
AcDbLine
 10
97.742741
 20
26.995
 30
0.0
 11
97.742741
 21
32.66
 31
0.0
  0
LINE
  5
AC
100
AcDbEntity
  8
0
390
0
  6
Continuous
 62
     9
100
AcDbLine
 10
128.983997
 20
26.995
 30
0.0
 11
128.983997
 21
32.66
 31
0.0
  0
LINE
  5
AD
100
AcDbEntity
  8
0
390
0
  6
Continuous
 62
     9
100
AcDbLine
 10
162.664654
 20
32.66
 30
0.0
 11
162.664654
 21
38.325
 31
0.0
  0
LINE
  5
AE
100
AcDbEntity
  8
0
390
0
  6
Continuous
 62
     9
100
AcDbLine
 10
153.324515
 20
32.66
 30
0.0
 11
153.324515
 21
38.325
 31
0.0
  0
LINE
  5
AF
100
AcDbEntity
  8
0
390
0
  6
Continuous
 62
     9
100
AcDbLine
 10
143.986913
 20
32.66
 30
0.0
 11
143.986913
 21
38.325
 31
0.0
  0
LINE
  5
B0
100
AcDbEntity
  8
0
390
0
  6
Continuous
 62
     9
100
AcDbLine
 10
97.742741
 20
32.66
 30
0.0
 11
97.742741
 21
38.325
 31
0.0
  0
LINE
  5
B1
100
AcDbEntity
  8
0
390
0
  6
Continuous
 62
     9
100
AcDbLine
 10
128.983997
 20
32.66
 30
0.0
 11
128.983997
 21
38.325
 31
0.0
  0
LINE
  5
B2
100
AcDbEntity
  8
0
390
0
  6
Continuous
 62
     9
100
AcDbLine
 10
162.664654
 20
38.325
 30
0.0
 11
162.664654
 21
43.99
 31
0.0
  0
LINE
  5
B3
100
AcDbEntity
  8
0
390
0
  6
Continuous
 62
     9
100
AcDbLine
 10
153.324515
 20
38.325
 30
0.0
 11
153.324515
 21
43.99
 31
0.0
  0
LINE
  5
B4
100
AcDbEntity
  8
0
390
0
  6
Continuous
 62
     9
100
AcDbLine
 10
143.986913
 20
38.325
 30
0.0
 11
143.986913
 21
43.99
 31
0.0
  0
LINE
  5
B5
100
AcDbEntity
  8
0
390
0
  6
Continuous
 62
     9
100
AcDbLine
 10
97.742741
 20
38.325
 30
0.0
 11
97.742741
 21
43.99
 31
0.0
  0
LINE
  5
B6
100
AcDbEntity
  8
0
390
0
  6
Continuous
 62
     9
100
AcDbLine
 10
128.983997
 20
38.325
 30
0.0
 11
128.983997
 21
43.99
 31
0.0
  0
ENDBLK
  5
B7
100
AcDbEntity
  8
0
390
0
100
AcDbBlockEnd
  0
BLOCK
  5
BF
100
AcDbEntity
  8
0
390
0
100
AcDbBlockBegin
  2
AID274
 70
     0
 10
0.0
 20
0.0
 30
0.0
  3
D_GROUP
  1

  0
MTEXT
  5
C0
100
AcDbEntity
  8
0
390
0
 62
     2
100
AcDbMText
 10
90.370058
 20
17.216139
 30
0.0
 40
2.0
 41
0.963636
 71
     7
 72
     1
  1
1
210
0.0
220
0.0
230
1.0
 73
     1
 44
1.0
  0
POLYLINE
  5
C1
100
AcDbEntity
  8
0
390
0
  6
Continuous
 62
     2
100
AcDb2dPolyline
 66
     1
 10
0.0
 20
0.0
 30
0.0
 70
     1
 40
0.1
 41
0.1
  0
VERTEX
  5
C2
100
AcDbEntity
  8
0
390
0
 62
     2
100
AcDbVertex
100
AcDb2dVertex
 10
92.87137
 20
16.752503
 30
0.0
  0
VERTEX
  5
C3
100
AcDbEntity
  8
0
390
0
 62
     2
100
AcDbVertex
100
AcDb2dVertex
 10
90.856421
 20
20.242497
 30
0.0
  0
VERTEX
  5
C4
100
AcDbEntity
  8
0
390
0
 62
     2
100
AcDbVertex
100
AcDb2dVertex
 10
88.841472
 20
16.752503
 30
0.0
  0
SEQEND
  5
C5
100
AcDbEntity
  8
0
390
0
  0
ENDBLK
  5
C6
100
AcDbEntity
  8
0
390
0
100
AcDbBlockEnd
  0
BLOCK
  5
C9
100
AcDbEntity
  8
0
390
0
100
AcDbBlockBegin
  2
AID279
 70
     0
 10
0.0
 20
0.0
 30
0.0
  3
D_GROUP
  1

  0
MTEXT
  5
CA
100
AcDbEntity
  8
0
390
0
 62
     2
100
AcDbMText
 10
90.051876
 20
22.697343
 30
0.0
 40
2.0
 41
1.854545
 71
     7
 72
     1
  1
2
210
0.0
220
0.0
230
1.0
 73
     1
 44
1.0
  0
POLYLINE
  5
CB
100
AcDbEntity
  8
0
390
0
  6
Continuous
 62
     2
100
AcDb2dPolyline
 66
     1
 10
0.0
 20
0.0
 30
0.0
 70
     1
 40
0.1
 41
0.1
  0
VERTEX
  5
CC
100
AcDbEntity
  8
0
390
0
 62
     2
100
AcDbVertex
100
AcDb2dVertex
 10
92.87137
 20
22.224615
 30
0.0
  0
VERTEX
  5
CD
100
AcDbEntity
  8
0
390
0
 62
     2
100
AcDbVertex
100
AcDb2dVertex
 10
90.633694
 20
26.100385
 30
0.0
  0
VERTEX
  5
CE
100
AcDbEntity
  8
0
390
0
 62
     2
100
AcDbVertex
100
AcDb2dVertex
 10
88.396018
 20
22.224615
 30
0.0
  0
SEQEND
  5
CF
100
AcDbEntity
  8
0
390
0
  0
ENDBLK
  5
D0
100
AcDbEntity
  8
0
390
0
100
AcDbBlockEnd
  0
BLOCK
  5
D3
100
AcDbEntity
  8
0
390
0
100
AcDbBlockBegin
  2
AID284
 70
     0
 10
0.0
 20
0.0
 30
0.0
  3
D_GROUP
  1

  0
MTEXT
  5
D4
100
AcDbEntity
  8
0
390
0
 62
     2
100
AcDbMText
 10
90.041379
 20
28.371434
 30
0.0
 40
2.0
 41
1.854545
 71
     7
 72
     1
  1
3
210
0.0
220
0.0
230
1.0
 73
     1
 44
1.0
  0
POLYLINE
  5
D5
100
AcDbEntity
  8
0
390
0
  6
Continuous
 62
     2
100
AcDb2dPolyline
 66
     1
 10
0.0
 20
0.0
 30
0.0
 70
     1
 40
0.1
 41
0.1
  0
VERTEX
  5
D6
100
AcDbEntity
  8
0
390
0
 62
     2
100
AcDbVertex
100
AcDb2dVertex
 10
92.87137
 20
27.880525
 30
0.0
  0
VERTEX
  5
D7
100
AcDbEntity
  8
0
390
0
 62
     2
100
AcDbVertex
100
AcDb2dVertex
 10
90.623197
 20
31.774475
 30
0.0
  0
VERTEX
  5
D8
100
AcDbEntity
  8
0
390
0
 62
     2
100
AcDbVertex
100
AcDb2dVertex
 10
88.375023
 20
27.880525
 30
0.0
  0
SEQEND
  5
D9
100
AcDbEntity
  8
0
390
0
  0
ENDBLK
  5
DA
100
AcDbEntity
  8
0
390
0
100
AcDbBlockEnd
  0
BLOCK
  5
DD
100
AcDbEntity
  8
0
390
0
100
AcDbBlockBegin
  2
AID289
 70
     0
 10
0.0
 20
0.0
 30
0.0
  3
D_GROUP
  1

  0
MTEXT
  5
DE
100
AcDbEntity
  8
0
390
0
 62
     2
100
AcDbMText
 10
90.006421
 20
33.991914
 30
0.0
 40
2.0
 41
2.018182
 71
     7
 72
     1
  1
4
210
0.0
220
0.0
230
1.0
 73
     1
 44
1.0
  0
POLYLINE
  5
DF
100
AcDbEntity
  8
0
390
0
  6
Continuous
 62
     2
100
AcDb2dPolyline
 66
     1
 10
0.0
 20
0.0
 30
0.0
 70
     1
 40
0.1
 41
0.1
  0
VERTEX
  5
E0
100
AcDbEntity
  8
0
390
0
 62
     2
100
AcDbVertex
100
AcDb2dVertex
 10
92.87137
 20
33.519187
 30
0.0
  0
VERTEX
  5
E1
100
AcDbEntity
  8
0
390
0
 62
     2
100
AcDbVertex
100
AcDb2dVertex
 10
90.592785
 20
37.465813
 30
0.0
  0
VERTEX
  5
E2
100
AcDbEntity
  8
0
390
0
 62
     2
100
AcDbVertex
100
AcDb2dVertex
 10
88.3142
 20
33.519187
 30
0.0
  0
SEQEND
  5
E3
100
AcDbEntity
  8
0
390
0
  0
ENDBLK
  5
E4
100
AcDbEntity
  8
0
390
0
100
AcDbBlockEnd
  0
BLOCK
  5
E7
100
AcDbEntity
  8
0
390
0
100
AcDbBlockBegin
  2
AID294
 70
     0
 10
0.0
 20
0.0
 30
0.0
  3
D_GROUP
  1

  0
MTEXT
  5
E8
100
AcDbEntity
  8
0
390
0
 62
     2
100
AcDbMText
 10
90.051876
 20
39.710525
 30
0.0
 40
2.0
 41
1.854545
 71
     7
 72
     1
  1
5
210
0.0
220
0.0
230
1.0
 73
     1
 44
1.0
  0
POLYLINE
  5
E9
100
AcDbEntity
  8
0
390
0
  6
Continuous
 62
     2
100
AcDb2dPolyline
 66
     1
 10
0.0
 20
0.0
 30
0.0
 70
     1
 40
0.1
 41
0.1
  0
VERTEX
  5
EA
100
AcDbEntity
  8
0
390
0
 62
     2
100
AcDbVertex
100
AcDb2dVertex
 10
92.87137
 20
39.219615
 30
0.0
  0
VERTEX
  5
EB
100
AcDbEntity
  8
0
390
0
 62
     2
100
AcDbVertex
100
AcDb2dVertex
 10
90.633694
 20
43.095385
 30
0.0
  0
VERTEX
  5
EC
100
AcDbEntity
  8
0
390
0
 62
     2
100
AcDbVertex
100
AcDb2dVertex
 10
88.396018
 20
39.219615
 30
0.0
  0
SEQEND
  5
ED
100
AcDbEntity
  8
0
390
0
  0
ENDBLK
  5
EE
100
AcDbEntity
  8
0
390
0
100
AcDbBlockEnd
  0
BLOCK
  5
FD
100
AcDbEntity
  8
0
390
0
100
AcDbBlockBegin
  2
AID323
 70
     0
 10
0.0
 20
0.0
 30
0.0
  3
D_GROUP
  1

  0
CIRCLE
  5
FE
100
AcDbEntity
  8
0
390
0
  6
Continuous
 62
     7
100
AcDbCircle
 10
234.514478
 20
32.511091
 30
0.0
 40
1.5
210
0.0
220
0.0
230
1.0
  0
CIRCLE
  5
FF
100
AcDbEntity
  8
0
390
0
  6
Continuous
 62
     7
100
AcDbCircle
 10
234.514478
 20
32.511091
 30
0.0
 40
3.0
210
0.0
220
0.0
230
1.0
  0
POLYLINE
  5
100
100
AcDbEntity
  8
0
390
0
  6
Continuous
 62
     7
100
AcDb2dPolyline
 66
     1
 10
0.0
 20
0.0
 30
0.0
 70
     1
 40
0.1
 41
0.1
  0
VERTEX
  5
101
100
AcDbEntity
  8
0
390
0
 62
     7
100
AcDbVertex
100
AcDb2dVertex
 10
239.514478
 20
31.011091
 30
0.0
  0
VERTEX
  5
102
100
AcDbEntity
  8
0
390
0
 62
     7
100
AcDbVertex
100
AcDb2dVertex
 10
239.514478
 20
34.011091
 30
0.0
  0
VERTEX
  5
103
100
AcDbEntity
  8
0
390
0
 62
     7
100
AcDbVertex
100
AcDb2dVertex
 10
246.514478
 20
35.511091
 30
0.0
  0
VERTEX
  5
104
100
AcDbEntity
  8
0
390
0
 62
     7
100
AcDbVertex
100
AcDb2dVertex
 10
246.514478
 20
29.511091
 30
0.0
  0
SEQEND
  5
105
100
AcDbEntity
  8
0
390
0
  0
LINE
  5
107
100
AcDbEntity
  8
0
390
0
  6
CENTER
 62
     1
100
AcDbLine
 10
230.514478
 20
32.511091
 30
0.0
 11
247.514478
 21
32.511091
 31
0.0
  0
LINE
  5
108
100
AcDbEntity
  8
0
390
0
  6
CENTER
 62
     1
100
AcDbLine
 10
234.514478
 20
28.511091
 30
0.0
 11
234.514478
 21
36.511091
 31
0.0
  0
ENDBLK
  5
109
100
AcDbEntity
  8
0
390
0
100
AcDbBlockEnd
  0
BLOCK
  5
10E
100
AcDbEntity
  8
0
390
0
100
AcDbBlockBegin
  2
AID339
 70
     0
 10
0.0
 20
0.0
 30
0.0
  3
#draft border with alignment
  1

  0
LINE
  5
10F
100
AcDbEntity
  8
0
390
0
  6
Continuous
 62
     7
100
AcDbLine
 10
10.0
 20
10.0
 30
0.0
 11
88.0
 21
10.0
 31
0.0
  0
LINE
  5
110
100
AcDbEntity
  8
0
390
0
  6
Continuous
 62
     7
100
AcDbLine
 10
10.0
 20
43.99
 30
0.0
 11
88.0
 21
43.99
 31
0.0
  0
LINE
  5
111
100
AcDbEntity
  8
0
390
0
  6
Continuous
 62
     7
100
AcDbLine
 10
10.0
 20
10.0
 30
0.0
 11
10.0
 21
43.99
 31
0.0
  0
LINE
  5
112
100
AcDbEntity
  8
0
390
0
  6
Continuous
 62
     7
100
AcDbLine
 10
88.0
 20
10.0
 30
0.0
 11
88.0
 21
43.99
 31
0.0
  0
LINE
  5
113
100
AcDbEntity
  8
0
390
0
  6
Continuous
 62
     9
100
AcDbLine
 10
88.0
 20
37.089693
 30
0.0
 11
10.0
 21
37.089693
 31
0.0
  0
LINE
  5
114
100
AcDbEntity
  8
0
390
0
  6
Continuous
 62
     9
100
AcDbLine
 10
10.0
 20
13.869956
 30
0.0
 11
88.0
 21
13.869956
 31
0.0
  0
LINE
  5
115
100
AcDbEntity
  8
0
390
0
  6
Continuous
 62
     9
100
AcDbLine
 10
10.0
 20
17.739912
 30
0.0
 11
88.0
 21
17.739912
 31
0.0
  0
LINE
  5
116
100
AcDbEntity
  8
0
390
0
  6
Continuous
 62
     9
100
AcDbLine
 10
10.0
 20
21.609869
 30
0.0
 11
88.0
 21
21.609869
 31
0.0
  0
LINE
  5
117
100
AcDbEntity
  8
0
390
0
  6
Continuous
 62
     9
100
AcDbLine
 10
10.0
 20
25.479825
 30
0.0
 11
88.0
 21
25.479825
 31
0.0
  0
LINE
  5
118
100
AcDbEntity
  8
0
390
0
  6
Continuous
 62
     9
100
AcDbLine
 10
10.0
 20
29.349781
 30
0.0
 11
88.0
 21
29.349781
 31
0.0
  0
LINE
  5
119
100
AcDbEntity
  8
0
390
0
  6
Continuous
 62
     9
100
AcDbLine
 10
10.0
 20
33.219737
 30
0.0
 11
88.0
 21
33.219737
 31
0.0
  0
LINE
  5
11A
100
AcDbEntity
  8
0
390
0
  6
Continuous
 62
     9
100
AcDbLine
 10
68.5
 20
10.0
 30
0.0
 11
68.5
 21
37.089693
 31
0.0
  0
LINE
  5
11B
100
AcDbEntity
  8
0
390
0
  6
Continuous
 62
     9
100
AcDbLine
 10
49.0
 20
10.0
 30
0.0
 11
49.0
 21
37.089693
 31
0.0
  0
LINE
  5
11C
100
AcDbEntity
  8
0
390
0
  6
Continuous
 62
     9
100
AcDbLine
 10
29.5
 20
10.0
 30
0.0
 11
29.5
 21
37.089693
 31
0.0
  0
LINE
  5
11D
100
AcDbEntity
  8
0
390
0
  6
Continuous
 62
     9
100
AcDbLine
 10
49.0
 20
37.089693
 30
0.0
 11
49.0
 21
43.99
 31
0.0
  0
ENDBLK
  5
11E
100
AcDbEntity
  8
0
390
0
100
AcDbBlockEnd
  0
BLOCK
  5
165
100
AcDbEntity
  8
0
390
0
100
AcDbBlockBegin
  2
AID504
 70
     0
 10
0.0
 20
0.0
 30
0.0
  3
D_GROUP
  1

  0
LINE
  5
166
100
AcDbEntity
  8
0
390
0
  6
Continuous
 62
     1
100
AcDbLine
 10
240.664325
 20
11.201902
 30
0.0
 11
240.664325
 21
13.105743
 31
0.0
  0
LINE
  5
167
100
AcDbEntity
  8
0
390
0
  6
Continuous
 62
     1
100
AcDbLine
 10
240.95526
 20
12.523695
 30
0.0
 11
240.955259
 21
12.053134
 31
0.0
  0
ARC
  5
168
100
AcDbEntity
  8
0
390
0
  6
Continuous
 62
     1
100
AcDbCircle
 10
241.582544
 20
12.269939
 30
0.0
 40
0.663695
210
0.0
220
0.0
230
1.0
100
AcDbArc
 50
199.066441
 51
267.345817
  0
ARC
  5
169
100
AcDbEntity
  8
0
390
0
  6
Continuous
 62
     1
100
AcDbCircle
 10
241.554391
 20
12.140962
 30
0.0
 40
0.534012
210
0.0
220
0.0
230
1.0
100
AcDbArc
 50
269.722984
 51
320.258813
  0
ARC
  5
16A
100
AcDbEntity
  8
0
390
0
  6
Continuous
 62
     1
100
AcDbCircle
 10
241.405781
 20
12.254125
 30
0.0
 40
0.720676
210
0.0
220
0.0
230
1.0
100
AcDbArc
 50
320.894405
 51
2.749691
  0
ARC
  5
16B
100
AcDbEntity
  8
0
390
0
  6
Continuous
 62
     1
100
AcDbCircle
 10
241.399479
 20
12.308293
 30
0.0
 40
0.726413
210
0.0
220
0.0
230
1.0
100
AcDbArc
 50
358.454215
 51
45.095683
  0
ARC
  5
16C
100
AcDbEntity
  8
0
390
0
  6
Continuous
 62
     1
100
AcDbCircle
 10
241.546441
 20
12.44385
 30
0.0
 40
0.526722
210
0.0
220
0.0
230
1.0
100
AcDbArc
 50
46.009269
 51
89.41606
  0
ARC
  5
16D
100
AcDbEntity
  8
0
390
0
  6
Continuous
 62
     1
100
AcDbCircle
 10
241.599959
 20
12.28464
 30
0.0
 40
0.687593
210
0.0
220
0.0
230
1.0
100
AcDbArc
 50
94.015492
 51
159.655151
  0
ARC
  5
16E
100
AcDbEntity
  8
0
390
0
  6
Continuous
 62
     1
100
AcDbCircle
 10
240.81487
 20
13.08542
 30
0.0
 40
0.151911
210
0.0
220
0.0
230
1.0
100
AcDbArc
 50
91.936155
 51
172.312003
  0
ARC
  5
16F
100
AcDbEntity
  8
0
390
0
  6
Continuous
 62
     1
100
AcDbCircle
 10
240.808489
 20
13.088609
 30
0.0
 40
0.148641
210
0.0
220
0.0
230
1.0
100
AcDbArc
 50
350.904155
 51
89.518465
  0
LINE
  5
170
100
AcDbEntity
  8
0
390
0
  6
Continuous
 62
     1
100
AcDbLine
 10
240.95526
 20
13.065111
 30
0.0
 11
240.95526
 21
12.940368
 31
0.0
  0
ARC
  5
171
100
AcDbEntity
  8
0
390
0
  6
Continuous
 62
     1
100
AcDbCircle
 10
241.583359
 20
12.425055
 30
0.0
 40
0.812438
210
0.0
220
0.0
230
1.0
100
AcDbArc
 50
91.416039
 51
140.633374
  0
ARC
  5
172
100
AcDbEntity
  8
0
390
0
  6
Continuous
 62
     1
100
AcDbCircle
 10
241.575478
 20
12.412098
 30
0.0
 40
0.825237
210
0.0
220
0.0
230
1.0
100
AcDbArc
 50
40.770944
 51
90.846792
  0
ARC
  5
173
100
AcDbEntity
  8
0
390
0
  6
Continuous
 62
     1
100
AcDbCircle
 10
241.467082
 20
12.312153
 30
0.0
 40
0.972608
210
0.0
220
0.0
230
0.9999999999999999
100
AcDbArc
 50
358.618135
 51
41.05987
  0
ARC
  5
174
100
AcDbEntity
  8
0
390
0
  6
Continuous
 62
     1
100
AcDbCircle
 10
241.436319
 20
12.263932
 30
0.0
 40
1.003394
210
0.0
220
0.0
230
1.0
100
AcDbArc
 50
319.60085
 51
1.41429
  0
ARC
  5
175
100
AcDbEntity
  8
0
390
0
  6
Continuous
 62
     1
100
AcDbCircle
 10
241.596185
 20
12.144396
 30
0.0
 40
0.804274
210
0.0
220
0.0
230
0.9999999999999999
100
AcDbArc
 50
268.465954
 51
318.704783
  0
ARC
  5
176
100
AcDbEntity
  8
0
390
0
  6
Continuous
 62
     1
100
AcDbCircle
 10
241.565804
 20
12.142439
 30
0.0
 40
0.802078
210
0.0
220
0.0
230
1.0
100
AcDbArc
 50
220.429708
 51
270.632212
  0
LINE
  5
177
100
AcDbEntity
  8
0
390
0
  6
Continuous
 62
     1
100
AcDbLine
 10
240.95526
 20
11.62228
 30
0.0
 11
240.95526
 21
11.161263
 31
0.0
  0
ARC
  5
178
100
AcDbEntity
  8
0
390
0
  6
Continuous
 62
     1
100
AcDbCircle
 10
240.804838
 20
11.181571
 30
0.0
 40
0.151787
210
0.0
220
0.0
230
1.0
100
AcDbArc
 50
271.849995
 51
352.311246
  0
ARC
  5
179
100
AcDbEntity
  8
0
390
0
  6
Continuous
 62
     1
100
AcDbCircle
 10
240.811025
 20
11.178425
 30
0.0
 40
0.148567
210
0.0
220
0.0
230
1.0
100
AcDbArc
 50
170.907764
 51
269.503551
  0
ARC
  5
17A
100
AcDbEntity
  8
0
390
0
  6
Continuous
 62
     1
100
AcDbCircle
 10
245.917136
 20
12.12295
 30
0.0
 40
0.516136
210
0.0
220
0.0
230
1.0
100
AcDbArc
 50
217.640476
 51
268.656661
  0
LINE
  5
17B
100
AcDbEntity
  8
0
390
0
  6
Continuous
 62
     1
100
AcDbLine
 10
245.375763
 20
12.48675
 30
0.0
 11
246.387815
 21
12.48675
 31
0.0
  0
ARC
  5
17C
100
AcDbEntity
  8
0
390
0
  6
Continuous
 62
     1
100
AcDbCircle
 10
245.937833
 20
12.490903
 30
0.0
 40
0.450002
210
0.0
220
0.0
230
1.0
100
AcDbArc
 50
359.471136
 51
44.064126
  0
ARC
  5
17D
100
AcDbEntity
  8
0
390
0
  6
Continuous
 62
     1
100
AcDbCircle
 10
245.900209
 20
12.496455
 30
0.0
 40
0.474135
210
0.0
220
0.0
230
1.0
100
AcDbArc
 50
40.417661
 51
90.79093
  0
ARC
  5
17E
100
AcDbEntity
  8
0
390
0
  6
Continuous
 62
     1
100
AcDbCircle
 10
245.910196
 20
12.469249
 30
0.0
 40
0.501568
210
0.0
220
0.0
230
1.0
100
AcDbArc
 50
91.888859
 51
141.550866
  0
ARC
  5
17F
100
AcDbEntity
  8
0
390
0
  6
Continuous
 62
     1
100
AcDbCircle
 10
245.998521
 20
12.368407
 30
0.0
 40
0.633902
210
0.0
220
0.0
230
1.0
100
AcDbArc
 50
139.376252
 51
169.240424
  0
ARC
  5
180
100
AcDbEntity
  8
0
390
0
  6
Continuous
 62
     1
100
AcDbCircle
 10
245.926394
 20
12.074115
 30
0.0
 40
0.467646
210
0.0
220
0.0
230
1.0
100
AcDbArc
 50
267.382381
 51
321.729349
  0
ARC
  5
181
100
AcDbEntity
  8
0
390
0
  6
Continuous
 62
     1
100
AcDbCircle
 10
245.811268
 20
12.155968
 30
0.0
 40
0.608769
210
0.0
220
0.0
230
1.0
100
AcDbArc
 50
322.392308
 51
345.783734
  0
LINE
  5
182
100
AcDbEntity
  8
0
390
0
  6
Continuous
 62
     1
100
AcDbLine
 10
246.403606
 20
12.010499
 30
0.0
 11
246.401394
 21
12.006465
 31
0.0
  0
ARC
  5
183
100
AcDbEntity
  8
0
390
0
  6
Continuous
 62
     1
100
AcDbCircle
 10
246.527126
 20
11.962634
 30
0.0
 40
0.132469
210
0.0
220
0.0
230
1.0
100
AcDbArc
 50
62.446966
 51
158.818237
  0
ARC
  5
184
100
AcDbEntity
  8
0
390
0
  6
Continuous
 62
     1
100
AcDbCircle
 10
246.500579
 20
11.94322
 30
0.0
 40
0.162614
210
0.0
220
0.0
230
1.0
100
AcDbArc
 50
340.786653
 51
57.311474
  0
ARC
  5
185
100
AcDbEntity
  8
0
390
0
  6
Continuous
 62
     1
100
AcDbCircle
 10
245.773135
 20
12.157353
 30
0.0
 40
0.920759
210
0.0
220
0.0
230
1.0
100
AcDbArc
 50
322.009682
 51
343.101282
  0
ARC
  5
186
100
AcDbEntity
  8
0
390
0
  6
Continuous
 62
     1
100
AcDbCircle
 10
245.969424
 20
12.019935
 30
0.0
 40
0.681591
210
0.0
220
0.0
230
1.0
100
AcDbArc
 50
265.538429
 51
320.957107
  0
ARC
  5
187
100
AcDbEntity
  8
0
390
0
  6
Continuous
 62
     1
100
AcDbCircle
 10
245.897452
 20
12.149859
 30
0.0
 40
0.809671
210
0.0
220
0.0
230
0.9999999999999999
100
AcDbArc
 50
221.474595
 51
271.341162
  0
ARC
  5
188
100
AcDbEntity
  8
0
390
0
  6
Continuous
 62
     1
100
AcDbCircle
 10
246.092175
 20
12.2788
 30
0.0
 40
1.041467
210
0.0
220
0.0
230
1.0
100
AcDbArc
 50
177.311019
 51
219.694362
  0
ARC
  5
189
100
AcDbEntity
  8
0
390
0
  6
Continuous
 62
     1
100
AcDbCircle
 10
245.993658
 20
12.336997
 30
0.0
 40
0.941849
210
0.0
220
0.0
230
1.0
100
AcDbArc
 50
138.266347
 51
180.567996
  0
ARC
  5
18A
100
AcDbEntity
  8
0
390
0
  6
Continuous
 62
     1
100
AcDbCircle
 10
245.889708
 20
12.444793
 30
0.0
 40
0.7926
210
0.0
220
0.0
230
0.9999999999999999
100
AcDbArc
 50
88.89191
 51
139.079317
  0
ARC
  5
18B
100
AcDbEntity
  8
0
390
0
  6
Continuous
 62
     1
100
AcDbCircle
 10
245.921241
 20
12.471927
 30
0.0
 40
0.765489
210
0.0
220
0.0
230
1.0
100
AcDbArc
 50
41.277619
 51
91.212982
  0
ARC
  5
18C
100
AcDbEntity
  8
0
390
0
  6
Continuous
 62
     1
100
AcDbCircle
 10
245.892358
 20
12.438835
 30
0.0
 40
0.809047
210
0.0
220
0.0
230
1.0
100
AcDbArc
 50
359.453444
 51
41.689446
  0
ARC
  5
18D
100
AcDbEntity
  8
0
390
0
  6
Continuous
 62
     1
100
AcDbCircle
 10
246.514184
 20
12.408633
 30
0.0
 40
0.18853
210
0.0
220
0.0
230
0.9999999999999999
100
AcDbArc
 50
271.251899
 51
6.84946
  0
LINE
  5
18E
100
AcDbEntity
  8
0
390
0
  6
Continuous
 62
     1
100
AcDbLine
 10
245.368424
 20
12.220149
 30
0.0
 11
246.518303
 21
12.220149
 31
0.0
  0
ARC
  5
18F
100
AcDbEntity
  8
0
390
0
  6
Continuous
 62
     1
100
AcDbCircle
 10
246.036588
 20
12.217013
 30
0.0
 40
0.668171
210
0.0
220
0.0
230
1.0
100
AcDbArc
 50
179.731089
 51
217.772082
  0
ARC
  5
190
100
AcDbEntity
  8
0
390
0
  6
Continuous
 62
     1
100
AcDbCircle
 10
237.931733
 20
12.322851
 30
0.0
 40
0.688489
210
0.0
220
0.0
230
1.0
100
AcDbArc
 50
358.241243
 51
42.774355
  0
ARC
  5
191
100
AcDbEntity
  8
0
390
0
  6
Continuous
 62
     1
100
AcDbCircle
 10
238.022116
 20
12.402448
 30
0.0
 40
0.568098
210
0.0
220
0.0
230
1.0
100
AcDbArc
 50
43.072127
 51
89.881097
  0
ARC
  5
192
100
AcDbEntity
  8
0
390
0
  6
Continuous
 62
     1
100
AcDbCircle
 10
238.023194
 20
12.405602
 30
0.0
 40
0.564943
210
0.0
220
0.0
230
1.0
100
AcDbArc
 50
89.989817
 51
140.482884
  0
ARC
  5
193
100
AcDbEntity
  8
0
390
0
  6
Continuous
 62
     1
100
AcDbCircle
 10
238.107663
 20
12.325297
 30
0.0
 40
0.681253
210
0.0
220
0.0
230
0.9999999999999999
100
AcDbArc
 50
139.793085
 51
181.983258
  0
CIRCLE
  5
194
100
AcDbEntity
  8
0
390
0
  6
Continuous
 62
     1
100
AcDbCircle
 10
238.02337
 20
12.288828
 30
0.0
 40
0.910411
210
0.0
220
0.0
230
1.0
  0
ARC
  5
195
100
AcDbEntity
  8
0
390
0
  6
Continuous
 62
     1
100
AcDbCircle
 10
238.036526
 20
12.167073
 30
0.0
 40
0.560273
210
0.0
220
0.0
230
1.0
100
AcDbArc
 50
268.646801
 51
319.007629
  0
ARC
  5
196
100
AcDbEntity
  8
0
390
0
  6
Continuous
 62
     1
100
AcDbCircle
 10
237.879496
 20
12.261612
 30
0.0
 40
0.741488
210
0.0
220
0.0
230
1.0
100
AcDbArc
 50
321.453788
 51
3.100733
  0
ARC
  5
197
100
AcDbEntity
  8
0
390
0
  6
Continuous
 62
     1
100
AcDbCircle
 10
238.187273
 20
12.268115
 30
0.0
 40
0.761197
210
0.0
220
0.0
230
1.0
100
AcDbArc
 50
177.469701
 51
217.992212
  0
ARC
  5
198
100
AcDbEntity
  8
0
390
0
  6
Continuous
 62
     1
100
AcDbCircle
 10
238.00939
 20
12.165097
 30
0.0
 40
0.558313
210
0.0
220
0.0
230
1.0
100
AcDbArc
 50
220.898494
 51
271.42703
  0
ARC
  5
199
100
AcDbEntity
  8
0
390
0
  6
Continuous
 62
     1
100
AcDbCircle
 10
244.151845
 20
12.416829
 30
0.0
 40
0.820446
210
0.0
220
0.0
230
1.0
100
AcDbArc
 50
90.497142
 51
135.467515
  0
ARC
  5
19A
100
AcDbEntity
  8
0
390
0
  6
Continuous
 62
     1
100
AcDbCircle
 10
244.173203
 20
12.499248
 30
0.0
 40
0.738546
210
0.0
220
0.0
230
1.0
100
AcDbArc
 50
42.984286
 51
92.209764
  0
ARC
  5
19B
100
AcDbEntity
  8
0
390
0
  6
Continuous
 62
     1
100
AcDbCircle
 10
244.075928
 20
12.504201
 30
0.0
 40
0.809358
210
0.0
220
0.0
230
1.0
100
AcDbArc
 50
356.655397
 51
38.026562
  0
LINE
  5
19C
100
AcDbEntity
  8
0
390
0
  6
Continuous
 62
     1
100
AcDbLine
 10
244.883907
 20
12.456982
 30
0.0
 11
244.883909
 21
11.471864
 31
0.0
  0
ARC
  5
19D
100
AcDbEntity
  8
0
390
0
  6
Continuous
 62
     1
100
AcDbCircle
 10
244.733435
 20
11.492166
 30
0.0
 40
0.151837
210
0.0
220
0.0
230
1.0
100
AcDbArc
 50
271.869229
 51
352.316001
  0
ARC
  5
19E
100
AcDbEntity
  8
0
390
0
  6
Continuous
 62
     1
100
AcDbCircle
 10
243.317844
 20
11.492136
 30
0.0
 40
0.151806
210
0.0
220
0.0
230
1.0
100
AcDbArc
 50
271.856202
 51
7.697154
  0
LINE
  5
19F
100
AcDbEntity
  8
0
390
0
  6
Continuous
 62
     1
100
AcDbLine
 10
243.468283
 20
12.463131
 30
0.0
 11
243.468282
 21
11.512468
 31
0.0
  0
ARC
  5
1A0
100
AcDbEntity
  8
0
390
0
  6
Continuous
 62
     1
100
AcDbCircle
 10
244.219851
 20
12.210897
 30
0.0
 40
0.792766
210
0.0
220
0.0
230
1.0
100
AcDbArc
 50
139.318632
 51
161.44769
  0
ARC
  5
1A1
100
AcDbEntity
  8
0
390
0
  6
Continuous
 62
     1
100
AcDbCircle
 10
244.108841
 20
12.354823
 30
0.0
 40
0.615862
210
0.0
220
0.0
230
1.0
100
AcDbArc
 50
88.776775
 51
142.742776
  0
ARC
  5
1A2
100
AcDbEntity
  8
0
390
0
  6
Continuous
 62
     1
100
AcDbCircle
 10
244.136917
 20
12.515945
 30
0.0
 40
0.454845
210
0.0
220
0.0
230
1.0
100
AcDbArc
 50
41.411226
 51
91.880972
  0
ARC
  5
1A3
100
AcDbEntity
  8
0
390
0
  6
Continuous
 62
     1
100
AcDbCircle
 10
243.982092
 20
12.45794
 30
0.0
 40
0.61217
210
0.0
220
0.0
230
0.9999999999999999
100
AcDbArc
 50
356.27304
 51
35.889176
  0
LINE
  5
1A4
100
AcDbEntity
  8
0
390
0
  6
Continuous
 62
     1
100
AcDbLine
 10
244.592968
 20
11.512468
 30
0.0
 11
244.592967
 21
12.418148
 31
0.0
  0
ARC
  5
1A5
100
AcDbEntity
  8
0
390
0
  6
Continuous
 62
     1
100
AcDbCircle
 10
244.739609
 20
11.488924
 30
0.0
 40
0.148519
210
0.0
220
0.0
230
1.0
100
AcDbArc
 50
170.878787
 51
269.528688
  0
LINE
  5
1A6
100
AcDbEntity
  8
0
390
0
  6
Continuous
 62
     1
100
AcDbLine
 10
243.509661
 20
12.929831
 30
0.0
 11
243.566987
 21
12.992219
 31
0.0
  0
LINE
  5
1A7
100
AcDbEntity
  8
0
390
0
  6
Continuous
 62
     1
100
AcDbLine
 10
243.468282
 20
12.877655
 30
0.0
 11
243.509661
 21
12.929831
 31
0.0
  0
LINE
  5
1A8
100
AcDbEntity
  8
0
390
0
  6
Continuous
 62
     1
100
AcDbLine
 10
243.468283
 20
13.065111
 30
0.0
 11
243.468282
 21
12.877655
 31
0.0
  0
ARC
  5
1A9
100
AcDbEntity
  8
0
390
0
  6
Continuous
 62
     1
100
AcDbCircle
 10
243.321514
 20
13.088612
 30
0.0
 40
0.148638
210
0.0
220
0.0
230
1.0
100
AcDbArc
 50
350.903117
 51
89.519339
  0
ARC
  5
1AA
100
AcDbEntity
  8
0
390
0
  6
Continuous
 62
     1
100
AcDbCircle
 10
243.327794
 20
13.085412
 30
0.0
 40
0.151916
210
0.0
220
0.0
230
1.0
100
AcDbArc
 50
91.898674
 51
187.679004
  0
LINE
  5
1AB
100
AcDbEntity
  8
0
390
0
  6
Continuous
 62
     1
100
AcDbLine
 10
243.177241
 20
11.512468
 30
0.0
 11
243.17724
 21
13.065112
 31
0.0
  0
ARC
  5
1AC
100
AcDbEntity
  8
0
390
0
  6
Continuous
 62
     1
100
AcDbCircle
 10
243.323977
 20
11.489005
 30
0.0
 40
0.1486
210
0.0
220
0.0
230
1.0
100
AcDbArc
 50
170.915515
 51
269.531091
  0
ARC
  5
1AD
100
AcDbEntity
  8
0
390
0
  6
Continuous
 62
     1
100
AcDbCircle
 10
242.795312
 20
13.085469
 30
0.0
 40
0.151915
210
0.0
220
0.0
230
1.0
100
AcDbArc
 50
91.93329
 51
172.299235
  0
LINE
  5
1AE
100
AcDbEntity
  8
0
390
0
  6
Continuous
 62
     1
100
AcDbLine
 10
242.644767
 20
11.512521
 30
0.0
 11
242.644766
 21
13.105825
 31
0.0
  0
ARC
  5
1AF
100
AcDbEntity
  8
0
390
0
  6
Continuous
 62
     1
100
AcDbCircle
 10
242.791471
 20
11.489031
 30
0.0
 40
0.148573
210
0.0
220
0.0
230
1.0
100
AcDbArc
 50
170.902946
 51
269.504554
  0
ARC
  5
1B0
100
AcDbEntity
  8
0
390
0
  6
Continuous
 62
     1
100
AcDbCircle
 10
242.785211
 20
11.492239
 30
0.0
 40
0.151857
210
0.0
220
0.0
230
0.9999999999999999
100
AcDbArc
 50
271.877763
 51
352.324516
  0
LINE
  5
1B1
100
AcDbEntity
  8
0
390
0
  6
Continuous
 62
     1
100
AcDbLine
 10
242.935706
 20
13.065111
 30
0.0
 11
242.935707
 21
11.471956
 31
0.0
  0
ARC
  5
1B2
100
AcDbEntity
  8
0
390
0
  6
Continuous
 62
     1
100
AcDbCircle
 10
242.78888
 20
13.088609
 30
0.0
 40
0.148694
210
0.0
220
0.0
230
1.0
100
AcDbArc
 50
350.90764
 51
89.496464
  0
ARC
  5
1B3
100
AcDbEntity
  8
0
390
0
  6
Continuous
 62
     1
100
AcDbCircle
 10
240.256193
 20
12.754972
 30
0.0
 40
0.163015
210
0.0
220
0.0
230
1.0
100
AcDbArc
 50
298.956364
 51
359.591462
  0
ARC
  5
1B4
100
AcDbEntity
  8
0
390
0
  6
Continuous
 62
     1
100
AcDbCircle
 10
240.02243
 20
12.733546
 30
0.0
 40
0.397291
210
0.0
220
0.0
230
1.0
100
AcDbArc
 50
2.923702
 51
42.663687
  0
ARC
  5
1B5
100
AcDbEntity
  8
0
390
0
  6
Continuous
 62
     1
100
AcDbCircle
 10
239.750565
 20
12.447047
 30
0.0
 40
0.791805
210
0.0
220
0.0
230
1.0
100
AcDbArc
 50
44.57678
 51
93.651322
  0
ARC
  5
1B6
100
AcDbEntity
  8
0
390
0
  6
Continuous
 62
     1
100
AcDbCircle
 10
239.639393
 20
12.495523
 30
0.0
 40
0.744205
210
0.0
220
0.0
230
1.0
100
AcDbArc
 50
85.31798
 51
134.235296
  0
ARC
  5
1B7
100
AcDbEntity
  8
0
390
0
  6
Continuous
 62
     1
100
AcDbCircle
 10
239.491352
 20
12.682576
 30
0.0
 40
0.507499
210
0.0
220
0.0
230
1.0
100
AcDbArc
 50
136.993432
 51
179.168797
  0
ARC
  5
1B8
100
AcDbEntity
  8
0
390
0
  6
Continuous
 62
     1
100
AcDbCircle
 10
239.496953
 20
12.735179
 30
0.0
 40
0.515037
210
0.0
220
0.0
230
1.0
100
AcDbArc
 50
185.039304
 51
266.133785
  0
LINE
  5
1B9
100
AcDbEntity
  8
0
390
0
  6
Continuous
 62
     1
100
AcDbLine
 10
239.965552
 20
12.117572
 30
0.0
 11
239.462226
 21
12.221314
 31
0.0
  0
ARC
  5
1BA
100
AcDbEntity
  8
0
390
0
  6
Continuous
 62
     1
100
AcDbCircle
 10
239.94908
 20
11.861402
 30
0.0
 40
0.256699
210
0.0
220
0.0
230
1.0
100
AcDbArc
 50
2.968107
 51
86.320918
  0
ARC
  5
1BB
100
AcDbEntity
  8
0
390
0
  6
Continuous
 62
     1
100
AcDbCircle
 10
240.026188
 20
11.864445
 30
0.0
 40
0.17954
210
0.0
220
0.0
230
1.0
100
AcDbArc
 50
309.943715
 51
3.272213
  0
ARC
  5
1BC
100
AcDbEntity
  8
0
390
0
  6
Continuous
 62
     1
100
AcDbCircle
 10
239.787363
 20
12.188562
 30
0.0
 40
0.581903
210
0.0
220
0.0
230
1.0
100
AcDbArc
 50
268.168642
 51
307.482092
  0
ARC
  5
1BD
100
AcDbEntity
  8
0
390
0
  6
Continuous
 62
     1
100
AcDbCircle
 10
239.721123
 20
12.143939
 30
0.0
 40
0.539093
210
0.0
220
0.0
230
1.0
100
AcDbArc
 50
227.304262
 51
275.070283
  0
ARC
  5
1BE
100
AcDbEntity
  8
0
390
0
  6
Continuous
 62
     1
100
AcDbCircle
 10
239.644964
 20
12.013756
 30
0.0
 40
0.393098
210
0.0
220
0.0
230
0.9999999999999999
100
AcDbArc
 50
195.548696
 51
222.590534
  0
LINE
  5
1BF
100
AcDbEntity
  8
0
390
0
  6
Continuous
 62
     1
100
AcDbLine
 10
239.260812
 20
11.927935
 30
0.0
 11
239.266252
 21
11.908383
 31
0.0
  0
ARC
  5
1C0
100
AcDbEntity
  8
0
390
0
  6
Continuous
 62
     1
100
AcDbCircle
 10
239.125876
 20
11.89039
 30
0.0
 40
0.140062
210
0.0
220
0.0
230
1.0
100
AcDbArc
 50
15.548696
 51
117.281689
  0
ARC
  5
1C1
100
AcDbEntity
  8
0
390
0
  6
Continuous
 62
     1
100
AcDbCircle
 10
239.164085
 20
11.866358
 30
0.0
 40
0.180399
210
0.0
220
0.0
230
1.0
100
AcDbArc
 50
124.588211
 51
202.264913
  0
ARC
  5
1C2
100
AcDbEntity
  8
0
390
0
  6
Continuous
 62
     1
100
AcDbCircle
 10
239.498902
 20
11.947905
 30
0.0
 40
0.523678
210
0.0
220
0.0
230
1.0
100
AcDbArc
 50
196.633035
 51
225.761587
  0
ARC
  5
1C3
100
AcDbEntity
  8
0
390
0
  6
Continuous
 62
     1
100
AcDbCircle
 10
239.730349
 20
12.219946
 30
0.0
 40
0.880374
210
0.0
220
0.0
230
1.0
100
AcDbArc
 50
227.321724
 51
272.501038
  0
ARC
  5
1C4
100
AcDbEntity
  8
0
390
0
  6
Continuous
 62
     1
100
AcDbCircle
 10
239.794115
 20
12.203728
 30
0.0
 40
0.86369
210
0.0
220
0.0
230
1.0
100
AcDbArc
 50
268.318204
 51
310.213823
  0
ARC
  5
1C5
100
AcDbEntity
  8
0
390
0
  6
Continuous
 62
     1
100
AcDbCircle
 10
240.100367
 20
11.850637
 30
0.0
 40
0.39637
210
0.0
220
0.0
230
1.0
100
AcDbArc
 50
309.361416
 51
1.628804
  0
ARC
  5
1C6
100
AcDbEntity
  8
0
390
0
  6
Continuous
 62
     1
100
AcDbCircle
 10
239.979467
 20
11.88891
 30
0.0
 40
0.517815
210
0.0
220
0.0
230
1.0
100
AcDbArc
 50
357.01041
 51
38.822746
  0
ARC
  5
1C7
100
AcDbEntity
  8
0
390
0
  6
Continuous
 62
     1
100
AcDbCircle
 10
239.88265
 20
11.717443
 30
0.0
 40
0.70452
210
0.0
220
0.0
230
1.0
100
AcDbArc
 50
44.761396
 51
74.074227
  0
LINE
  5
1C8
100
AcDbEntity
  8
0
390
0
  6
Continuous
 62
     1
100
AcDbLine
 10
239.491573
 20
12.524834
 30
0.0
 11
240.075964
 21
12.394922
 31
0.0
  0
LINE
  5
1C9
100
AcDbEntity
  8
0
390
0
  6
Continuous
 62
     1
100
AcDbLine
 10
239.443594
 20
12.536378
 30
0.0
 11
239.491573
 21
12.524834
 31
0.0
  0
LINE
  5
1CA
100
AcDbEntity
  8
0
390
0
  6
Continuous
 62
     1
100
AcDbLine
 10
239.396742
 20
12.551844
 30
0.0
 11
239.443594
 21
12.536378
 31
0.0
  0
LINE
  5
1CB
100
AcDbEntity
  8
0
390
0
  6
Continuous
 62
     1
100
AcDbLine
 10
239.352125
 20
12.572848
 30
0.0
 11
239.396742
 21
12.551844
 31
0.0
  0
LINE
  5
1CC
100
AcDbEntity
  8
0
390
0
  6
Continuous
 62
     1
100
AcDbLine
 10
239.321606
 20
12.593725
 30
0.0
 11
239.352125
 21
12.572848
 31
0.0
  0
LINE
  5
1CD
100
AcDbEntity
  8
0
390
0
  6
Continuous
 62
     1
100
AcDbLine
 10
239.29611
 20
12.620435
 30
0.0
 11
239.321606
 21
12.593725
 31
0.0
  0
LINE
  5
1CE
100
AcDbEntity
  8
0
390
0
  6
Continuous
 62
     1
100
AcDbLine
 10
239.279565
 20
12.653358
 30
0.0
 11
239.29611
 21
12.620435
 31
0.0
  0
LINE
  5
1CF
100
AcDbEntity
  8
0
390
0
  6
Continuous
 62
     1
100
AcDbLine
 10
239.274948
 20
12.689938
 30
0.0
 11
239.279565
 21
12.653358
 31
0.0
  0
ARC
  5
1D0
100
AcDbEntity
  8
0
390
0
  6
Continuous
 62
     1
100
AcDbCircle
 10
239.515449
 20
12.699083
 30
0.0
 40
0.240674
210
0.0
220
0.0
230
1.0
100
AcDbArc
 50
139.395976
 51
182.177643
  0
ARC
  5
1D1
100
AcDbEntity
  8
0
390
0
  6
Continuous
 62
     1
100
AcDbCircle
 10
239.657105
 20
12.467922
 30
0.0
 40
0.505581
210
0.0
220
0.0
230
1.0
100
AcDbArc
 50
83.79895
 51
129.911498
  0
ARC
  5
1D2
100
AcDbEntity
  8
0
390
0
  6
Continuous
 62
     1
100
AcDbCircle
 10
239.755064
 20
12.548556
 30
0.0
 40
0.424209
210
0.0
220
0.0
230
1.0
100
AcDbArc
 50
20.97101
 51
95.864888
  0
ARC
  5
1D3
100
AcDbEntity
  8
0
390
0
  6
Continuous
 62
     1
100
AcDbCircle
 10
240.284034
 20
12.741783
 30
0.0
 40
0.139161
210
0.0
220
0.0
230
1.0
100
AcDbArc
 50
197.309091
 51
291.534944
  0
CIRCLE
  5
1D4
100
AcDbEntity
  8
0
390
0
  6
Continuous
 62
     1
100
AcDbCircle
 10
242.790236
 20
14.424485
 30
0.0
 40
0.963717
210
0.0
220
0.0
230
1.0
  0
ARC
  5
1D5
100
AcDbEntity
  8
0
390
0
  6
Continuous
 62
     1
100
AcDbCircle
 10
236.170867
 20
13.088593
 30
0.0
 40
0.148657
210
0.0
220
0.0
230
1.0
100
AcDbArc
 50
350.915999
 51
89.500183
  0
LINE
  5
1D6
100
AcDbEntity
  8
0
390
0
  6
Continuous
 62
     1
100
AcDbLine
 10
236.31766
 20
12.931066
 30
0.0
 11
236.31766
 21
13.065123
 31
0.0
  0
LINE
  5
1D7
100
AcDbEntity
  8
0
390
0
  6
Continuous
 62
     1
100
AcDbLine
 10
236.351953
 20
12.987506
 30
0.0
 11
236.31766
 21
12.931066
 31
0.0
  0
LINE
  5
1D8
100
AcDbEntity
  8
0
390
0
  6
Continuous
 62
     1
100
AcDbLine
 10
236.402616
 20
13.054518
 30
0.0
 11
236.351953
 21
12.987506
 31
0.0
  0
ARC
  5
1D9
100
AcDbEntity
  8
0
390
0
  6
Continuous
 62
     1
100
AcDbCircle
 10
236.881791
 20
12.529763
 30
0.0
 40
0.710617
210
0.0
220
0.0
230
1.0
100
AcDbArc
 50
84.615683
 51
132.400455
  0
ARC
  5
1DA
100
AcDbEntity
  8
0
390
0
  6
Continuous
 62
     1
100
AcDbCircle
 10
236.958309
 20
13.101507
 30
0.0
 40
0.136094
210
0.0
220
0.0
230
1.0
100
AcDbArc
 50
355.551556
 51
94.145062
  0
ARC
  5
1DB
100
AcDbEntity
  8
0
390
0
  6
Continuous
 62
     1
100
AcDbCircle
 10
236.958222
 20
13.080527
 30
0.0
 40
0.136171
210
0.0
220
0.0
230
1.0
100
AcDbArc
 50
274.095944
 51
4.390634
  0
LINE
  5
1DC
100
AcDbEntity
  8
0
390
0
  6
Continuous
 62
     1
100
AcDbLine
 10
236.822884
 20
12.944704
 30
0.0
 11
236.967948
 21
12.944704
 31
0.0
  0
ARC
  5
1DD
100
AcDbEntity
  8
0
390
0
  6
Continuous
 62
     1
100
AcDbCircle
 10
236.804224
 20
12.548987
 30
0.0
 40
0.396156
210
0.0
220
0.0
230
1.0
100
AcDbArc
 50
87.300271
 51
137.43986
  0
ARC
  5
1DE
100
AcDbEntity
  8
0
390
0
  6
Continuous
 62
     1
100
AcDbCircle
 10
237.250063
 20
12.198715
 30
0.0
 40
0.962444
210
0.0
220
0.0
230
0.9999999999999999
100
AcDbArc
 50
140.033318
 51
165.647036
  0
LINE
  5
1DF
100
AcDbEntity
  8
0
390
0
  6
Continuous
 62
     1
100
AcDbLine
 10
236.31766
 20
11.512456
 30
0.0
 11
236.31766
 21
12.4373
 31
0.0
  0
ARC
  5
1E0
100
AcDbEntity
  8
0
390
0
  6
Continuous
 62
     1
100
AcDbCircle
 10
236.167195
 20
11.492157
 30
0.0
 40
0.151828
210
0.0
220
0.0
230
0.9999999999999999
100
AcDbArc
 50
271.875497
 51
7.683355
  0
ARC
  5
1E1
100
AcDbEntity
  8
0
390
0
  6
Continuous
 62
     1
100
AcDbCircle
 10
236.17336
 20
11.488987
 30
0.0
 40
0.148582
210
0.0
220
0.0
230
1.0
100
AcDbArc
 50
170.907465
 51
269.538812
  0
LINE
  5
1E2
100
AcDbEntity
  8
0
390
0
  6
Continuous
 62
     1
100
AcDbLine
 10
236.026643
 20
13.065112
 30
0.0
 11
236.026644
 21
11.512468
 31
0.0
  0
ARC
  5
1E3
100
AcDbEntity
  8
0
390
0
  6
Continuous
 62
     1
100
AcDbCircle
 10
236.177179
 20
13.085427
 30
0.0
 40
0.151901
210
0.0
220
0.0
230
1.0
100
AcDbArc
 50
91.892157
 51
187.68552
  0
LINE
  5
1E4
100
AcDbEntity
  8
0
390
0
  6
Continuous
 62
     1
100
AcDbLine
 10
235.596282
 20
11.475051
 30
0.0
 11
235.596282
 21
13.828784
 31
0.0
  0
LINE
  5
1E5
100
AcDbEntity
  8
0
390
0
  6
Continuous
 62
     1
100
AcDbLine
 10
235.586195
 20
11.419231
 30
0.0
 11
235.596282
 21
11.475051
 31
0.0
  0
LINE
  5
1E6
100
AcDbEntity
  8
0
390
0
  6
Continuous
 62
     1
100
AcDbLine
 10
235.567599
 20
11.365598
 30
0.0
 11
235.586195
 21
11.419231
 31
0.0
  0
LINE
  5
1E7
100
AcDbEntity
  8
0
390
0
  6
Continuous
 62
     1
100
AcDbLine
 10
235.541985
 20
11.314932
 30
0.0
 11
235.567599
 21
11.365598
 31
0.0
  0
LINE
  5
1E8
100
AcDbEntity
  8
0
390
0
  6
Continuous
 62
     1
100
AcDbLine
 10
235.510029
 20
11.268004
 30
0.0
 11
235.541985
 21
11.314932
 31
0.0
  0
LINE
  5
1E9
100
AcDbEntity
  8
0
390
0
  6
Continuous
 62
     1
100
AcDbLine
 10
235.458789
 20
11.212321
 30
0.0
 11
235.510029
 21
11.268004
 31
0.0
  0
LINE
  5
1EA
100
AcDbEntity
  8
0
390
0
  6
Continuous
 62
     1
100
AcDbLine
 10
235.399498
 20
11.16528
 30
0.0
 11
235.458789
 21
11.212321
 31
0.0
  0
LINE
  5
1EB
100
AcDbEntity
  8
0
390
0
  6
Continuous
 62
     1
100
AcDbLine
 10
235.334205
 20
11.126975
 30
0.0
 11
235.399498
 21
11.16528
 31
0.0
  0
LINE
  5
1EC
100
AcDbEntity
  8
0
390
0
  6
Continuous
 62
     1
100
AcDbLine
 10
235.250463
 20
11.091778
 30
0.0
 11
235.334205
 21
11.126975
 31
0.0
  0
LINE
  5
1ED
100
AcDbEntity
  8
0
390
0
  6
Continuous
 62
     1
100
AcDbLine
 10
235.163072
 20
11.066921
 30
0.0
 11
235.250463
 21
11.091778
 31
0.0
  0
LINE
  5
1EE
100
AcDbEntity
  8
0
390
0
  6
Continuous
 62
     1
100
AcDbLine
 10
235.073641
 20
11.050809
 30
0.0
 11
235.163072
 21
11.066921
 31
0.0
  0
LINE
  5
1EF
100
AcDbEntity
  8
0
390
0
  6
Continuous
 62
     1
100
AcDbLine
 10
234.983191
 20
11.041971
 30
0.0
 11
235.073641
 21
11.050809
 31
0.0
  0
LINE
  5
1F0
100
AcDbEntity
  8
0
390
0
  6
Continuous
 62
     1
100
AcDbLine
 10
234.892348
 20
11.039293
 30
0.0
 11
234.983191
 21
11.041971
 31
0.0
  0
LINE
  5
1F1
100
AcDbEntity
  8
0
390
0
  6
Continuous
 62
     1
100
AcDbLine
 10
234.799037
 20
11.043525
 30
0.0
 11
234.892348
 21
11.039293
 31
0.0
  0
LINE
  5
1F2
100
AcDbEntity
  8
0
390
0
  6
Continuous
 62
     1
100
AcDbLine
 10
234.706442
 20
11.055902
 30
0.0
 11
234.799037
 21
11.043525
 31
0.0
  0
LINE
  5
1F3
100
AcDbEntity
  8
0
390
0
  6
Continuous
 62
     1
100
AcDbLine
 10
234.615354
 20
11.076604
 30
0.0
 11
234.706442
 21
11.055902
 31
0.0
  0
LINE
  5
1F4
100
AcDbEntity
  8
0
390
0
  6
Continuous
 62
     1
100
AcDbLine
 10
234.527099
 20
11.107151
 30
0.0
 11
234.615354
 21
11.076604
 31
0.0
  0
LINE
  5
1F5
100
AcDbEntity
  8
0
390
0
  6
Continuous
 62
     1
100
AcDbLine
 10
234.444048
 20
11.149789
 30
0.0
 11
234.527099
 21
11.107151
 31
0.0
  0
LINE
  5
1F6
100
AcDbEntity
  8
0
390
0
  6
Continuous
 62
     1
100
AcDbLine
 10
234.396526
 20
11.183696
 30
0.0
 11
234.444048
 21
11.149789
 31
0.0
  0
LINE
  5
1F7
100
AcDbEntity
  8
0
390
0
  6
Continuous
 62
     1
100
AcDbLine
 10
234.354041
 20
11.223721
 30
0.0
 11
234.396526
 21
11.183696
 31
0.0
  0
LINE
  5
1F8
100
AcDbEntity
  8
0
390
0
  6
Continuous
 62
     1
100
AcDbLine
 10
234.318229
 20
11.269803
 30
0.0
 11
234.354041
 21
11.223721
 31
0.0
  0
LINE
  5
1F9
100
AcDbEntity
  8
0
390
0
  6
Continuous
 62
     1
100
AcDbLine
 10
234.290538
 20
11.321176
 30
0.0
 11
234.318229
 21
11.269803
 31
0.0
  0
LINE
  5
1FA
100
AcDbEntity
  8
0
390
0
  6
Continuous
 62
     1
100
AcDbLine
 10
234.271731
 20
11.376429
 30
0.0
 11
234.290538
 21
11.321176
 31
0.0
  0
LINE
  5
1FB
100
AcDbEntity
  8
0
390
0
  6
Continuous
 62
     1
100
AcDbLine
 10
234.261658
 20
11.433927
 30
0.0
 11
234.271731
 21
11.376429
 31
0.0
  0
LINE
  5
1FC
100
AcDbEntity
  8
0
390
0
  6
Continuous
 62
     1
100
AcDbLine
 10
234.259371
 20
11.492277
 30
0.0
 11
234.261658
 21
11.433927
 31
0.0
  0
LINE
  5
1FD
100
AcDbEntity
  8
0
390
0
  6
Continuous
 62
     1
100
AcDbLine
 10
234.26383
 20
11.5505
 30
0.0
 11
234.259371
 21
11.492277
 31
0.0
  0
LINE
  5
1FE
100
AcDbEntity
  8
0
390
0
  6
Continuous
 62
     1
100
AcDbLine
 10
234.523661
 20
13.718818
 30
0.0
 11
234.26383
 21
11.5505
 31
0.0
  0
ARC
  5
1FF
100
AcDbEntity
  8
0
390
0
  6
Continuous
 62
     1
100
AcDbCircle
 10
233.904092
 20
25.048366
 30
0.0
 40
11.346476
210
0.0
220
0.0
230
1.0
100
AcDbArc
 50
273.130165
 51
278.57697
  0
LINE
  5
200
100
AcDbEntity
  8
0
390
0
  6
Continuous
 62
     1
100
AcDbLine
 10
242.989023
 20
17.179153
 30
0.0
 11
242.819231
 21
17.014855
 31
0.0
  0
LINE
  5
201
100
AcDbEntity
  8
0
390
0
  6
Continuous
 62
     1
100
AcDbLine
 10
242.819231
 20
17.014855
 30
0.0
 11
242.64372
 21
16.856679
 31
0.0
  0
LINE
  5
202
100
AcDbEntity
  8
0
390
0
  6
Continuous
 62
     1
100
AcDbLine
 10
242.64372
 20
16.856679
 30
0.0
 11
242.463263
 21
16.704169
 31
0.0
  0
LINE
  5
203
100
AcDbEntity
  8
0
390
0
  6
Continuous
 62
     1
100
AcDbLine
 10
242.463263
 20
16.704169
 30
0.0
 11
242.278477
 21
16.556933
 31
0.0
  0
LINE
  5
204
100
AcDbEntity
  8
0
390
0
  6
Continuous
 62
     1
100
AcDbLine
 10
242.278477
 20
16.556933
 30
0.0
 11
241.986557
 21
16.339753
 31
0.0
  0
LINE
  5
205
100
AcDbEntity
  8
0
390
0
  6
Continuous
 62
     1
100
AcDbLine
 10
241.986557
 20
16.339753
 30
0.0
 11
241.686948
 21
16.133304
 31
0.0
  0
LINE
  5
206
100
AcDbEntity
  8
0
390
0
  6
Continuous
 62
     1
100
AcDbLine
 10
241.686948
 20
16.133304
 30
0.0
 11
241.380728
 21
15.936793
 31
0.0
  0
LINE
  5
207
100
AcDbEntity
  8
0
390
0
  6
Continuous
 62
     1
100
AcDbLine
 10
241.068729
 20
15.749587
 30
0.0
 11
240.664313
 21
15.524001
 31
0.0
  0
LINE
  5
208
100
AcDbEntity
  8
0
390
0
  6
Continuous
 62
     1
100
AcDbLine
 10
240.664313
 20
15.524001
 30
0.0
 11
240.252677
 21
15.311869
 31
0.0
  0
LINE
  5
209
100
AcDbEntity
  8
0
390
0
  6
Continuous
 62
     1
100
AcDbLine
 10
240.252677
 20
15.311869
 30
0.0
 11
239.834692
 21
15.11253
 31
0.0
  0
LINE
  5
20A
100
AcDbEntity
  8
0
390
0
  6
Continuous
 62
     1
100
AcDbLine
 10
239.834692
 20
15.11253
 30
0.0
 11
239.410961
 21
14.925721
 31
0.0
  0
LINE
  5
20B
100
AcDbEntity
  8
0
390
0
  6
Continuous
 62
     1
100
AcDbLine
 10
239.410961
 20
14.925721
 30
0.0
 11
239.313508
 21
14.884951
 31
0.0
  0
ARC
  5
20C
100
AcDbEntity
  8
0
390
0
  6
Continuous
 62
     1
100
AcDbCircle
 10
239.26596
 20
15.132604
 30
0.0
 40
0.252176
210
0.0
220
0.0
230
1.0
100
AcDbArc
 50
270.208724
 51
280.868276
  0
LINE
  5
20D
100
AcDbEntity
  8
0
390
0
  6
Continuous
 62
     1
100
AcDbLine
 10
239.207533
 20
19.224067
 30
0.0
 11
238.917327
 21
19.224875
 31
0.0
  0
LINE
  5
20E
100
AcDbEntity
  8
0
390
0
  6
Continuous
 62
     1
100
AcDbLine
 10
238.917327
 20
19.224875
 30
0.0
 11
238.627318
 21
19.214072
 31
0.0
  0
LINE
  5
20F
100
AcDbEntity
  8
0
390
0
  6
Continuous
 62
     1
100
AcDbLine
 10
238.627318
 20
19.214072
 30
0.0
 11
238.33791
 21
19.192491
 31
0.0
  0
LINE
  5
210
100
AcDbEntity
  8
0
390
0
  6
Continuous
 62
     1
100
AcDbLine
 10
238.33791
 20
19.192491
 30
0.0
 11
237.970959
 21
19.150463
 31
0.0
  0
LINE
  5
211
100
AcDbEntity
  8
0
390
0
  6
Continuous
 62
     1
100
AcDbLine
 10
237.970959
 20
19.150463
 30
0.0
 11
237.606088
 21
19.093091
 31
0.0
  0
ARC
  5
212
100
AcDbEntity
  8
0
390
0
  6
Continuous
 62
     1
100
AcDbCircle
 10
239.19924
 20
9.960818
 30
0.0
 40
9.268141
210
0.0
220
0.0
230
0.9999999999999999
100
AcDbArc
 50
101.768938
 51
112.876529
  0
LINE
  5
213
100
AcDbEntity
  8
0
390
0
  6
Continuous
 62
     1
100
AcDbLine
 10
235.596282
 20
18.499971
 30
0.0
 11
235.596282
 21
14.660645
 31
0.0
  0
LINE
  5
214
100
AcDbEntity
  8
0
390
0
  6
Continuous
 62
     1
100
AcDbLine
 10
243.62395
 20
17.971288
 30
0.0
 11
243.541235
 21
17.840951
 31
0.0
  0
LINE
  5
215
100
AcDbEntity
  8
0
390
0
  6
Continuous
 62
     1
100
AcDbLine
 10
243.69968
 20
18.105803
 30
0.0
 11
243.62395
 21
17.971288
 31
0.0
  0
LINE
  5
216
100
AcDbEntity
  8
0
390
0
  6
Continuous
 62
     1
100
AcDbLine
 10
243.767137
 20
18.244649
 30
0.0
 11
243.69968
 21
18.105803
 31
0.0
  0
LINE
  5
217
100
AcDbEntity
  8
0
390
0
  6
Continuous
 62
     1
100
AcDbLine
 10
243.824723
 20
18.387869
 30
0.0
 11
243.767137
 21
18.244649
 31
0.0
  0
ARC
  5
218
100
AcDbEntity
  8
0
390
0
  6
Continuous
 62
     1
100
AcDbCircle
 10
239.267857
 20
15.135342
 30
0.0
 40
0.254915
210
0.0
220
0.0
230
1.0
100
AcDbArc
 50
179.65698
 51
269.779905
  0
LINE
  5
219
100
AcDbEntity
  8
0
390
0
  6
Continuous
 62
     1
100
AcDbLine
 10
243.896655
 20
18.653725
 30
0.0
 11
243.870488
 21
18.535287
 31
0.0
  0
LINE
  5
21A
100
AcDbEntity
  8
0
390
0
  6
Continuous
 62
     1
100
AcDbLine
 10
243.912877
 20
18.773935
 30
0.0
 11
243.896655
 21
18.653725
 31
0.0
  0
LINE
  5
21B
100
AcDbEntity
  8
0
390
0
  6
Continuous
 62
     1
100
AcDbLine
 10
243.917861
 20
18.895118
 30
0.0
 11
243.912877
 21
18.773935
 31
0.0
  0
LINE
  5
21C
100
AcDbEntity
  8
0
390
0
  6
Continuous
 62
     1
100
AcDbLine
 10
243.910571
 20
19.016204
 30
0.0
 11
243.917861
 21
18.895118
 31
0.0
  0
LINE
  5
21D
100
AcDbEntity
  8
0
390
0
  6
Continuous
 62
     1
100
AcDbLine
 10
243.89002
 20
19.135728
 30
0.0
 11
243.910571
 21
19.016204
 31
0.0
  0
LINE
  5
21E
100
AcDbEntity
  8
0
390
0
  6
Continuous
 62
     1
100
AcDbLine
 10
241.380728
 20
15.936793
 30
0.0
 11
241.068729
 21
15.749587
 31
0.0
  0
LINE
  5
21F
100
AcDbEntity
  8
0
390
0
  6
Continuous
 62
     1
100
AcDbLine
 10
243.809612
 20
19.362451
 30
0.0
 11
243.856166
 21
19.252203
 31
0.0
  0
LINE
  5
220
100
AcDbEntity
  8
0
390
0
  6
Continuous
 62
     1
100
AcDbLine
 10
243.751595
 20
19.467029
 30
0.0
 11
243.809612
 21
19.362451
 31
0.0
  0
LINE
  5
221
100
AcDbEntity
  8
0
390
0
  6
Continuous
 62
     1
100
AcDbLine
 10
243.682126
 20
19.564523
 30
0.0
 11
243.751595
 21
19.467029
 31
0.0
  0
LINE
  5
222
100
AcDbEntity
  8
0
390
0
  6
Continuous
 62
     1
100
AcDbLine
 10
243.60346
 20
19.65465
 30
0.0
 11
243.682126
 21
19.564523
 31
0.0
  0
LINE
  5
223
100
AcDbEntity
  8
0
390
0
  6
Continuous
 62
     1
100
AcDbLine
 10
243.51675
 20
19.737124
 30
0.0
 11
243.60346
 21
19.65465
 31
0.0
  0
LINE
  5
224
100
AcDbEntity
  8
0
390
0
  6
Continuous
 62
     1
100
AcDbLine
 10
243.393559
 20
19.833908
 30
0.0
 11
243.51675
 21
19.737124
 31
0.0
  0
LINE
  5
225
100
AcDbEntity
  8
0
390
0
  6
Continuous
 62
     1
100
AcDbLine
 10
243.261859
 20
19.918765
 30
0.0
 11
243.393559
 21
19.833908
 31
0.0
  0
LINE
  5
226
100
AcDbEntity
  8
0
390
0
  6
Continuous
 62
     1
100
AcDbLine
 10
243.123785
 20
19.992806
 30
0.0
 11
243.261859
 21
19.918765
 31
0.0
  0
LINE
  5
227
100
AcDbEntity
  8
0
390
0
  6
Continuous
 62
     1
100
AcDbLine
 10
242.970589
 20
20.061425
 30
0.0
 11
243.123785
 21
19.992806
 31
0.0
  0
LINE
  5
228
100
AcDbEntity
  8
0
390
0
  6
Continuous
 62
     1
100
AcDbLine
 10
242.813367
 20
20.120238
 30
0.0
 11
242.970589
 21
20.061425
 31
0.0
  0
LINE
  5
229
100
AcDbEntity
  8
0
390
0
  6
Continuous
 62
     1
100
AcDbLine
 10
243.856166
 20
19.252203
 30
0.0
 11
243.89002
 21
19.135728
 31
0.0
  0
LINE
  5
22A
100
AcDbEntity
  8
0
390
0
  6
Continuous
 62
     1
100
AcDbLine
 10
242.49077
 20
20.212865
 30
0.0
 11
242.653171
 21
20.170391
 31
0.0
  0
LINE
  5
22B
100
AcDbEntity
  8
0
390
0
  6
Continuous
 62
     1
100
AcDbLine
 10
242.32673
 20
20.248493
 30
0.0
 11
242.49077
 21
20.212865
 31
0.0
  0
LINE
  5
22C
100
AcDbEntity
  8
0
390
0
  6
Continuous
 62
     1
100
AcDbLine
 10
242.057991
 20
20.293511
 30
0.0
 11
242.32673
 21
20.248493
 31
0.0
  0
LINE
  5
22D
100
AcDbEntity
  8
0
390
0
  6
Continuous
 62
     1
100
AcDbLine
 10
241.787294
 20
20.324718
 30
0.0
 11
242.057991
 21
20.293511
 31
0.0
  0
LINE
  5
22E
100
AcDbEntity
  8
0
390
0
  6
Continuous
 62
     1
100
AcDbLine
 10
241.515484
 20
20.343978
 30
0.0
 11
241.787294
 21
20.324718
 31
0.0
  0
LINE
  5
22F
100
AcDbEntity
  8
0
390
0
  6
Continuous
 62
     1
100
AcDbLine
 10
237.606088
 20
19.093091
 30
0.0
 11
237.30886
 21
19.034126
 31
0.0
  0
LINE
  5
230
100
AcDbEntity
  8
0
390
0
  6
Continuous
 62
     1
100
AcDbLine
 10
240.970636
 20
20.352153
 30
0.0
 11
241.243131
 21
20.352741
 31
0.0
  0
LINE
  5
231
100
AcDbEntity
  8
0
390
0
  6
Continuous
 62
     1
100
AcDbLine
 10
240.698289
 20
20.343132
 30
0.0
 11
240.970636
 21
20.352153
 31
0.0
  0
LINE
  5
232
100
AcDbEntity
  8
0
390
0
  6
Continuous
 62
     1
100
AcDbLine
 10
240.426306
 20
20.326424
 30
0.0
 11
240.698289
 21
20.343132
 31
0.0
  0
LINE
  5
233
100
AcDbEntity
  8
0
390
0
  6
Continuous
 62
     1
100
AcDbLine
 10
240.000946
 20
20.286177
 30
0.0
 11
240.426306
 21
20.326424
 31
0.0
  0
LINE
  5
234
100
AcDbEntity
  8
0
390
0
  6
Continuous
 62
     1
100
AcDbLine
 10
239.577343
 20
20.230369
 30
0.0
 11
240.000946
 21
20.286177
 31
0.0
  0
LINE
  5
235
100
AcDbEntity
  8
0
390
0
  6
Continuous
 62
     1
100
AcDbLine
 10
239.155843
 20
20.16042
 30
0.0
 11
239.577343
 21
20.230369
 31
0.0
  0
LINE
  5
236
100
AcDbEntity
  8
0
390
0
  6
Continuous
 62
     1
100
AcDbLine
 10
238.736714
 20
20.077424
 30
0.0
 11
239.155843
 21
20.16042
 31
0.0
  0
LINE
  5
237
100
AcDbEntity
  8
0
390
0
  6
Continuous
 62
     1
100
AcDbLine
 10
238.320184
 20
19.982236
 30
0.0
 11
238.736714
 21
20.077424
 31
0.0
  0
LINE
  5
238
100
AcDbEntity
  8
0
390
0
  6
Continuous
 62
     1
100
AcDbLine
 10
237.913815
 20
19.877537
 30
0.0
 11
238.320184
 21
19.982236
 31
0.0
  0
LINE
  5
239
100
AcDbEntity
  8
0
390
0
  6
Continuous
 62
     1
100
AcDbLine
 10
237.510337
 20
19.762201
 30
0.0
 11
237.913815
 21
19.877537
 31
0.0
  0
LINE
  5
23A
100
AcDbEntity
  8
0
390
0
  6
Continuous
 62
     1
100
AcDbLine
 10
237.109874
 20
19.636778
 30
0.0
 11
237.510337
 21
19.762201
 31
0.0
  0
LINE
  5
23B
100
AcDbEntity
  8
0
390
0
  6
Continuous
 62
     1
100
AcDbLine
 10
236.712702
 20
19.501308
 30
0.0
 11
237.109874
 21
19.636778
 31
0.0
  0
ARC
  5
23C
100
AcDbEntity
  8
0
390
0
  6
Continuous
 62
     1
100
AcDbCircle
 10
242.220176
 20
3.934758
 30
0.0
 40
16.512109
210
0.0
220
0.0
230
1.0
100
AcDbArc
 50
109.483874
 51
115.178378
  0
LINE
  5
23D
100
AcDbEntity
  8
0
390
0
  6
Continuous
 62
     1
100
AcDbLine
 10
235.131856
 20
18.847867
 30
0.0
 11
235.195301
 21
18.878013
 31
0.0
  0
LINE
  5
23E
100
AcDbEntity
  8
0
390
0
  6
Continuous
 62
     1
100
AcDbLine
 10
234.647401
 20
14.760641
 30
0.0
 11
235.131856
 21
18.847867
 31
0.0
  0
ARC
  5
23F
100
AcDbEntity
  8
0
390
0
  6
Continuous
 62
     1
100
AcDbCircle
 10
235.699055
 20
20.187909
 30
0.0
 40
5.528219
210
0.0
220
0.0
230
1.0
100
AcDbArc
 50
259.033573
 51
268.934772
  0
LINE
  5
240
100
AcDbEntity
  8
0
390
0
  6
Continuous
 62
     1
100
AcDbLine
 10
242.653171
 20
20.170391
 30
0.0
 11
242.813367
 21
20.120238
 31
0.0
  0
LINE
  5
241
100
AcDbEntity
  8
0
390
0
  6
Continuous
 62
     1
100
AcDbLine
 10
241.243131
 20
20.352741
 30
0.0
 11
241.515484
 21
20.343978
 31
0.0
  0
LINE
  5
242
100
AcDbEntity
  8
0
390
0
  6
Continuous
 62
     1
100
AcDbLine
 10
243.152106
 20
17.35011
 30
0.0
 11
242.989023
 21
17.179153
 31
0.0
  0
LINE
  5
243
100
AcDbEntity
  8
0
390
0
  6
Continuous
 62
     1
100
AcDbLine
 10
243.307193
 20
17.528349
 30
0.0
 11
243.152106
 21
17.35011
 31
0.0
  0
LINE
  5
244
100
AcDbEntity
  8
0
390
0
  6
Continuous
 62
     1
100
AcDbLine
 10
243.452571
 20
17.714585
 30
0.0
 11
243.307193
 21
17.528349
 31
0.0
  0
LINE
  5
245
100
AcDbEntity
  8
0
390
0
  6
Continuous
 62
     1
100
AcDbLine
 10
243.541235
 20
17.840951
 30
0.0
 11
243.452571
 21
17.714585
 31
0.0
  0
LINE
  5
246
100
AcDbEntity
  8
0
390
0
  6
Continuous
 62
     1
100
AcDbLine
 10
239.497424
 20
19.210585
 30
0.0
 11
239.207533
 21
19.224067
 31
0.0
  0
LINE
  5
247
100
AcDbEntity
  8
0
390
0
  6
Continuous
 62
     1
100
AcDbLine
 10
239.685182
 20
19.19441
 30
0.0
 11
239.497424
 21
19.210585
 31
0.0
  0
LINE
  5
248
100
AcDbEntity
  8
0
390
0
  6
Continuous
 62
     1
100
AcDbLine
 10
239.87228
 20
19.171855
 30
0.0
 11
239.685182
 21
19.19441
 31
0.0
  0
LINE
  5
249
100
AcDbEntity
  8
0
390
0
  6
Continuous
 62
     1
100
AcDbLine
 10
240.05841
 20
19.142364
 30
0.0
 11
239.87228
 21
19.171855
 31
0.0
  0
LINE
  5
24A
100
AcDbEntity
  8
0
390
0
  6
Continuous
 62
     1
100
AcDbLine
 10
240.243174
 20
19.105265
 30
0.0
 11
240.05841
 21
19.142364
 31
0.0
  0
LINE
  5
24B
100
AcDbEntity
  8
0
390
0
  6
Continuous
 62
     1
100
AcDbLine
 10
240.426043
 20
19.059748
 30
0.0
 11
240.243174
 21
19.105265
 31
0.0
  0
LINE
  5
24C
100
AcDbEntity
  8
0
390
0
  6
Continuous
 62
     1
100
AcDbLine
 10
240.606307
 20
19.004824
 30
0.0
 11
240.426043
 21
19.059748
 31
0.0
  0
LINE
  5
24D
100
AcDbEntity
  8
0
390
0
  6
Continuous
 62
     1
100
AcDbLine
 10
240.782987
 20
18.939292
 30
0.0
 11
240.606307
 21
19.004824
 31
0.0
  0
LINE
  5
24E
100
AcDbEntity
  8
0
390
0
  6
Continuous
 62
     1
100
AcDbLine
 10
240.918122
 20
18.879564
 30
0.0
 11
240.782987
 21
18.939292
 31
0.0
  0
LINE
  5
24F
100
AcDbEntity
  8
0
390
0
  6
Continuous
 62
     1
100
AcDbLine
 10
241.049313
 20
18.811613
 30
0.0
 11
240.918122
 21
18.879564
 31
0.0
  0
LINE
  5
250
100
AcDbEntity
  8
0
390
0
  6
Continuous
 62
     1
100
AcDbLine
 10
241.175354
 20
18.734536
 30
0.0
 11
241.049313
 21
18.811613
 31
0.0
  0
LINE
  5
251
100
AcDbEntity
  8
0
390
0
  6
Continuous
 62
     1
100
AcDbLine
 10
241.294644
 20
18.647385
 30
0.0
 11
241.175354
 21
18.734536
 31
0.0
  0
LINE
  5
252
100
AcDbEntity
  8
0
390
0
  6
Continuous
 62
     1
100
AcDbLine
 10
241.40509
 20
18.549279
 30
0.0
 11
241.294644
 21
18.647385
 31
0.0
  0
LINE
  5
253
100
AcDbEntity
  8
0
390
0
  6
Continuous
 62
     1
100
AcDbLine
 10
241.483955
 20
18.464096
 30
0.0
 11
241.40509
 21
18.549279
 31
0.0
  0
LINE
  5
254
100
AcDbEntity
  8
0
390
0
  6
Continuous
 62
     1
100
AcDbLine
 10
241.554259
 20
18.371716
 30
0.0
 11
241.483955
 21
18.464096
 31
0.0
  0
LINE
  5
255
100
AcDbEntity
  8
0
390
0
  6
Continuous
 62
     1
100
AcDbLine
 10
241.614369
 20
18.272421
 30
0.0
 11
241.554259
 21
18.371716
 31
0.0
  0
LINE
  5
256
100
AcDbEntity
  8
0
390
0
  6
Continuous
 62
     1
100
AcDbLine
 10
241.662963
 20
18.166987
 30
0.0
 11
241.614369
 21
18.272421
 31
0.0
  0
LINE
  5
257
100
AcDbEntity
  8
0
390
0
  6
Continuous
 62
     1
100
AcDbLine
 10
241.698674
 20
18.05654
 30
0.0
 11
241.662963
 21
18.166987
 31
0.0
  0
LINE
  5
258
100
AcDbEntity
  8
0
390
0
  6
Continuous
 62
     1
100
AcDbLine
 10
241.721963
 20
17.936664
 30
0.0
 11
241.698674
 21
18.05654
 31
0.0
  0
LINE
  5
259
100
AcDbEntity
  8
0
390
0
  6
Continuous
 62
     1
100
AcDbLine
 10
241.730029
 20
17.814782
 30
0.0
 11
241.721963
 21
17.936664
 31
0.0
  0
LINE
  5
25A
100
AcDbEntity
  8
0
390
0
  6
Continuous
 62
     1
100
AcDbLine
 10
241.723747
 20
17.692816
 30
0.0
 11
241.730029
 21
17.814782
 31
0.0
  0
LINE
  5
25B
100
AcDbEntity
  8
0
390
0
  6
Continuous
 62
     1
100
AcDbLine
 10
241.704121
 20
17.572267
 30
0.0
 11
241.723747
 21
17.692816
 31
0.0
  0
LINE
  5
25C
100
AcDbEntity
  8
0
390
0
  6
Continuous
 62
     1
100
AcDbLine
 10
241.672627
 20
17.454252
 30
0.0
 11
241.704121
 21
17.572267
 31
0.0
  0
LINE
  5
25D
100
AcDbEntity
  8
0
390
0
  6
Continuous
 62
     1
100
AcDbLine
 10
241.630812
 20
17.339483
 30
0.0
 11
241.672627
 21
17.454252
 31
0.0
  0
LINE
  5
25E
100
AcDbEntity
  8
0
390
0
  6
Continuous
 62
     1
100
AcDbLine
 10
241.580133
 20
17.228338
 30
0.0
 11
241.630812
 21
17.339483
 31
0.0
  0
LINE
  5
25F
100
AcDbEntity
  8
0
390
0
  6
Continuous
 62
     1
100
AcDbLine
 10
241.521881
 20
17.120966
 30
0.0
 11
241.580133
 21
17.228338
 31
0.0
  0
LINE
  5
260
100
AcDbEntity
  8
0
390
0
  6
Continuous
 62
     1
100
AcDbLine
 10
241.434306
 20
16.983653
 30
0.0
 11
241.521881
 21
17.120966
 31
0.0
  0
LINE
  5
261
100
AcDbEntity
  8
0
390
0
  6
Continuous
 62
     1
100
AcDbLine
 10
241.337328
 20
16.852804
 30
0.0
 11
241.434306
 21
16.983653
 31
0.0
  0
LINE
  5
262
100
AcDbEntity
  8
0
390
0
  6
Continuous
 62
     1
100
AcDbLine
 10
241.232599
 20
16.728066
 30
0.0
 11
241.337328
 21
16.852804
 31
0.0
  0
LINE
  5
263
100
AcDbEntity
  8
0
390
0
  6
Continuous
 62
     1
100
AcDbLine
 10
241.121406
 20
16.609051
 30
0.0
 11
241.232599
 21
16.728066
 31
0.0
  0
LINE
  5
264
100
AcDbEntity
  8
0
390
0
  6
Continuous
 62
     1
100
AcDbLine
 10
241.004752
 20
16.495379
 30
0.0
 11
241.121406
 21
16.609051
 31
0.0
  0
LINE
  5
265
100
AcDbEntity
  8
0
390
0
  6
Continuous
 62
     1
100
AcDbLine
 10
240.883432
 20
16.3867
 30
0.0
 11
241.004752
 21
16.495379
 31
0.0
  0
LINE
  5
266
100
AcDbEntity
  8
0
390
0
  6
Continuous
 62
     1
100
AcDbLine
 10
240.694053
 20
16.232361
 30
0.0
 11
240.883432
 21
16.3867
 31
0.0
  0
LINE
  5
267
100
AcDbEntity
  8
0
390
0
  6
Continuous
 62
     1
100
AcDbLine
 10
240.497225
 20
16.087633
 30
0.0
 11
240.694053
 21
16.232361
 31
0.0
  0
LINE
  5
268
100
AcDbEntity
  8
0
390
0
  6
Continuous
 62
     1
100
AcDbLine
 10
240.294179
 20
15.95176
 30
0.0
 11
240.497225
 21
16.087633
 31
0.0
  0
LINE
  5
269
100
AcDbEntity
  8
0
390
0
  6
Continuous
 62
     1
100
AcDbLine
 10
240.085854
 20
15.824123
 30
0.0
 11
240.294179
 21
15.95176
 31
0.0
  0
LINE
  5
26A
100
AcDbEntity
  8
0
390
0
  6
Continuous
 62
     1
100
AcDbLine
 10
239.872984
 20
15.704218
 30
0.0
 11
240.085854
 21
15.824123
 31
0.0
  0
LINE
  5
26B
100
AcDbEntity
  8
0
390
0
  6
Continuous
 62
     1
100
AcDbLine
 10
239.656151
 20
15.591634
 30
0.0
 11
239.872984
 21
15.704218
 31
0.0
  0
LINE
  5
26C
100
AcDbEntity
  8
0
390
0
  6
Continuous
 62
     1
100
AcDbLine
 10
239.435852
 20
15.485987
 30
0.0
 11
239.656151
 21
15.591634
 31
0.0
  0
LINE
  5
26D
100
AcDbEntity
  8
0
390
0
  6
Continuous
 62
     1
100
AcDbLine
 10
239.212422
 20
15.387138
 30
0.0
 11
239.435852
 21
15.485987
 31
0.0
  0
LINE
  5
26E
100
AcDbEntity
  8
0
390
0
  6
Continuous
 62
     1
100
AcDbLine
 10
239.130461
 20
15.352826
 30
0.0
 11
239.212422
 21
15.387138
 31
0.0
  0
ARC
  5
26F
100
AcDbEntity
  8
0
390
0
  6
Continuous
 62
     1
100
AcDbCircle
 10
239.269445
 20
15.137246
 30
0.0
 40
0.256498
210
0.0
220
0.0
230
1.0
100
AcDbArc
 50
122.809863
 51
180.08436
  0
LINE
  5
270
100
AcDbEntity
  8
0
390
0
  6
Continuous
 62
     1
100
AcDbLine
 10
243.870488
 20
18.535287
 30
0.0
 11
243.824723
 21
18.387869
 31
0.0
  0
LINE
  5
271
100
AcDbEntity
  8
0
390
0
  6
Continuous
 62
     1
100
AcDbLine
 10
234.523661
 20
13.718818
 30
0.0
 11
234.260842
 21
13.708709
 31
0.0
  0
LINE
  5
272
100
AcDbEntity
  8
0
390
0
  6
Continuous
 62
     1
100
AcDbLine
 10
233.997839
 20
13.706355
 30
0.0
 11
233.7349
 21
13.712478
 31
0.0
  0
LINE
  5
273
100
AcDbEntity
  8
0
390
0
  6
Continuous
 62
     1
100
AcDbLine
 10
233.7349
 20
13.712478
 30
0.0
 11
233.472354
 21
13.72807
 31
0.0
  0
LINE
  5
274
100
AcDbEntity
  8
0
390
0
  6
Continuous
 62
     1
100
AcDbLine
 10
233.472354
 20
13.72807
 30
0.0
 11
233.210666
 21
13.75435
 31
0.0
  0
LINE
  5
275
100
AcDbEntity
  8
0
390
0
  6
Continuous
 62
     1
100
AcDbLine
 10
232.950503
 20
13.792861
 30
0.0
 11
232.777006
 21
13.826581
 31
0.0
  0
LINE
  5
276
100
AcDbEntity
  8
0
390
0
  6
Continuous
 62
     1
100
AcDbLine
 10
232.777006
 20
13.826581
 30
0.0
 11
232.605054
 21
13.867451
 31
0.0
  0
LINE
  5
277
100
AcDbEntity
  8
0
390
0
  6
Continuous
 62
     1
100
AcDbLine
 10
232.605054
 20
13.867451
 30
0.0
 11
232.435218
 21
13.916359
 31
0.0
  0
LINE
  5
278
100
AcDbEntity
  8
0
390
0
  6
Continuous
 62
     1
100
AcDbLine
 10
232.268274
 20
13.974365
 30
0.0
 11
232.105304
 21
14.042727
 31
0.0
  0
LINE
  5
279
100
AcDbEntity
  8
0
390
0
  6
Continuous
 62
     1
100
AcDbLine
 10
232.105304
 20
14.042727
 30
0.0
 11
231.994377
 21
14.097514
 31
0.0
  0
LINE
  5
27A
100
AcDbEntity
  8
0
390
0
  6
Continuous
 62
     1
100
AcDbLine
 10
231.994377
 20
14.097514
 30
0.0
 11
231.886813
 21
14.158636
 31
0.0
  0
LINE
  5
27B
100
AcDbEntity
  8
0
390
0
  6
Continuous
 62
     1
100
AcDbLine
 10
231.886813
 20
14.158636
 30
0.0
 11
231.783477
 21
14.226658
 31
0.0
  0
LINE
  5
27C
100
AcDbEntity
  8
0
390
0
  6
Continuous
 62
     1
100
AcDbLine
 10
231.783477
 20
14.226658
 30
0.0
 11
231.685449
 21
14.302121
 31
0.0
  0
LINE
  5
27D
100
AcDbEntity
  8
0
390
0
  6
Continuous
 62
     1
100
AcDbLine
 10
231.685449
 20
14.302121
 30
0.0
 11
231.592447
 21
14.387059
 31
0.0
  0
LINE
  5
27E
100
AcDbEntity
  8
0
390
0
  6
Continuous
 62
     1
100
AcDbLine
 10
231.592447
 20
14.387059
 30
0.0
 11
231.507917
 21
14.480424
 31
0.0
  0
LINE
  5
27F
100
AcDbEntity
  8
0
390
0
  6
Continuous
 62
     1
100
AcDbLine
 10
231.507917
 20
14.480424
 30
0.0
 11
231.433603
 21
14.5821
 31
0.0
  0
LINE
  5
280
100
AcDbEntity
  8
0
390
0
  6
Continuous
 62
     1
100
AcDbLine
 10
231.433603
 20
14.5821
 30
0.0
 11
231.371141
 21
14.691467
 31
0.0
  0
LINE
  5
281
100
AcDbEntity
  8
0
390
0
  6
Continuous
 62
     1
100
AcDbLine
 10
231.371141
 20
14.691467
 30
0.0
 11
231.322124
 21
14.807462
 31
0.0
  0
LINE
  5
282
100
AcDbEntity
  8
0
390
0
  6
Continuous
 62
     1
100
AcDbLine
 10
231.322124
 20
14.807462
 30
0.0
 11
231.290633
 21
14.913436
 31
0.0
  0
LINE
  5
283
100
AcDbEntity
  8
0
390
0
  6
Continuous
 62
     1
100
AcDbLine
 10
231.270398
 20
15.022134
 30
0.0
 11
231.261081
 21
15.132292
 31
0.0
  0
LINE
  5
284
100
AcDbEntity
  8
0
390
0
  6
Continuous
 62
     1
100
AcDbLine
 10
231.261081
 20
15.132292
 30
0.0
 11
231.262264
 21
15.242847
 31
0.0
  0
LINE
  5
285
100
AcDbEntity
  8
0
390
0
  6
Continuous
 62
     1
100
AcDbLine
 10
231.262264
 20
15.242847
 30
0.0
 11
231.273104
 21
15.352875
 31
0.0
  0
LINE
  5
286
100
AcDbEntity
  8
0
390
0
  6
Continuous
 62
     1
100
AcDbLine
 10
231.273104
 20
15.352875
 30
0.0
 11
231.299417
 21
15.491088
 31
0.0
  0
LINE
  5
287
100
AcDbEntity
  8
0
390
0
  6
Continuous
 62
     1
100
AcDbLine
 10
231.337928
 20
15.626417
 30
0.0
 11
231.386827
 21
15.758355
 31
0.0
  0
LINE
  5
288
100
AcDbEntity
  8
0
390
0
  6
Continuous
 62
     1
100
AcDbLine
 10
231.386827
 20
15.758355
 30
0.0
 11
231.444534
 21
15.886688
 31
0.0
  0
LINE
  5
289
100
AcDbEntity
  8
0
390
0
  6
Continuous
 62
     1
100
AcDbLine
 10
231.509725
 20
16.011388
 30
0.0
 11
231.618286
 21
16.190417
 31
0.0
  0
LINE
  5
28A
100
AcDbEntity
  8
0
390
0
  6
Continuous
 62
     1
100
AcDbLine
 10
231.738206
 20
16.362054
 30
0.0
 11
231.867372
 21
16.526853
 31
0.0
  0
LINE
  5
28B
100
AcDbEntity
  8
0
390
0
  6
Continuous
 62
     1
100
AcDbLine
 10
231.867372
 20
16.526853
 30
0.0
 11
232.004192
 21
16.685359
 31
0.0
  0
LINE
  5
28C
100
AcDbEntity
  8
0
390
0
  6
Continuous
 62
     1
100
AcDbLine
 10
232.004192
 20
16.685359
 30
0.0
 11
232.147451
 21
16.838074
 31
0.0
  0
LINE
  5
28D
100
AcDbEntity
  8
0
390
0
  6
Continuous
 62
     1
100
AcDbLine
 10
232.147451
 20
16.838074
 30
0.0
 11
232.296205
 21
16.985443
 31
0.0
  0
LINE
  5
28E
100
AcDbEntity
  8
0
390
0
  6
Continuous
 62
     1
100
AcDbLine
 10
232.296205
 20
16.985443
 30
0.0
 11
232.528052
 21
17.197318
 31
0.0
  0
LINE
  5
28F
100
AcDbEntity
  8
0
390
0
  6
Continuous
 62
     1
100
AcDbLine
 10
232.528052
 20
17.197318
 30
0.0
 11
232.768701
 21
17.399147
 31
0.0
  0
LINE
  5
290
100
AcDbEntity
  8
0
390
0
  6
Continuous
 62
     1
100
AcDbLine
 10
232.768701
 20
17.399147
 30
0.0
 11
233.016738
 21
17.591831
 31
0.0
  0
LINE
  5
291
100
AcDbEntity
  8
0
390
0
  6
Continuous
 62
     1
100
AcDbLine
 10
233.271091
 20
17.7761
 30
0.0
 11
233.530934
 21
17.952546
 31
0.0
  0
LINE
  5
292
100
AcDbEntity
  8
0
390
0
  6
Continuous
 62
     1
100
AcDbLine
 10
233.530934
 20
17.952546
 30
0.0
 11
233.795612
 21
18.121653
 31
0.0
  0
LINE
  5
293
100
AcDbEntity
  8
0
390
0
  6
Continuous
 62
     1
100
AcDbLine
 10
233.795612
 20
18.121653
 30
0.0
 11
234.064567
 21
18.28388
 31
0.0
  0
LINE
  5
294
100
AcDbEntity
  8
0
390
0
  6
Continuous
 62
     1
100
AcDbLine
 10
234.064567
 20
18.28388
 30
0.0
 11
234.337446
 21
18.43941
 31
0.0
  0
LINE
  5
295
100
AcDbEntity
  8
0
390
0
  6
Continuous
 62
     1
100
AcDbLine
 10
234.337446
 20
18.43941
 30
0.0
 11
234.377119
 21
18.461121
 31
0.0
  0
ARC
  5
296
100
AcDbEntity
  8
0
390
0
  6
Continuous
 62
     1
100
AcDbCircle
 10
234.480432
 20
18.227246
 30
0.0
 40
0.255678
210
0.0
220
0.0
230
1.0
100
AcDbArc
 50
68.62417
 51
113.833094
  0
LINE
  5
297
100
AcDbEntity
  8
0
390
0
  6
Continuous
 62
     1
100
AcDbLine
 10
238.590028
 20
14.603155
 30
0.0
 11
238.465514
 21
14.558251
 31
0.0
  0
LINE
  5
298
100
AcDbEntity
  8
0
390
0
  6
Continuous
 62
     1
100
AcDbLine
 10
238.673945
 20
14.633849
 30
0.0
 11
238.590028
 21
14.603155
 31
0.0
  0
ARC
  5
299
100
AcDbEntity
  8
0
390
0
  6
Continuous
 62
     1
100
AcDbCircle
 10
238.541473
 20
14.862021
 30
0.0
 40
0.26384
210
0.0
220
0.0
230
1.0
100
AcDbArc
 50
300.138399
 51
0.079984
  0
ARC
  5
29A
100
AcDbEntity
  8
0
390
0
  6
Continuous
 62
     1
100
AcDbCircle
 10
238.543268
 20
14.863892
 30
0.0
 40
0.26205
210
0.0
220
0.0
230
1.0
100
AcDbArc
 50
359.671456
 51
89.80429
  0
LINE
  5
29B
100
AcDbEntity
  8
0
390
0
  6
Continuous
 62
     1
100
AcDbLine
 10
238.510471
 20
15.12354
 30
0.0
 11
238.544163
 21
15.12594
 31
0.0
  0
LINE
  5
29C
100
AcDbEntity
  8
0
390
0
  6
Continuous
 62
     1
100
AcDbLine
 10
238.419549
 20
15.094005
 30
0.0
 11
238.510471
 21
15.12354
 31
0.0
  0
LINE
  5
29D
100
AcDbEntity
  8
0
390
0
  6
Continuous
 62
     1
100
AcDbLine
 10
237.917947
 20
14.949259
 30
0.0
 11
238.419549
 21
15.094005
 31
0.0
  0
ARC
  5
29E
100
AcDbEntity
  8
0
390
0
  6
Continuous
 62
     1
100
AcDbCircle
 10
235.718073
 20
23.163194
 30
0.0
 40
8.503421
210
0.0
220
0.0
230
1.0
100
AcDbArc
 50
269.179352
 51
284.993215
  0
ARC
  5
29F
100
AcDbEntity
  8
0
390
0
  6
Continuous
 62
     1
100
AcDbCircle
 10
235.692533
 20
20.12602
 30
0.0
 40
5.466222
210
0.0
220
0.0
230
1.0
100
AcDbArc
 50
258.977281
 51
268.991063
  0
LINE
  5
2A0
100
AcDbEntity
  8
0
390
0
  6
Continuous
 62
     1
100
AcDbLine
 10
234.49314
 20
14.794761
 30
0.0
 11
234.647401
 21
14.760641
 31
0.0
  0
LINE
  5
2A1
100
AcDbEntity
  8
0
390
0
  6
Continuous
 62
     1
100
AcDbLine
 10
234.340371
 20
14.835029
 30
0.0
 11
234.49314
 21
14.794761
 31
0.0
  0
LINE
  5
2A2
100
AcDbEntity
  8
0
390
0
  6
Continuous
 62
     1
100
AcDbLine
 10
234.189547
 20
14.882055
 30
0.0
 11
234.340371
 21
14.835029
 31
0.0
  0
LINE
  5
2A3
100
AcDbEntity
  8
0
390
0
  6
Continuous
 62
     1
100
AcDbLine
 10
234.041267
 20
14.936564
 30
0.0
 11
234.189547
 21
14.882055
 31
0.0
  0
LINE
  5
2A4
100
AcDbEntity
  8
0
390
0
  6
Continuous
 62
     1
100
AcDbLine
 10
233.896326
 20
14.999404
 30
0.0
 11
234.041267
 21
14.936564
 31
0.0
  0
LINE
  5
2A5
100
AcDbEntity
  8
0
390
0
  6
Continuous
 62
     1
100
AcDbLine
 10
233.755796
 20
15.071554
 30
0.0
 11
233.896326
 21
14.999404
 31
0.0
  0
LINE
  5
2A6
100
AcDbEntity
  8
0
390
0
  6
Continuous
 62
     1
100
AcDbLine
 10
233.210666
 20
13.75435
 30
0.0
 11
232.950503
 21
13.792861
 31
0.0
  0
LINE
  5
2A7
100
AcDbEntity
  8
0
390
0
  6
Continuous
 62
     1
100
AcDbLine
 10
233.520689
 20
15.227033
 30
0.0
 11
233.621128
 21
15.154111
 31
0.0
  0
LINE
  5
2A8
100
AcDbEntity
  8
0
390
0
  6
Continuous
 62
     1
100
AcDbLine
 10
233.426302
 20
15.307623
 30
0.0
 11
233.520689
 21
15.227033
 31
0.0
  0
LINE
  5
2A9
100
AcDbEntity
  8
0
390
0
  6
Continuous
 62
     1
100
AcDbLine
 10
231.299417
 20
15.491088
 30
0.0
 11
231.337928
 21
15.626417
 31
0.0
  0
LINE
  5
2AA
100
AcDbEntity
  8
0
390
0
  6
Continuous
 62
     1
100
AcDbLine
 10
233.261958
 20
15.493198
 30
0.0
 11
233.339471
 21
15.396291
 31
0.0
  0
LINE
  5
2AB
100
AcDbEntity
  8
0
390
0
  6
Continuous
 62
     1
100
AcDbLine
 10
233.195673
 20
15.598092
 30
0.0
 11
233.261958
 21
15.493198
 31
0.0
  0
LINE
  5
2AC
100
AcDbEntity
  8
0
390
0
  6
Continuous
 62
     1
100
AcDbLine
 10
233.142459
 20
15.710175
 30
0.0
 11
233.195673
 21
15.598092
 31
0.0
  0
LINE
  5
2AD
100
AcDbEntity
  8
0
390
0
  6
Continuous
 62
     1
100
AcDbLine
 10
233.103722
 20
15.828045
 30
0.0
 11
233.142459
 21
15.710175
 31
0.0
  0
LINE
  5
2AE
100
AcDbEntity
  8
0
390
0
  6
Continuous
 62
     1
100
AcDbLine
 10
231.290633
 20
14.913436
 30
0.0
 11
231.270398
 21
15.022134
 31
0.0
  0
LINE
  5
2AF
100
AcDbEntity
  8
0
390
0
  6
Continuous
 62
     1
100
AcDbLine
 10
233.072356
 20
16.075261
 30
0.0
 11
233.080178
 21
15.950651
 31
0.0
  0
LINE
  5
2B0
100
AcDbEntity
  8
0
390
0
  6
Continuous
 62
     1
100
AcDbLine
 10
233.079601
 20
16.19991
 30
0.0
 11
233.072356
 21
16.075261
 31
0.0
  0
LINE
  5
2B1
100
AcDbEntity
  8
0
390
0
  6
Continuous
 62
     1
100
AcDbLine
 10
233.100683
 20
16.322986
 30
0.0
 11
233.079601
 21
16.19991
 31
0.0
  0
LINE
  5
2B2
100
AcDbEntity
  8
0
390
0
  6
Continuous
 62
     1
100
AcDbLine
 10
233.134023
 20
16.44333
 30
0.0
 11
233.100683
 21
16.322986
 31
0.0
  0
LINE
  5
2B3
100
AcDbEntity
  8
0
390
0
  6
Continuous
 62
     1
100
AcDbLine
 10
233.177974
 20
16.560225
 30
0.0
 11
233.134023
 21
16.44333
 31
0.0
  0
LINE
  5
2B4
100
AcDbEntity
  8
0
390
0
  6
Continuous
 62
     1
100
AcDbLine
 10
233.230998
 20
16.673301
 30
0.0
 11
233.177974
 21
16.560225
 31
0.0
  0
LINE
  5
2B5
100
AcDbEntity
  8
0
390
0
  6
Continuous
 62
     1
100
AcDbLine
 10
233.316276
 20
16.822332
 30
0.0
 11
233.230998
 21
16.673301
 31
0.0
  0
LINE
  5
2B6
100
AcDbEntity
  8
0
390
0
  6
Continuous
 62
     1
100
AcDbLine
 10
233.413307
 20
16.964009
 30
0.0
 11
233.316276
 21
16.822332
 31
0.0
  0
LINE
  5
2B7
100
AcDbEntity
  8
0
390
0
  6
Continuous
 62
     1
100
AcDbLine
 10
233.51986
 20
17.098681
 30
0.0
 11
233.413307
 21
16.964009
 31
0.0
  0
LINE
  5
2B8
100
AcDbEntity
  8
0
390
0
  6
Continuous
 62
     1
100
AcDbLine
 10
233.63423
 20
17.226789
 30
0.0
 11
233.51986
 21
17.098681
 31
0.0
  0
LINE
  5
2B9
100
AcDbEntity
  8
0
390
0
  6
Continuous
 62
     1
100
AcDbLine
 10
233.778775
 20
17.371366
 30
0.0
 11
233.63423
 21
17.226789
 31
0.0
  0
LINE
  5
2BA
100
AcDbEntity
  8
0
390
0
  6
Continuous
 62
     1
100
AcDbLine
 10
233.930865
 20
17.507992
 30
0.0
 11
233.778775
 21
17.371366
 31
0.0
  0
LINE
  5
2BB
100
AcDbEntity
  8
0
390
0
  6
Continuous
 62
     1
100
AcDbLine
 10
234.089234
 20
17.637294
 30
0.0
 11
233.930865
 21
17.507992
 31
0.0
  0
LINE
  5
2BC
100
AcDbEntity
  8
0
390
0
  6
Continuous
 62
     1
100
AcDbLine
 10
234.25291
 20
17.759813
 30
0.0
 11
234.089234
 21
17.637294
 31
0.0
  0
LINE
  5
2BD
100
AcDbEntity
  8
0
390
0
  6
Continuous
 62
     1
100
AcDbLine
 10
234.421132
 20
17.876017
 30
0.0
 11
234.25291
 21
17.759813
 31
0.0
  0
LINE
  5
2BE
100
AcDbEntity
  8
0
390
0
  6
Continuous
 62
     1
100
AcDbLine
 10
234.593321
 20
17.986256
 30
0.0
 11
234.421132
 21
17.876017
 31
0.0
  0
ARC
  5
2BF
100
AcDbEntity
  8
0
390
0
  6
Continuous
 62
     1
100
AcDbCircle
 10
234.478013
 20
18.221097
 30
0.0
 40
0.261656
210
0.0
220
0.0
230
0.9999999999999999
100
AcDbArc
 50
296.151344
 51
0.057322
  0
ARC
  5
2C0
100
AcDbEntity
  8
0
390
0
  6
Continuous
 62
     1
100
AcDbCircle
 10
234.47961
 20
18.222861
 30
0.0
 40
0.260062
210
0.0
220
0.0
230
1.0
100
AcDbArc
 50
359.669032
 51
68.807725
  0
LINE
  5
2C1
100
AcDbEntity
  8
0
390
0
  6
Continuous
 62
     1
100
AcDbLine
 10
234.260842
 20
13.708709
 30
0.0
 11
233.997839
 21
13.706355
 31
0.0
  0
ARC
  5
2C2
100
AcDbEntity
  8
0
390
0
  6
Continuous
 62
     1
100
AcDbCircle
 10
233.202395
 20
29.25227
 30
0.0
 40
15.608158
210
0.0
220
0.0
230
1.0
100
AcDbArc
 50
278.822509
 51
289.706559
  0
LINE
  5
2C3
100
AcDbEntity
  8
0
390
0
  6
Continuous
 62
     1
100
AcDbLine
 10
233.016738
 20
17.591831
 30
0.0
 11
233.271091
 21
17.7761
 31
0.0
  0
LINE
  5
2C4
100
AcDbEntity
  8
0
390
0
  6
Continuous
 62
     1
100
AcDbLine
 10
231.618286
 20
16.190417
 30
0.0
 11
231.738206
 21
16.362054
 31
0.0
  0
ARC
  5
2C5
100
AcDbEntity
  8
0
390
0
  6
Continuous
 62
     1
100
AcDbCircle
 10
233.912072
 20
24.970534
 30
0.0
 40
11.268325
210
0.0
220
0.0
230
1.0
100
AcDbArc
 50
273.111263
 51
278.595873
  0
LINE
  5
2C6
100
AcDbEntity
  8
0
390
0
  6
Continuous
 62
     1
100
AcDbLine
 10
233.080178
 20
15.950651
 30
0.0
 11
233.103722
 21
15.828045
 31
0.0
  0
LINE
  5
2C7
100
AcDbEntity
  8
0
390
0
  6
Continuous
 62
     1
100
AcDbLine
 10
232.435218
 20
13.916359
 30
0.0
 11
232.268274
 21
13.974365
 31
0.0
  0
LINE
  5
2C8
100
AcDbEntity
  8
0
390
0
  6
Continuous
 62
     1
100
AcDbLine
 10
233.339471
 20
15.396291
 30
0.0
 11
233.426302
 21
15.307623
 31
0.0
  0
LINE
  5
2C9
100
AcDbEntity
  8
0
390
0
  6
Continuous
 62
     1
100
AcDbLine
 10
233.621128
 20
15.154111
 30
0.0
 11
233.755796
 21
15.071554
 31
0.0
  0
LINE
  5
2CA
100
AcDbEntity
  8
0
390
0
  6
Continuous
 62
     1
100
AcDbLine
 10
231.444534
 20
15.886688
 30
0.0
 11
231.509725
 21
16.011388
 31
0.0
  0
ENDBLK
  5
2CB
100
AcDbEntity
  8
0
390
0
100
AcDbBlockEnd
  0
BLOCK
  5
2F5
100
AcDbEntity
  8
0
390
0
100
AcDbBlockBegin
  2
AID1302
 70
     0
 10
0.0
 20
0.0
 30
0.0
  3
DNote#note referencing elements
  1

  0
MTEXT
  5
2F6
100
AcDbEntity
  8
0
390
0
 62
     7
100
AcDbMText
 10
206.119058
 20
82.387592
 30
0.0
 40
3.5
 41
38.595455
 71
     7
 72
     1
  1
ML17063-L 
210
0.0
220
0.0
230
1.0
 73
     1
 44
1.0
  0
MTEXT
  5
2F7
100
AcDbEntity
  8
0
390
0
 62
     7
100
AcDbMText
 10
206.119058
 20
78.187592
 30
0.0
 40
3.5
 41
75.631818
 71
     7
 72
     1
  1
  LC35-12　　2ヶ 1セット
210
0.0
220
0.0
230
1.0
 73
     1
 44
1.0
  0
LINE
  5
2F8
100
AcDbEntity
  8
0
390
0
  6
Continuous
 62
     2
100
AcDbLine
 10
206.405421
 20
76.86941
 30
0.0
 11
246.734967
 21
76.86941
 31
0.0
  0
HATCH
  5
2F9
100
AcDbEntity
  8
0
390
0
 62
     2
100
AcDbHatch
 10
187.93158562023106
 20
95.771731976857893
 30
0.0
210
0.0
220
0.0
230
1.0
  2
SOLID
 70
     1
 71
     0
 91
        1
 92
        1
 93
       72
 72
     1
 10
187.3200004677565
 20
96.397502383055453
 11
187.26778824936264
 21
96.341817979517273
 72
     1
 10
187.26778824936264
 20
96.341817979517273
 11
187.22062792977286
 21
96.281794877271494
 72
     1
 10
187.22062792977286
 20
96.281794877271494
 11
187.17887842749548
 21
96.217889888369172
 72
     1
 10
187.17887842749548
 20
96.217889888369172
 11
187.14285748145184
 21
96.150589368362745
 72
     1
 10
187.14285748145184
 20
96.150589368362745
 11
187.11283923279137
 21
96.080405514846618
 72
     1
 10
187.11283923279137
 20
96.080405514846618
 11
187.08905213851196
 21
96.007872469324212
 72
     1
 10
187.08905213851196
 20
96.007872469324212
 11
187.07167723276399
 21
95.933542252068619
 72
     1
 10
187.07167723276399
 20
95.933542252068619
 11
187.06084674907154
 21
95.857980560914953
 72
     1
 10
187.06084674907154
 20
95.857980560914953
 11
187.05664311395515
 21
95.78176246595828
 72
     1
 10
187.05664311395515
 20
95.78176246595828
 11
187.05909831961623
 21
95.70546803292298
 72
     1
 10
187.05909831961623
 20
95.70546803292298
 11
187.0681936804572
 21
95.629677908512321
 72
     1
 10
187.0681936804572
 20
95.629677908512321
 11
187.08385997529021
 21
95.554968901336323
 72
     1
 10
187.08385997529021
 20
95.554968901336323
 11
187.1059779741519
 21
95.481909592050187
 72
     1
 10
187.1059779741519
 20
95.481909592050187
 11
187.13437934571584
 21
95.411056006111963
 72
     1
 10
187.13437934571584
 20
95.411056006111963
 11
187.16884793839512
 21
95.342947382093243
 72
     1
 10
187.16884793839512
 20
95.342947382093243
 11
187.20912142538677
 21
95.278102067747895
 72
     1
 10
187.20912142538677
 20
95.278102067747895
 11
187.25489330113697
 21
95.217013575072755
 72
     1
 10
187.25489330113697
 20
95.217013575072755
 11
187.30581521403349
 21
95.160146824383332
 72
     1
 10
187.30581521403349
 20
95.160146824383332
 11
187.3614996175717
 21
95.107934605989456
 72
     1
 10
187.3614996175717
 20
95.107934605989456
 11
187.42152271981749
 21
95.060774286399692
 72
     1
 10
187.42152271981749
 20
95.060774286399692
 11
187.48542770871978
 21
95.019024784122323
 72
     1
 10
187.48542770871978
 20
95.019024784122323
 11
187.55272822872624
 21
94.983003838078673
 72
     1
 10
187.55272822872624
 20
94.983003838078673
 11
187.62291208224235
 21
94.952985589418233
 72
     1
 10
187.62291208224235
 20
94.952985589418233
 11
187.69544512776477
 21
94.929198495138749
 72
     1
 10
187.69544512776477
 20
94.929198495138749
 11
187.76977534502035
 21
94.911823589390821
 72
     1
 10
187.76977534502035
 20
94.911823589390821
 11
187.84533703617404
 21
94.90099310569839
 72
     1
 10
187.84533703617404
 20
94.90099310569839
 11
187.92155513113067
 21
94.896789470581965
 72
     1
 10
187.92155513113067
 20
94.896789470581965
 11
187.99784956416596
 21
94.899244676243043
 72
     1
 10
187.99784956416596
 20
94.899244676243043
 11
188.07363968857669
 21
94.908340037084045
 72
     1
 10
188.07363968857669
 20
94.908340037084045
 11
188.14834869575265
 21
94.924006331917028
 72
     1
 10
188.14834869575265
 20
94.924006331917028
 11
188.22140800503877
 21
94.94612433077873
 72
     1
 10
188.22140800503877
 20
94.94612433077873
 11
188.29226159097698
 21
94.974525702342646
 72
     1
 10
188.29226159097698
 20
94.974525702342646
 11
188.36037021499575
 21
95.008994295021921
 72
     1
 10
188.36037021499575
 20
95.008994295021921
 11
188.42521552934107
 21
95.049267782013573
 72
     1
 10
188.42521552934107
 20
95.049267782013573
 11
188.48630402201621
 21
95.095039657763806
 72
     1
 10
188.48630402201621
 20
95.095039657763806
 11
188.54317077270562
 21
95.145961570660333
 72
     1
 10
188.54317077270562
 20
95.145961570660333
 11
188.59538299109951
 21
95.201645974198527
 72
     1
 10
188.59538299109951
 20
95.201645974198527
 11
188.64254331068926
 21
95.261669076444306
 72
     1
 10
188.64254331068926
 20
95.261669076444306
 11
188.68429281296667
 21
95.325574065346629
 72
     1
 10
188.68429281296667
 20
95.325574065346629
 11
188.72031375901031
 21
95.392874585353042
 72
     1
 10
188.72031375901031
 20
95.392874585353042
 11
188.75033200767078
 21
95.463058438869183
 72
     1
 10
188.75033200767078
 20
95.463058438869183
 11
188.77411910195019
 21
95.535591484391588
 72
     1
 10
188.77411910195019
 20
95.535591484391588
 11
188.79149400769816
 21
95.609921701647181
 72
     1
 10
188.79149400769816
 20
95.609921701647181
 11
188.80232449139058
 21
95.685483392800847
 72
     1
 10
188.80232449139058
 20
95.685483392800847
 11
188.806528126507
 21
95.76170148775752
 72
     1
 10
188.806528126507
 20
95.76170148775752
 11
188.80407292084593
 21
95.837995920792807
 72
     1
 10
188.80407292084593
 20
95.837995920792807
 11
188.79497756000492
 21
95.91378604520348
 72
     1
 10
188.79497756000492
 20
95.91378604520348
 11
188.77931126517194
 21
95.988495052379463
 72
     1
 10
188.77931126517194
 20
95.988495052379463
 11
188.75719326631025
 21
96.061554361665614
 72
     1
 10
188.75719326631025
 20
96.061554361665614
 11
188.72879189474631
 21
96.132407947603838
 72
     1
 10
188.72879189474631
 20
96.132407947603838
 11
188.69432330206703
 21
96.200516571622558
 72
     1
 10
188.69432330206703
 20
96.200516571622558
 11
188.65404981507538
 21
96.265361885967906
 72
     1
 10
188.65404981507538
 20
96.265361885967906
 11
188.60827793932518
 21
96.326450378643045
 72
     1
 10
188.60827793932518
 20
96.326450378643045
 11
188.55735602642864
 21
96.383317129332468
 72
     1
 10
188.55735602642864
 20
96.383317129332468
 11
188.50167162289046
 21
96.435529347726344
 72
     1
 10
188.50167162289046
 20
96.435529347726344
 11
188.44164852064466
 21
96.482689667316095
 72
     1
 10
188.44164852064466
 20
96.482689667316095
 11
188.37774353174237
 21
96.524439169593478
 72
     1
 10
188.37774353174237
 20
96.524439169593478
 11
188.31044301173591
 21
96.560460115637127
 72
     1
 10
188.31044301173591
 20
96.560460115637127
 11
188.2402591582198
 21
96.590478364297567
 72
     1
 10
188.2402591582198
 20
96.590478364297567
 11
188.16772611269738
 21
96.614265458577037
 72
     1
 10
188.16772611269738
 20
96.614265458577037
 11
188.0933958954418
 21
96.63164036432498
 72
     1
 10
188.0933958954418
 20
96.63164036432498
 11
188.01783420428811
 21
96.64247084801741
 72
     1
 10
188.01783420428811
 20
96.64247084801741
 11
187.94161610933148
 21
96.646674483133836
 72
     1
 10
187.94161610933148
 20
96.646674483133836
 11
187.86532167629619
 21
96.644219277472757
 72
     1
 10
187.86532167629619
 20
96.644219277472757
 11
187.78953155188546
 21
96.635123916631741
 72
     1
 10
187.78953155188546
 20
96.635123916631741
 11
187.71482254470951
 21
96.619457621798773
 72
     1
 10
187.71482254470951
 20
96.619457621798773
 11
187.64176323542335
 21
96.597339622937071
 72
     1
 10
187.64176323542335
 20
96.597339622937071
 11
187.57090964948517
 21
96.568938251373154
 72
     1
 10
187.57090964948517
 20
96.568938251373154
 11
187.5028010254664
 21
96.53446965869388
 72
     1
 10
187.5028010254664
 20
96.53446965869388
 11
187.43795571112108
 21
96.494196171702228
 72
     1
 10
187.43795571112108
 20
96.494196171702228
 11
187.37686721844594
 21
96.448424295951995
 72
     1
 10
187.37686721844594
 20
96.448424295951995
 11
187.3200004677565
 21
96.397502383055453
 97
        0
 75
     0
 76
     1
 98
        1
 10
0.0
 20
0.0
  0
LINE
  5
2FA
100
AcDbEntity
  8
0
390
0
  6
Continuous
 62
    11
100
AcDbLine
 10
187.931586
 20
95.771732
 30
0.0
 11
206.405421
 21
76.86941
 31
0.0
  0
ENDBLK
  5
2FB
100
AcDbEntity
  8
0
390
0
100
AcDbBlockEnd
  0
BLOCK
  5
300
100
AcDbEntity
  8
0
390
0
100
AcDbBlockBegin
  2
*D13
 70
     1
 10
0.0
 20
0.0
 30
0.0
  3
DI13
  1

  0
MTEXT
  5
301
100
AcDbEntity
  8
0
390
0
 62
     7
100
AcDbMText
 10
172.076969
 20
183.281336
 30
0.0
 40
3.5
 41
28.477273
 71
     7
 72
     1
  1
\A1;32.0
210
0.0
220
0.0
230
1.0
 73
     1
 44
1.0
  0
LINE
  5
302
100
AcDbEntity
  8
0
390
0
  6
Continuous
 62
     7
100
AcDbLine
 10
159.576969
 20
181.547246
 30
0.0
 11
191.576969
 21
181.547246
 31
0.0
  0
LINE
  5
303
100
AcDbEntity
  8
0
390
0
  6
Continuous
 62
     7
100
AcDbLine
 10
159.576969
 20
162.056158
 30
0.0
 11
159.576969
 21
182.597246
 31
0.0
  0
LINE
  5
304
100
AcDbEntity
  8
0
390
0
  6
Continuous
 62
     7
100
AcDbLine
 10
191.576969
 20
163.256158
 30
0.0
 11
191.576969
 21
182.597246
 31
0.0
  0
POLYLINE
  5
305
100
AcDbEntity
  8
0
390
0
  6
Continuous
 62
     7
100
AcDb2dPolyline
 66
     1
 10
0.0
 20
0.0
 30
0.0
 40
0.1
 41
0.1
  0
VERTEX
  5
306
100
AcDbEntity
  8
0
390
0
 62
     7
100
AcDbVertex
100
AcDb2dVertex
 10
162.201969
 20
181.022246
 30
0.0
  0
VERTEX
  5
307
100
AcDbEntity
  8
0
390
0
 62
     7
100
AcDbVertex
100
AcDb2dVertex
 10
159.576969
 20
181.547246
 30
0.0
  0
VERTEX
  5
308
100
AcDbEntity
  8
0
390
0
 62
     7
100
AcDbVertex
100
AcDb2dVertex
 10
162.201969
 20
182.072246
 30
0.0
  0
SEQEND
  5
309
100
AcDbEntity
  8
0
390
0
  0
POLYLINE
  5
30A
100
AcDbEntity
  8
0
390
0
  6
Continuous
 62
     7
100
AcDb2dPolyline
 66
     1
 10
0.0
 20
0.0
 30
0.0
 40
0.1
 41
0.1
  0
VERTEX
  5
30B
100
AcDbEntity
  8
0
390
0
 62
     7
100
AcDbVertex
100
AcDb2dVertex
 10
188.951969
 20
182.072246
 30
0.0
  0
VERTEX
  5
30C
100
AcDbEntity
  8
0
390
0
 62
     7
100
AcDbVertex
100
AcDb2dVertex
 10
191.576969
 20
181.547246
 30
0.0
  0
VERTEX
  5
30D
100
AcDbEntity
  8
0
390
0
 62
     7
100
AcDbVertex
100
AcDb2dVertex
 10
188.951969
 20
181.022246
 30
0.0
  0
SEQEND
  5
30E
100
AcDbEntity
  8
0
390
0
  0
ENDBLK
  5
30F
100
AcDbEntity
  8
0
390
0
100
AcDbBlockEnd
  0
BLOCK
  5
312
100
AcDbEntity
  8
0
390
0
100
AcDbBlockBegin
  2
*D14
 70
     1
 10
0.0
 20
0.0
 30
0.0
  3
DI14
  1

  0
MTEXT
  5
313
100
AcDbEntity
  8
0
390
0
 62
     7
100
AcDbMText
 10
176.839376
 20
169.035693
 30
0.0
 40
3.5
 41
28.477273
 71
     7
 72
     1
  1
\A1;22.0
210
0.0
220
0.0
230
1.0
 73
     1
 44
1.0
  0
LINE
  5
314
100
AcDbEntity
  8
0
390
0
  6
Continuous
 62
     7
100
AcDbLine
 10
169.576969
 20
167.317511
 30
0.0
 11
191.576969
 21
167.317511
 31
0.0
  0
LINE
  5
315
100
AcDbEntity
  8
0
390
0
  6
Continuous
 62
     7
100
AcDbLine
 10
169.576969
 20
163.256158
 30
0.0
 11
169.576969
 21
168.367511
 31
0.0
  0
LINE
  5
316
100
AcDbEntity
  8
0
390
0
  6
Continuous
 62
     7
100
AcDbLine
 10
191.576969
 20
163.256158
 30
0.0
 11
191.576969
 21
168.367511
 31
0.0
  0
POLYLINE
  5
317
100
AcDbEntity
  8
0
390
0
  6
Continuous
 62
     7
100
AcDb2dPolyline
 66
     1
 10
0.0
 20
0.0
 30
0.0
 40
0.1
 41
0.1
  0
VERTEX
  5
318
100
AcDbEntity
  8
0
390
0
 62
     7
100
AcDbVertex
100
AcDb2dVertex
 10
172.201969
 20
166.792511
 30
0.0
  0
VERTEX
  5
319
100
AcDbEntity
  8
0
390
0
 62
     7
100
AcDbVertex
100
AcDb2dVertex
 10
169.576969
 20
167.317511
 30
0.0
  0
VERTEX
  5
31A
100
AcDbEntity
  8
0
390
0
 62
     7
100
AcDbVertex
100
AcDb2dVertex
 10
172.201969
 20
167.842511
 30
0.0
  0
SEQEND
  5
31B
100
AcDbEntity
  8
0
390
0
  0
POLYLINE
  5
31C
100
AcDbEntity
  8
0
390
0
  6
Continuous
 62
     7
100
AcDb2dPolyline
 66
     1
 10
0.0
 20
0.0
 30
0.0
 40
0.1
 41
0.1
  0
VERTEX
  5
31D
100
AcDbEntity
  8
0
390
0
 62
     7
100
AcDbVertex
100
AcDb2dVertex
 10
188.951969
 20
167.842511
 30
0.0
  0
VERTEX
  5
31E
100
AcDbEntity
  8
0
390
0
 62
     7
100
AcDbVertex
100
AcDb2dVertex
 10
191.576969
 20
167.317511
 30
0.0
  0
VERTEX
  5
31F
100
AcDbEntity
  8
0
390
0
 62
     7
100
AcDbVertex
100
AcDb2dVertex
 10
188.951969
 20
166.792511
 30
0.0
  0
SEQEND
  5
320
100
AcDbEntity
  8
0
390
0
  0
ENDBLK
  5
321
100
AcDbEntity
  8
0
390
0
100
AcDbBlockEnd
  0
BLOCK
  5
324
100
AcDbEntity
  8
0
390
0
100
AcDbBlockBegin
  2
*D15
 70
     1
 10
0.0
 20
0.0
 30
0.0
  3
DI15
  1

  0
MTEXT
  5
325
100
AcDbEntity
  8
0
390
0
 62
     7
100
AcDbMText
 10
211.168954
 20
141.154908
 30
0.0
 40
3.3
 41
73.05
 71
     7
 72
     1
  1
\A1;%%c15.0\S+0.05^   0;
210
0.0
220
0.0
230
1.0
 11
0.0
 21
1.0
 31
0.0
 73
     1
 44
1.0
  0
LINE
  5
326
100
AcDbEntity
  8
0
390
0
  6
Continuous
 62
     7
100
AcDbLine
 10
212.803954
 20
152.506158
 30
0.0
 11
212.803954
 21
137.506158
 31
0.0
  0
LINE
  5
327
100
AcDbEntity
  8
0
390
0
  6
Continuous
 62
     7
100
AcDbLine
 10
192.066969
 20
152.506158
 30
0.0
 11
213.793954
 21
152.506158
 31
0.0
  0
LINE
  5
328
100
AcDbEntity
  8
0
390
0
  6
Continuous
 62
     7
100
AcDbLine
 10
192.066969
 20
137.506158
 30
0.0
 11
213.793954
 21
137.506158
 31
0.0
  0
POLYLINE
  5
329
100
AcDbEntity
  8
0
390
0
  6
Continuous
 62
     7
100
AcDb2dPolyline
 66
     1
 10
0.0
 20
0.0
 30
0.0
 40
0.1
 41
0.1
  0
VERTEX
  5
32A
100
AcDbEntity
  8
0
390
0
 62
     7
100
AcDbVertex
100
AcDb2dVertex
 10
212.308954
 20
150.031158
 30
0.0
  0
VERTEX
  5
32B
100
AcDbEntity
  8
0
390
0
 62
     7
100
AcDbVertex
100
AcDb2dVertex
 10
212.803954
 20
152.506158
 30
0.0
  0
VERTEX
  5
32C
100
AcDbEntity
  8
0
390
0
 62
     7
100
AcDbVertex
100
AcDb2dVertex
 10
213.298954
 20
150.031158
 30
0.0
  0
SEQEND
  5
32D
100
AcDbEntity
  8
0
390
0
  0
POLYLINE
  5
32E
100
AcDbEntity
  8
0
390
0
  6
Continuous
 62
     7
100
AcDb2dPolyline
 66
     1
 10
0.0
 20
0.0
 30
0.0
 40
0.1
 41
0.1
  0
VERTEX
  5
32F
100
AcDbEntity
  8
0
390
0
 62
     7
100
AcDbVertex
100
AcDb2dVertex
 10
213.298954
 20
139.981158
 30
0.0
  0
VERTEX
  5
330
100
AcDbEntity
  8
0
390
0
 62
     7
100
AcDbVertex
100
AcDb2dVertex
 10
212.803954
 20
137.506158
 30
0.0
  0
VERTEX
  5
331
100
AcDbEntity
  8
0
390
0
 62
     7
100
AcDbVertex
100
AcDb2dVertex
 10
212.308954
 20
139.981158
 30
0.0
  0
SEQEND
  5
332
100
AcDbEntity
  8
0
390
0
  0
ENDBLK
  5
333
100
AcDbEntity
  8
0
390
0
100
AcDbBlockEnd
  0
BLOCK
  5
560
100
AcDbEntity
  8
0
390
0
100
AcDbBlockBegin
  2
*D16
 70
     1
 10
0.0
 20
0.0
 30
0.0
  3
DI16
  1

  0
MTEXT
  5
561
100
AcDbEntity
  8
0
390
0
 62
     7
100
AcDbMText
 10
68.27268
 20
160.044667
 30
0.0
 40
3.5
 41
28.445455
 71
     7
 72
     1
  1
\A1;90%%d
210
0.0
220
0.0
230
1.0
 11
0.707107
 21
0.707107
 31
0.0
 73
     1
 44
1.0
  0
ARC
  5
562
100
AcDbEntity
  8
0
390
0
  6
Continuous
 62
     7
100
AcDbCircle
 10
87.21474
 20
145.006158
 30
0.0
 40
22.2938
210
0.0
220
0.0
230
1.0
100
AcDbArc
 50
90.0
 51
180.0
  0
LINE
  5
563
100
AcDbEntity
  8
0
390
0
  6
Continuous
 62
     7
100
AcDbLine
 10
87.21474
 20
167.556158
 30
0.0
 11
87.21474
 21
168.349958
 31
0.0
  0
LINE
  5
564
100
AcDbEntity
  8
0
390
0
  6
Continuous
 62
     7
100
AcDbLine
 10
64.66474
 20
145.006158
 30
0.0
 11
63.87094
 21
145.006158
 31
0.0
  0
POLYLINE
  5
565
100
AcDbEntity
  8
0
390
0
  6
Continuous
 62
     7
100
AcDb2dPolyline
 66
     1
 10
0.0
 20
0.0
 30
0.0
 40
0.1
 41
0.1
  0
VERTEX
  5
566
100
AcDbEntity
  8
0
390
0
 62
     7
100
AcDbVertex
100
AcDb2dVertex
 10
84.58974
 20
167.824958
 30
0.0
  0
VERTEX
  5
567
100
AcDbEntity
  8
0
390
0
 62
     7
100
AcDbVertex
100
AcDb2dVertex
 10
87.21474
 20
167.299958
 30
0.0
  0
VERTEX
  5
568
100
AcDbEntity
  8
0
390
0
 62
     7
100
AcDbVertex
100
AcDb2dVertex
 10
84.58974
 20
166.774958
 30
0.0
  0
SEQEND
  5
569
100
AcDbEntity
  8
0
390
0
  0
POLYLINE
  5
56A
100
AcDbEntity
  8
0
390
0
  6
Continuous
 62
     7
100
AcDb2dPolyline
 66
     1
 10
0.0
 20
0.0
 30
0.0
 40
0.1
 41
0.1
  0
VERTEX
  5
56B
100
AcDbEntity
  8
0
390
0
 62
     7
100
AcDbVertex
100
AcDb2dVertex
 10
65.44594
 20
147.631158
 30
0.0
  0
VERTEX
  5
56C
100
AcDbEntity
  8
0
390
0
 62
     7
100
AcDbVertex
100
AcDb2dVertex
 10
64.92094
 20
145.006158
 30
0.0
  0
VERTEX
  5
56D
100
AcDbEntity
  8
0
390
0
 62
     7
100
AcDbVertex
100
AcDb2dVertex
 10
64.39594
 20
147.631158
 30
0.0
  0
SEQEND
  5
56E
100
AcDbEntity
  8
0
390
0
  0
ENDBLK
  5
56F
100
AcDbEntity
  8
0
390
0
100
AcDbBlockEnd
  0
BLOCK
  5
57A
100
AcDbEntity
  8
0
390
0
100
AcDbBlockBegin
  2
*D17
 70
     1
 10
0.0
 20
0.0
 30
0.0
  3
DI17
  1

  0
MTEXT
  5
57B
100
AcDbEntity
  8
0
390
0
 62
     7
100
AcDbMText
 10
174.577042
 20
176.605152
 30
0.0
 40
3.5
 41
28.477273
 71
     7
 72
     1
  1
\A1;27.0
210
0.0
220
0.0
230
1.0
 73
     1
 44
1.0
  0
LINE
  5
57C
100
AcDbEntity
  8
0
390
0
  6
Continuous
 62
     7
100
AcDbLine
 10
164.577116
 20
174.88697
 30
0.0
 11
191.576969
 21
174.88697
 31
0.0
  0
LINE
  5
57D
100
AcDbEntity
  8
0
390
0
  6
Continuous
 62
     7
100
AcDbLine
 10
164.577116
 20
166.652078
 30
0.0
 11
164.577116
 21
175.93697
 31
0.0
  0
LINE
  5
57E
100
AcDbEntity
  8
0
390
0
  6
Continuous
 62
     7
100
AcDbLine
 10
191.576969
 20
163.256158
 30
0.0
 11
191.576969
 21
175.93697
 31
0.0
  0
POLYLINE
  5
57F
100
AcDbEntity
  8
0
390
0
  6
Continuous
 62
     7
100
AcDb2dPolyline
 66
     1
 10
0.0
 20
0.0
 30
0.0
 40
0.1
 41
0.1
  0
VERTEX
  5
580
100
AcDbEntity
  8
0
390
0
 62
     7
100
AcDbVertex
100
AcDb2dVertex
 10
167.202116
 20
174.36197
 30
0.0
  0
VERTEX
  5
581
100
AcDbEntity
  8
0
390
0
 62
     7
100
AcDbVertex
100
AcDb2dVertex
 10
164.577116
 20
174.88697
 30
0.0
  0
VERTEX
  5
582
100
AcDbEntity
  8
0
390
0
 62
     7
100
AcDbVertex
100
AcDb2dVertex
 10
167.202116
 20
175.41197
 30
0.0
  0
SEQEND
  5
583
100
AcDbEntity
  8
0
390
0
  0
POLYLINE
  5
584
100
AcDbEntity
  8
0
390
0
  6
Continuous
 62
     7
100
AcDb2dPolyline
 66
     1
 10
0.0
 20
0.0
 30
0.0
 40
0.1
 41
0.1
  0
VERTEX
  5
585
100
AcDbEntity
  8
0
390
0
 62
     7
100
AcDbVertex
100
AcDb2dVertex
 10
188.951969
 20
175.41197
 30
0.0
  0
VERTEX
  5
586
100
AcDbEntity
  8
0
390
0
 62
     7
100
AcDbVertex
100
AcDb2dVertex
 10
191.576969
 20
174.88697
 30
0.0
  0
VERTEX
  5
587
100
AcDbEntity
  8
0
390
0
 62
     7
100
AcDbVertex
100
AcDb2dVertex
 10
188.951969
 20
174.36197
 30
0.0
  0
SEQEND
  5
588
100
AcDbEntity
  8
0
390
0
  0
ENDBLK
  5
589
100
AcDbEntity
  8
0
390
0
100
AcDbBlockEnd
  0
BLOCK
  5
58C
100
AcDbEntity
  8
0
390
0
100
AcDbBlockBegin
  2
*D18
 70
     1
 10
0.0
 20
0.0
 30
0.0
  3
DI18
  1

  0
MTEXT
  5
58D
100
AcDbEntity
  8
0
390
0
 62
     7
100
AcDbMText
 10
154.997429
 20
169.351602
 30
0.0
 40
3.5
 41
35.222727
 71
     7
 72
     1
  1
\A1;2 -M5
210
0.0
220
0.0
230
1.0
 73
     1
 44
1.0
  0
LINE
  5
58E
100
AcDbEntity
  8
0
390
0
  6
Continuous
 62
     7
100
AcDbLine
 10
143.176974
 20
167.617511
 30
0.0
 11
172.326964
 21
167.617511
 31
0.0
  0
LINE
  5
58F
100
AcDbEntity
  8
0
390
0
  6
Continuous
 62
     7
100
AcDbLine
 10
162.076974
 20
162.056158
 30
0.0
 11
162.076974
 21
168.667511
 31
0.0
  0
LINE
  5
590
100
AcDbEntity
  8
0
390
0
  6
Continuous
 62
     7
100
AcDbLine
 10
167.076964
 20
162.056158
 30
0.0
 11
167.076964
 21
168.667511
 31
0.0
  0
POLYLINE
  5
591
100
AcDbEntity
  8
0
390
0
  6
Continuous
 62
     7
100
AcDb2dPolyline
 66
     1
 10
0.0
 20
0.0
 30
0.0
 40
0.1
 41
0.1
  0
VERTEX
  5
592
100
AcDbEntity
  8
0
390
0
 62
     7
100
AcDbVertex
100
AcDb2dVertex
 10
159.451974
 20
167.092511
 30
0.0
  0
VERTEX
  5
593
100
AcDbEntity
  8
0
390
0
 62
     7
100
AcDbVertex
100
AcDb2dVertex
 10
162.076974
 20
167.617511
 30
0.0
  0
VERTEX
  5
594
100
AcDbEntity
  8
0
390
0
 62
     7
100
AcDbVertex
100
AcDb2dVertex
 10
159.451974
 20
168.142511
 30
0.0
  0
SEQEND
  5
595
100
AcDbEntity
  8
0
390
0
  0
POLYLINE
  5
596
100
AcDbEntity
  8
0
390
0
  6
Continuous
 62
     7
100
AcDb2dPolyline
 66
     1
 10
0.0
 20
0.0
 30
0.0
 40
0.1
 41
0.1
  0
VERTEX
  5
597
100
AcDbEntity
  8
0
390
0
 62
     7
100
AcDbVertex
100
AcDb2dVertex
 10
169.701964
 20
168.142511
 30
0.0
  0
VERTEX
  5
598
100
AcDbEntity
  8
0
390
0
 62
     7
100
AcDbVertex
100
AcDb2dVertex
 10
167.076964
 20
167.617511
 30
0.0
  0
VERTEX
  5
599
100
AcDbEntity
  8
0
390
0
 62
     7
100
AcDbVertex
100
AcDb2dVertex
 10
169.701964
 20
167.092511
 30
0.0
  0
SEQEND
  5
59A
100
AcDbEntity
  8
0
390
0
  0
ENDBLK
  5
59B
100
AcDbEntity
  8
0
390
0
100
AcDbBlockEnd
  0
BLOCK
  5
59E
100
AcDbEntity
  8
0
390
0
100
AcDbBlockBegin
  2
*D19
 70
     1
 10
0.0
 20
0.0
 30
0.0
  3
DI19
  1

  0
MTEXT
  5
59F
100
AcDbEntity
  8
0
390
0
 62
     7
100
AcDbMText
 10
220.241737
 20
143.550476
 30
0.0
 40
3.5
 41
36.622727
 71
     7
 72
     1
  1
\A1;%%c35.0
210
0.0
220
0.0
230
1.0
 11
0.0
 21
1.0
 31
0.0
 73
     1
 44
1.0
  0
LINE
  5
5A0
100
AcDbEntity
  8
0
390
0
  6
Continuous
 62
     7
100
AcDbLine
 10
221.975828
 20
162.506158
 30
0.0
 11
221.975828
 21
127.506158
 31
0.0
  0
LINE
  5
5A1
100
AcDbEntity
  8
0
390
0
  6
Continuous
 62
     7
100
AcDbLine
 10
192.326969
 20
162.506158
 30
0.0
 11
223.025828
 21
162.506158
 31
0.0
  0
LINE
  5
5A2
100
AcDbEntity
  8
0
390
0
  6
Continuous
 62
     7
100
AcDbLine
 10
192.326969
 20
127.506158
 30
0.0
 11
223.025828
 21
127.506158
 31
0.0
  0
POLYLINE
  5
5A3
100
AcDbEntity
  8
0
390
0
  6
Continuous
 62
     7
100
AcDb2dPolyline
 66
     1
 10
0.0
 20
0.0
 30
0.0
 40
0.1
 41
0.1
  0
VERTEX
  5
5A4
100
AcDbEntity
  8
0
390
0
 62
     7
100
AcDbVertex
100
AcDb2dVertex
 10
221.450828
 20
159.881158
 30
0.0
  0
VERTEX
  5
5A5
100
AcDbEntity
  8
0
390
0
 62
     7
100
AcDbVertex
100
AcDb2dVertex
 10
221.975828
 20
162.506158
 30
0.0
  0
VERTEX
  5
5A6
100
AcDbEntity
  8
0
390
0
 62
     7
100
AcDbVertex
100
AcDb2dVertex
 10
222.500828
 20
159.881158
 30
0.0
  0
SEQEND
  5
5A7
100
AcDbEntity
  8
0
390
0
  0
POLYLINE
  5
5A8
100
AcDbEntity
  8
0
390
0
  6
Continuous
 62
     7
100
AcDb2dPolyline
 66
     1
 10
0.0
 20
0.0
 30
0.0
 40
0.1
 41
0.1
  0
VERTEX
  5
5A9
100
AcDbEntity
  8
0
390
0
 62
     7
100
AcDbVertex
100
AcDb2dVertex
 10
222.500828
 20
130.131158
 30
0.0
  0
VERTEX
  5
5AA
100
AcDbEntity
  8
0
390
0
 62
     7
100
AcDbVertex
100
AcDb2dVertex
 10
221.975828
 20
127.506158
 30
0.0
  0
VERTEX
  5
5AB
100
AcDbEntity
  8
0
390
0
 62
     7
100
AcDbVertex
100
AcDb2dVertex
 10
221.450828
 20
130.131158
 30
0.0
  0
SEQEND
  5
5AC
100
AcDbEntity
  8
0
390
0
  0
ENDBLK
  5
5AD
100
AcDbEntity
  8
0
390
0
100
AcDbBlockEnd
  0
BLOCK
  5
5B0
100
AcDbEntity
  8
0
390
0
100
AcDbBlockBegin
  2
*D20
 70
     1
 10
0.0
 20
0.0
 30
0.0
  3
DI20
  1

  0
MTEXT
  5
5B1
100
AcDbEntity
  8
0
390
0
 62
     7
100
AcDbMText
 10
141.331372
 20
143.550476
 30
0.0
 40
3.5
 41
36.622727
 71
     7
 72
     1
  1
\A1;%%c32.0
210
0.0
220
0.0
230
1.0
 11
0.0
 21
1.0
 31
0.0
 73
     1
 44
1.0
  0
LINE
  5
5B2
100
AcDbEntity
  8
0
390
0
  6
Continuous
 62
     7
100
AcDbLine
 10
143.065463
 20
161.006158
 30
0.0
 11
143.065463
 21
129.006158
 31
0.0
  0
LINE
  5
5B3
100
AcDbEntity
  8
0
390
0
  6
Continuous
 62
     7
100
AcDbLine
 10
158.526969
 20
161.006158
 30
0.0
 11
142.015463
 21
161.006158
 31
0.0
  0
LINE
  5
5B4
100
AcDbEntity
  8
0
390
0
  6
Continuous
 62
     7
100
AcDbLine
 10
158.526969
 20
129.006158
 30
0.0
 11
142.015463
 21
129.006158
 31
0.0
  0
POLYLINE
  5
5B5
100
AcDbEntity
  8
0
390
0
  6
Continuous
 62
     7
100
AcDb2dPolyline
 66
     1
 10
0.0
 20
0.0
 30
0.0
 40
0.1
 41
0.1
  0
VERTEX
  5
5B6
100
AcDbEntity
  8
0
390
0
 62
     7
100
AcDbVertex
100
AcDb2dVertex
 10
142.540463
 20
158.381158
 30
0.0
  0
VERTEX
  5
5B7
100
AcDbEntity
  8
0
390
0
 62
     7
100
AcDbVertex
100
AcDb2dVertex
 10
143.065463
 20
161.006158
 30
0.0
  0
VERTEX
  5
5B8
100
AcDbEntity
  8
0
390
0
 62
     7
100
AcDbVertex
100
AcDb2dVertex
 10
143.590463
 20
158.381158
 30
0.0
  0
SEQEND
  5
5B9
100
AcDbEntity
  8
0
390
0
  0
POLYLINE
  5
5BA
100
AcDbEntity
  8
0
390
0
  6
Continuous
 62
     7
100
AcDb2dPolyline
 66
     1
 10
0.0
 20
0.0
 30
0.0
 40
0.1
 41
0.1
  0
VERTEX
  5
5BB
100
AcDbEntity
  8
0
390
0
 62
     7
100
AcDbVertex
100
AcDb2dVertex
 10
143.590463
 20
131.631158
 30
0.0
  0
VERTEX
  5
5BC
100
AcDbEntity
  8
0
390
0
 62
     7
100
AcDbVertex
100
AcDb2dVertex
 10
143.065463
 20
129.006158
 30
0.0
  0
VERTEX
  5
5BD
100
AcDbEntity
  8
0
390
0
 62
     7
100
AcDbVertex
100
AcDb2dVertex
 10
142.540463
 20
131.631158
 30
0.0
  0
SEQEND
  5
5BE
100
AcDbEntity
  8
0
390
0
  0
ENDBLK
  5
5BF
100
AcDbEntity
  8
0
390
0
100
AcDbBlockEnd
  0
BLOCK
  5
5C1
100
AcDbEntity
  8
0
390
0
100
AcDbBlockBegin
  2
AID2178
 70
     0
 10
0.0
 20
0.0
 30
0.0
  3
DIMENS
  1

  0
MTEXT
  5
5C2
100
AcDbEntity
  8
0
390
0
 62
     2
100
AcDbMText
 10
148.398372
 20
151.475321
 30
0.0
 40
3.5
 41
7.509091
 71
     7
 72
     1
  1
C
210
0.0
220
0.0
230
1.0
 11
0.707107
 21
-0.707107
 31
0.0
 73
     1
 44
1.0
  0
MTEXT
  5
5C3
100
AcDbEntity
  8
0
390
0
 62
     2
100
AcDbMText
 10
151.244476
 20
148.629216
 30
0.0
 40
3.5
 41
12.981818
 71
     7
 72
     1
  1
0.5
210
0.0
220
0.0
230
1.0
 11
0.707107
 21
-0.707107
 31
0.0
 73
     1
 44
1.0
  0
LINE
  5
5C4
100
AcDbEntity
  8
0
390
0
  6
Continuous
 62
    11
100
AcDbLine
 10
159.996064
 20
137.425253
 30
0.0
 11
146.710958
 21
150.71036
 31
0.0
  0
POLYLINE
  5
5C5
100
AcDbEntity
  8
0
390
0
  6
Continuous
 62
    11
100
AcDb2dPolyline
 66
     1
 10
0.0
 20
0.0
 30
0.0
 40
0.1
 41
0.1
  0
VERTEX
  5
5C6
100
AcDbEntity
  8
0
390
0
 62
    11
100
AcDbVertex
100
AcDb2dVertex
 10
158.51114
 20
139.65264
 30
0.0
  0
VERTEX
  5
5C7
100
AcDbEntity
  8
0
390
0
 62
    11
100
AcDbVertex
100
AcDb2dVertex
 10
159.996064
 20
137.425253
 30
0.0
  0
VERTEX
  5
5C8
100
AcDbEntity
  8
0
390
0
 62
    11
100
AcDbVertex
100
AcDb2dVertex
 10
157.768678
 20
138.910178
 30
0.0
  0
SEQEND
  5
5C9
100
AcDbEntity
  8
0
390
0
  0
ENDBLK
  5
5CA
100
AcDbEntity
  8
0
390
0
100
AcDbBlockEnd
  0
BLOCK
  5
5CD
100
AcDbEntity
  8
0
390
0
100
AcDbBlockBegin
  2
AID2184
 70
     0
 10
0.0
 20
0.0
 30
0.0
  3
DIMENS
  1

  0
MTEXT
  5
5CE
100
AcDbEntity
  8
0
390
0
 62
     2
100
AcDbMText
 10
196.157455
 20
144.405764
 30
0.0
 40
3.5
 41
7.509091
 71
     7
 72
     1
  1
C
210
0.0
220
0.0
230
1.0
 11
0.707107
 21
0.707107
 31
0.0
 73
     1
 44
1.0
  0
MTEXT
  5
5CF
100
AcDbEntity
  8
0
390
0
 62
     2
100
AcDbMText
 10
199.00356
 20
147.251869
 30
0.0
 40
3.5
 41
12.981818
 71
     7
 72
     1
  1
0.5
210
0.0
220
0.0
230
1.0
 11
0.707107
 21
0.707107
 31
0.0
 73
     1
 44
1.0
  0
LINE
  5
5D0
100
AcDbEntity
  8
0
390
0
  6
Continuous
 62
    11
100
AcDbLine
 10
191.393596
 20
137.189531
 30
0.0
 11
204.167046
 21
149.962981
 31
0.0
  0
POLYLINE
  5
5D1
100
AcDbEntity
  8
0
390
0
  6
Continuous
 62
    11
100
AcDb2dPolyline
 66
     1
 10
0.0
 20
0.0
 30
0.0
 40
0.1
 41
0.1
  0
VERTEX
  5
5D2
100
AcDbEntity
  8
0
390
0
 62
    11
100
AcDbVertex
100
AcDb2dVertex
 10
193.620982
 20
138.674455
 30
0.0
  0
VERTEX
  5
5D3
100
AcDbEntity
  8
0
390
0
 62
    11
100
AcDbVertex
100
AcDb2dVertex
 10
191.393596
 20
137.189531
 30
0.0
  0
VERTEX
  5
5D4
100
AcDbEntity
  8
0
390
0
 62
    11
100
AcDbVertex
100
AcDb2dVertex
 10
192.87852
 20
139.416917
 30
0.0
  0
SEQEND
  5
5D5
100
AcDbEntity
  8
0
390
0
  0
ENDBLK
  5
5D6
100
AcDbEntity
  8
0
390
0
100
AcDbBlockEnd
  0
ENDSEC
  0
SECTION
  2
ENTITIES
  0
INSERT
  5
58
100
AcDbEntity
  8
0
390
0
100
AcDbBlockReference
  2
$DFT_DRAWING
 10
0.0
 20
0.0
 30
0.0
  0
INSERT
  5
80
100
AcDbEntity
  8
0
390
0
100
AcDbBlockReference
  2
AID85
 10
0.0
 20
0.0
 30
0.0
  0
MTEXT
  5
81
100
AcDbEntity
  8
0
390
0
 62
     7
100
AcDbMText
 10
175.482553
 20
53.69734
 30
0.0
 40
3.0
 41
19.363636
 71
     7
 72
     1
  1
製品名
210
0.0
220
0.0
230
1.0
 73
     1
 44
1.0
  0
MTEXT
  5
82
100
AcDbEntity
  8
0
390
0
 62
     7
100
AcDbMText
 10
231.476726
 20
53.69734
 30
0.0
 40
3.0
 41
27.136364
 71
     7
 72
     1
  1
製品番号
210
0.0
220
0.0
230
1.0
 73
     1
 44
1.0
  0
MTEXT
  5
83
100
AcDbEntity
  8
0
390
0
 62
     7
100
AcDbMText
 10
200.77711
 20
53.714705
 30
0.0
 40
3.0
 41
32.536364
 71
     7
 72
     1
  1
ML3535-12
210
0.0
220
0.0
230
1.0
 73
     1
 44
1.0
  0
MTEXT
  5
84
100
AcDbEntity
  8
0
390
0
 62
     7
100
AcDbMText
 10
175.77796
 20
37.364968
 30
0.0
 40
3.0
 41
22.527273
 71
     7
 72
     1
  1
材　　質
210
0.0
220
0.0
230
1.0
 73
     1
 44
1.0
  0
MTEXT
  5
85
100
AcDbEntity
  8
0
390
0
 62
     7
100
AcDbMText
 10
195.403274
 20
37.330878
 30
0.0
 40
3.0
 41
20.079652
 71
     7
 72
     1
  1
接着剤
210
0.0
220
0.0
230
1.0
 73
     1
 44
1.0
  0
MTEXT
  5
86
100
AcDbEntity
  8
0
390
0
 62
     7
100
AcDbMText
 10
212.709859
 20
37.367632
 30
0.0
 40
3.0
 41
27.190909
 71
     7
 72
     1
  1
表面処理
210
0.0
220
0.0
230
1.0
 73
     1
 44
1.0
  0
MTEXT
  5
87
100
AcDbEntity
  8
0
390
0
 62
     7
100
AcDbMText
 10
232.053114
 20
37.324059
 30
0.0
 40
3.0
 41
27.136364
 71
     7
 72
     1
  1
第三角法
210
0.0
220
0.0
230
1.0
 73
     1
 44
1.0
  0
MTEXT
  5
88
100
AcDbEntity
  8
0
390
0
 62
     7
100
AcDbMText
 10
231.562205
 20
23.669945
 30
0.0
 40
3.0
 41
29.1
 71
     7
 72
     1
  1
ファイル名
210
0.0
220
0.0
230
1.0
 73
     1
 44
1.0
  0
MTEXT
  5
89
100
AcDbEntity
  8
0
390
0
 62
     7
100
AcDbMText
 10
259.996324
 20
23.717672
 30
0.0
 40
3.0
 41
30.715909
 71
     7
 72
     1
  1
{\W0.85;ML17063-00}
210
0.0
220
0.0
230
1.0
 73
     1
 44
1.0
  0
MTEXT
  5
8A
100
AcDbEntity
  8
0
390
0
 62
     7
100
AcDbMText
 10
260.702623
 20
53.714705
 30
0.0
 40
3.0
 41
25.554545
 71
     7
 72
     1
  1
ML17063
210
0.0
220
0.0
230
1.0
 73
     1
 44
1.0
  0
MTEXT
  5
8B
100
AcDbEntity
  8
0
390
0
 62
     7
100
AcDbMText
 10
176.862051
 20
25.353979
 30
0.0
 40
3.0
 41
18.027273
 71
     7
 72
     1
  1
承　認
210
0.0
220
0.0
230
1.0
 73
     1
 44
1.0
  0
MTEXT
  5
8C
100
AcDbEntity
  8
0
390
0
 62
     7
100
AcDbMText
 10
195.964096
 20
25.31307
 30
0.0
 40
3.0
 41
17.836364
 71
     7
 72
     1
  1
照　査
210
0.0
220
0.0
230
1.0
 73
     1
 44
1.0
  0
MTEXT
  5
8D
100
AcDbEntity
  8
0
390
0
 62
     7
100
AcDbMText
 10
215.062131
 20
25.334646
 30
0.0
 40
3.0
 41
17.781818
 71
     7
 72
     1
  1
設　計
210
0.0
220
0.0
230
1.0
 73
     1
 44
1.0
  0
INSERT
  5
B8
100
AcDbEntity
  8
0
390
0
100
AcDbBlockReference
  2
AID185
 10
0.0
 20
0.0
 30
0.0
  0
MTEXT
  5
B9
100
AcDbEntity
  8
0
390
0
 62
     7
100
AcDbMText
 10
163.841418
 20
11.591591
 30
0.0
 40
3.0
 41
13.145455
 71
     7
 72
     1
  1
設計
210
0.0
220
0.0
230
1.0
 73
     1
 44
1.0
  0
MTEXT
  5
BA
100
AcDbEntity
  8
0
390
0
 62
     7
100
AcDbMText
 10
154.503675
 20
11.571136
 30
0.0
 40
3.0
 41
13.2
 71
     7
 72
     1
  1
照査
210
0.0
220
0.0
230
1.0
 73
     1
 44
1.0
  0
MTEXT
  5
BB
100
AcDbEntity
  8
0
390
0
 62
     7
100
AcDbMText
 10
145.14435
 20
11.612045
 30
0.0
 40
3.0
 41
13.390909
 71
     7
 72
     1
  1
承認
210
0.0
220
0.0
230
1.0
 73
     1
 44
1.0
  0
MTEXT
  5
BC
100
AcDbEntity
  8
0
390
0
 62
     7
100
AcDbMText
 10
88.203189
 20
11.775682
 30
0.0
 40
2.5
 41
18.054545
 71
     7
 72
     1
  1
{\W0.8;訂正箇所}
210
0.0
220
0.0
230
1.0
 73
     1
 44
1.0
  0
POINT
  5
BD
100
AcDbEntity
  8
0
390
0
 62
     7
100
AcDbPoint
 10
172.0
 20
10.0
 30
0.0
  0
INSERT
  5
C7
100
AcDbEntity
  8
0
390
0
100
AcDbBlockReference
  2
AID274
 10
0.0
 20
0.0
 30
0.0
  0
INSERT
  5
D1
100
AcDbEntity
  8
0
390
0
100
AcDbBlockReference
  2
AID279
 10
0.0
 20
0.0
 30
0.0
  0
INSERT
  5
DB
100
AcDbEntity
  8
0
390
0
100
AcDbBlockReference
  2
AID284
 10
0.0
 20
0.0
 30
0.0
  0
INSERT
  5
E5
100
AcDbEntity
  8
0
390
0
100
AcDbBlockReference
  2
AID289
 10
0.0
 20
0.0
 30
0.0
  0
INSERT
  5
EF
100
AcDbEntity
  8
0
390
0
100
AcDbBlockReference
  2
AID294
 10
0.0
 20
0.0
 30
0.0
  0
MTEXT
  5
F0
100
AcDbEntity
  8
0
390
0
 62
     7
100
AcDbMText
 10
210.957586
 20
20.121098
 30
0.0
 40
3.0
 41
34.309091
 71
     7
 72
     1
  1
2017/11/30
210
0.0
220
0.0
230
1.0
 73
     1
 44
1.0
  0
MTEXT
  5
F1
100
AcDbEntity
  8
0
390
0
 62
     7
100
AcDbMText
 10
191.85955
 20
20.118855
 30
0.0
 40
3.0
 41
34.309091
 71
     7
 72
     1
  1
2017/11/30
210
0.0
220
0.0
230
1.0
 73
     1
 44
1.0
  0
MTEXT
  5
F2
100
AcDbEntity
  8
0
390
0
 62
     7
100
AcDbMText
 10
214.984859
 20
12.418182
 30
0.0
 40
4.0
 41
17.454545
 71
     7
 72
     1
  1
千葉
210
0.0
220
0.0
230
1.0
 73
     1
 44
1.0
  0
MTEXT
  5
F3
100
AcDbEntity
  8
0
390
0
 62
     7
100
AcDbMText
 10
195.977732
 20
12.381818
 30
0.0
 40
4.0
 41
17.890909
 71
     7
 72
     1
  1
佐藤
210
0.0
220
0.0
230
1.0
 73
     1
 44
1.0
  0
MTEXT
  5
F4
100
AcDbEntity
  8
0
390
0
 62
     7
100
AcDbMText
 10
176.896141
 20
12.381818
 30
0.0
 40
4.0
 41
17.890909
 71
     7
 72
     1
  1
佐藤
210
0.0
220
0.0
230
1.0
 73
     1
 44
1.0
  0
MTEXT
  5
F5
100
AcDbEntity
  8
0
390
0
 62
     7
100
AcDbMText
 10
172.77796
 20
20.118855
 30
0.0
 40
3.0
 41
34.309091
 71
     7
 72
     1
  1
2017/11/30
210
0.0
220
0.0
230
1.0
 73
     1
 44
1.0
  0
MTEXT
  5
F6
100
AcDbEntity
  8
0
390
0
 62
     7
100
AcDbMText
 10
131.453637
 20
11.584773
 30
0.0
 40
3.0
 41
19.090909
 71
     7
 72
     1
  1
年月日
210
0.0
220
0.0
230
1.0
 73
     1
 44
1.0
  0
MTEXT
  5
F7
100
AcDbEntity
  8
0
390
0
 62
     7
100
AcDbMText
 10
106.313369
 20
11.584773
 30
0.0
 40
3.0
 41
27.054545
 71
     7
 72
     1
  1
変更内容
210
0.0
220
0.0
230
1.0
 73
     1
 44
1.0
  0
MTEXT
  5
F8
100
AcDbEntity
  8
0
390
0
 62
     7
100
AcDbMText
 10
271.655257
 20
37.344514
 30
0.0
 40
3.0
 41
22.663636
 71
     7
 72
     1
  1
個　　数
210
0.0
220
0.0
230
1.0
 73
     1
 44
1.0
  0
MTEXT
  5
F9
100
AcDbEntity
  8
0
390
0
 62
     7
100
AcDbMText
 10
276.471166
 20
30.865636
 30
0.0
 40
4.0
 41
1.927273
 71
     7
 72
     1
  1
1
210
0.0
220
0.0
230
1.0
 73
     1
 44
1.0
  0
MTEXT
  5
FA
100
AcDbEntity
  8
0
390
0
 62
     7
100
AcDbMText
 10
252.559648
 20
37.344514
 30
0.0
 40
3.0
 41
22.472727
 71
     7
 72
     1
  1
尺　　度
210
0.0
220
0.0
230
1.0
 73
     1
 44
1.0
  0
MTEXT
  5
FB
100
AcDbEntity
  8
0
390
0
 62
     7
100
AcDbMText
 10
255.718739
 20
30.874727
 30
0.0
 40
4.0
 41
8.472727
 71
     7
 72
     1
  1
1:1
210
0.0
220
0.0
230
1.0
 73
     1
 44
1.0
  0
INSERT
  5
10A
100
AcDbEntity
  8
0
390
0
100
AcDbBlockReference
  2
AID323
 10
0.0
 20
0.0
 30
0.0
  0
POINT
  5
10B
100
AcDbEntity
  8
0
390
0
 62
     7
100
AcDbPoint
 10
287.0
 20
28.480012
 30
0.0
  0
LINE
  5
10C
100
AcDbEntity
  8
0
390
0
  6
Continuous
 62
     7
100
AcDbLine
 10
287.0
 20
10.0
 30
0.0
 11
287.0
 21
200.0
 31
0.0
  0
INSERT
  5
11F
100
AcDbEntity
  8
0
390
0
100
AcDbBlockReference
  2
AID339
 10
0.0
 20
0.0
 30
0.0
  0
MTEXT
  5
120
100
AcDbEntity
  8
0
390
0
 62
     7
100
AcDbMText
 10
17.263636
 20
41.168764
 30
0.0
 40
2.0
 41
48.4
 71
     7
 72
     1
  1
指示なき長さ寸法公差は
210
0.0
220
0.0
230
1.0
 73
     1
 44
1.0
  0
MTEXT
  5
121
100
AcDbEntity
  8
0
390
0
 62
     7
100
AcDbMText
 10
14.336364
 20
34.386534
 30
0.0
 40
2.0
 41
21.327273
 71
     7
 72
     1
  1
0.5～3以下
210
0.0
220
0.0
230
1.0
 73
     1
 44
1.0
  0
MTEXT
  5
122
100
AcDbEntity
  8
0
390
0
 62
     7
100
AcDbMText
 10
36.75
 20
34.341079
 30
0.0
 40
2.0
 41
8.763636
 71
     7
 72
     1
  1
%%p0.1
210
0.0
220
0.0
230
1.0
 73
     1
 44
1.0
  0
MTEXT
  5
123
100
AcDbEntity
  8
0
390
0
 62
     7
100
AcDbMText
 10
15.136364
 20
30.516577
 30
0.0
 40
2.0
 41
17.981818
 71
     7
 72
     1
  1
3～6以下
210
0.0
220
0.0
230
1.0
 73
     1
 44
1.0
  0
MTEXT
  5
124
100
AcDbEntity
  8
0
390
0
 62
     7
100
AcDbMText
 10
36.75
 20
30.471123
 30
0.0
 40
2.0
 41
8.763636
 71
     7
 72
     1
  1
%%p0.1
210
0.0
220
0.0
230
1.0
 73
     1
 44
1.0
  0
MTEXT
  5
125
100
AcDbEntity
  8
0
390
0
 62
     7
100
AcDbMText
 10
14.55
 20
26.646621
 30
0.0
 40
2.0
 41
20.290909
 71
     7
 72
     1
  1
6～30以下
210
0.0
220
0.0
230
1.0
 73
     1
 44
1.0
  0
MTEXT
  5
126
100
AcDbEntity
  8
0
390
0
 62
     7
100
AcDbMText
 10
36.590909
 20
26.601167
 30
0.0
 40
2.0
 41
9.4
 71
     7
 72
     1
  1
%%p0.2
210
0.0
220
0.0
230
1.0
 73
     1
 44
1.0
  0
MTEXT
  5
127
100
AcDbEntity
  8
0
390
0
 62
     7
100
AcDbMText
 10
13.390909
 20
22.776665
 30
0.0
 40
2.0
 41
24.963636
 71
     7
 72
     1
  1
30～120以下
210
0.0
220
0.0
230
1.0
 73
     1
 44
1.0
  0
MTEXT
  5
128
100
AcDbEntity
  8
0
390
0
 62
     7
100
AcDbMText
 10
36.590909
 20
22.735756
 30
0.0
 40
2.0
 41
9.4
 71
     7
 72
     1
  1
%%p0.3
210
0.0
220
0.0
230
1.0
 73
     1
 44
1.0
  0
MTEXT
  5
129
100
AcDbEntity
  8
0
390
0
 62
     7
100
AcDbMText
 10
12.745455
 20
18.906709
 30
0.0
 40
2.0
 41
27.036364
 71
     7
 72
     1
  1
120～400以下
210
0.0
220
0.0
230
1.0
 73
     1
 44
1.0
  0
MTEXT
  5
12A
100
AcDbEntity
  8
0
390
0
 62
     7
100
AcDbMText
 10
36.590909
 20
18.8658
 30
0.0
 40
2.0
 41
9.4
 71
     7
 72
     1
  1
%%p0.5
210
0.0
220
0.0
230
1.0
 73
     1
 44
1.0
  0
MTEXT
  5
12B
100
AcDbEntity
  8
0
390
0
 62
     7
100
AcDbMText
 10
12.245455
 20
15.036752
 30
0.0
 40
2.0
 41
29.690909
 71
     7
 72
     1
  1
400～1000以下
210
0.0
220
0.0
230
1.0
 73
     1
 44
1.0
  0
MTEXT
  5
12C
100
AcDbEntity
  8
0
390
0
 62
     7
100
AcDbMText
 10
36.586364
 20
14.995843
 30
0.0
 40
2.0
 41
9.418182
 71
     7
 72
     1
  1
%%p0.8
210
0.0
220
0.0
230
1.0
 73
     1
 44
1.0
  0
MTEXT
  5
12D
100
AcDbEntity
  8
0
390
0
 62
     7
100
AcDbMText
 10
11.581818
 20
11.166796
 30
0.0
 40
2.0
 41
31.690909
 71
     7
 72
     1
  1
1000～2000以下
210
0.0
220
0.0
230
1.0
 73
     1
 44
1.0
  0
MTEXT
  5
12E
100
AcDbEntity
  8
0
390
0
 62
     7
100
AcDbMText
 10
36.590909
 20
11.116796
 30
0.0
 40
2.0
 41
9.4
 71
     7
 72
     1
  1
%%p1.2
210
0.0
220
0.0
230
1.0
 73
     1
 44
1.0
  0
MTEXT
  5
12F
100
AcDbEntity
  8
0
390
0
 62
     7
100
AcDbMText
 10
53.663636
 20
41.144545
 30
0.0
 40
2.0
 41
58.8
 71
     7
 72
     1
  1
指示なき角度寸法は下記一般
210
0.0
220
0.0
230
1.0
 73
     1
 44
1.0
  0
MTEXT
  5
130
100
AcDbEntity
  8
0
390
0
 62
     7
100
AcDbMText
 10
55.236364
 20
34.386534
 30
0.0
 40
2.0
 41
13.072727
 71
     7
 72
     1
  1
10以下
210
0.0
220
0.0
230
1.0
 73
     1
 44
1.0
  0
MTEXT
  5
131
100
AcDbEntity
  8
0
390
0
 62
     7
100
AcDbMText
 10
76.0
 20
34.209261
 30
0.0
 40
2.0
 41
7.763636
 71
     7
 72
     1
  1
%%p1%%d
210
0.0
220
0.0
230
1.0
 73
     1
 44
1.0
  0
MTEXT
  5
132
100
AcDbEntity
  8
0
390
0
 62
     7
100
AcDbMText
 10
51.745455
 20
30.44385
 30
0.0
 40
2.0
 41
27.036364
 71
     7
 72
     1
  1
10超～50以下
210
0.0
220
0.0
230
1.0
 73
     1
 44
1.0
  0
MTEXT
  5
133
100
AcDbEntity
  8
0
390
0
 62
     7
100
AcDbMText
 10
75.422727
 20
30.352941
 30
0.0
 40
2.0
 41
10.072727
 71
     7
 72
     1
  1
%%p30′
210
0.0
220
0.0
230
1.0
 73
     1
 44
1.0
  0
MTEXT
  5
134
100
AcDbEntity
  8
0
390
0
 62
     7
100
AcDbMText
 10
51.227273
 20
26.573894
 30
0.0
 40
2.0
 41
29.618182
 71
     7
 72
     1
  1
50超～120以下
210
0.0
220
0.0
230
1.0
 73
     1
 44
1.0
  0
MTEXT
  5
135
100
AcDbEntity
  8
0
390
0
 62
     7
100
AcDbMText
 10
75.422727
 20
26.478439
 30
0.0
 40
2.0
 41
10.072727
 71
     7
 72
     1
  1
%%p20′
210
0.0
220
0.0
230
1.0
 73
     1
 44
1.0
  0
MTEXT
  5
136
100
AcDbEntity
  8
0
390
0
 62
     7
100
AcDbMText
 10
50.581818
 20
22.703938
 30
0.0
 40
2.0
 41
31.690909
 71
     7
 72
     1
  1
120超～400以下
210
0.0
220
0.0
230
1.0
 73
     1
 44
1.0
  0
MTEXT
  5
137
100
AcDbEntity
  8
0
390
0
 62
     7
100
AcDbMText
 10
75.422727
 20
22.608483
 30
0.0
 40
2.0
 41
10.072727
 71
     7
 72
     1
  1
%%p10′
210
0.0
220
0.0
230
1.0
 73
     1
 44
1.0
  0
MTEXT
  5
138
100
AcDbEntity
  8
0
390
0
 62
     7
100
AcDbMText
 10
55.854545
 20
18.833981
 30
0.0
 40
2.0
 41
11.254545
 71
     7
 72
     1
  1
400超
210
0.0
220
0.0
230
1.0
 73
     1
 44
1.0
  0
MTEXT
  5
139
100
AcDbEntity
  8
0
390
0
 62
     7
100
AcDbMText
 10
76.004545
 20
18.743072
 30
0.0
 40
2.0
 41
7.745455
 71
     7
 72
     1
  1
%%p5′
210
0.0
220
0.0
230
1.0
 73
     1
 44
1.0
  0
MTEXT
  5
13A
100
AcDbEntity
  8
0
390
0
 62
     7
100
AcDbMText
 10
19.418182
 20
38.630756
 30
0.0
 40
2.0
 41
39.636364
 71
     7
 72
     1
  1
下記一般公差による
210
0.0
220
0.0
230
1.0
 73
     1
 44
1.0
  0
MTEXT
  5
13B
100
AcDbEntity
  8
0
390
0
 62
     7
100
AcDbMText
 10
51.854545
 20
38.630756
 30
0.0
 40
2.0
 41
66.072727
 71
     7
 72
     1
  1
公差による（対象角度の短片長さ）
210
0.0
220
0.0
230
1.0
 73
     1
 44
1.0
  0
POINT
  5
13C
100
AcDbEntity
  8
0
390
0
 62
     7
100
AcDbPoint
 10
88.0
 20
10.0
 30
0.0
  0
POINT
  5
13D
100
AcDbEntity
  8
0
390
0
 62
     7
100
AcDbPoint
 10
49.0
 20
13.869956
 30
0.0
  0
POINT
  5
13E
100
AcDbEntity
  8
0
390
0
 62
     7
100
AcDbPoint
 10
68.5
 20
17.739912
 30
0.0
  0
LINE
  5
13F
100
AcDbEntity
  8
0
390
0
  6
Continuous
 62
     7
100
AcDbLine
 10
49.0
 20
13.869956
 30
0.0
 11
68.5
 21
17.739912
 31
0.0
  0
POINT
  5
140
100
AcDbEntity
  8
0
390
0
 62
     7
100
AcDbPoint
 10
68.5
 20
13.869956
 30
0.0
  0
POINT
  5
141
100
AcDbEntity
  8
0
390
0
 62
     7
100
AcDbPoint
 10
88.0
 20
17.739912
 30
0.0
  0
LINE
  5
142
100
AcDbEntity
  8
0
390
0
  6
Continuous
 62
     7
100
AcDbLine
 10
68.5
 20
13.869956
 30
0.0
 11
88.0
 21
17.739912
 31
0.0
  0
POINT
  5
143
100
AcDbEntity
  8
0
390
0
 62
     7
100
AcDbPoint
 10
49.0
 20
10.0
 30
0.0
  0
LINE
  5
144
100
AcDbEntity
  8
0
390
0
  6
Continuous
 62
     7
100
AcDbLine
 10
49.0
 20
10.0
 30
0.0
 11
68.5
 21
13.869956
 31
0.0
  0
POINT
  5
145
100
AcDbEntity
  8
0
390
0
 62
     7
100
AcDbPoint
 10
68.5
 20
10.0
 30
0.0
  0
POINT
  5
146
100
AcDbEntity
  8
0
390
0
 62
     7
100
AcDbPoint
 10
88.0
 20
13.869956
 30
0.0
  0
LINE
  5
147
100
AcDbEntity
  8
0
390
0
  6
Continuous
 62
     7
100
AcDbLine
 10
68.5
 20
10.0
 30
0.0
 11
88.0
 21
13.869956
 31
0.0
  0
POINT
  5
148
100
AcDbEntity
  8
0
390
0
 62
     7
100
AcDbPoint
 10
191.06501
 20
36.542169
 30
0.0
  0
POINT
  5
149
100
AcDbEntity
  8
0
390
0
 62
     7
100
AcDbPoint
 10
210.163182
 20
28.480012
 30
0.0
  0
POINT
  5
14A
100
AcDbEntity
  8
0
390
0
 62
     7
100
AcDbPoint
 10
172.0
 20
36.542169
 30
0.0
  0
POINT
  5
14B
100
AcDbEntity
  8
0
390
0
 62
     7
100
AcDbPoint
 10
191.06501
 20
28.480012
 30
0.0
  0
LINE
  5
14C
100
AcDbEntity
  8
0
390
0
  6
Continuous
 62
     7
100
AcDbLine
 10
172.0
 20
36.542169
 30
0.0
 11
191.06501
 21
28.480012
 31
0.0
  0
POINT
  5
14D
100
AcDbEntity
  8
0
390
0
 62
     7
100
AcDbPoint
 10
210.163182
 20
36.542169
 30
0.0
  0
POINT
  5
14E
100
AcDbEntity
  8
0
390
0
 62
     7
100
AcDbPoint
 10
229.261081
 20
28.480012
 30
0.0
  0
LINE
  5
14F
100
AcDbEntity
  8
0
390
0
  6
Continuous
 62
     7
100
AcDbLine
 10
210.163182
 20
36.542169
 30
0.0
 11
229.261081
 21
28.480012
 31
0.0
  0
MTEXT
  5
150
100
AcDbEntity
  8
0
390
0
 62
     7
100
AcDbMText
 10
173.730402
 20
47.822089
 30
0.0
 40
3.0
 41
26.318182
 71
     7
 72
     1
  1
半製品名
210
0.0
220
0.0
230
1.0
 73
     1
 44
1.0
  0
MTEXT
  5
151
100
AcDbEntity
  8
0
390
0
 62
     7
100
AcDbMText
 10
175.489493
 20
42.19136
 30
0.0
 40
3.0
 41
19.390909
 71
     7
 72
     1
  1
部品名
210
0.0
220
0.0
230
1.0
 73
     1
 44
1.0
  0
MTEXT
  5
152
100
AcDbEntity
  8
0
390
0
 62
     7
100
AcDbMText
 10
229.725328
 20
47.822089
 30
0.0
 40
3.0
 41
34.090909
 71
     7
 72
     1
  1
半製品番号
210
0.0
220
0.0
230
1.0
 73
     1
 44
1.0
  0
MTEXT
  5
153
100
AcDbEntity
  8
0
390
0
 62
     7
100
AcDbMText
 10
231.484419
 20
42.198178
 30
0.0
 40
3.0
 41
27.163636
 71
     7
 72
     1
  1
部品番号
210
0.0
220
0.0
230
1.0
 73
     1
 44
1.0
  0
POINT
  5
154
100
AcDbEntity
  8
0
390
0
 62
     7
100
AcDbPoint
 10
189.056259
 20
51.856682
 30
0.0
  0
POINT
  5
155
100
AcDbEntity
  8
0
390
0
 62
     7
100
AcDbPoint
 10
229.258465
 20
46.249498
 30
0.0
  0
LINE
  5
156
100
AcDbEntity
  8
0
390
0
  6
Continuous
 62
     7
100
AcDbLine
 10
189.056259
 20
51.856682
 30
0.0
 11
229.258465
 21
46.249498
 31
0.0
  0
POINT
  5
157
100
AcDbEntity
  8
0
390
0
 62
     7
100
AcDbPoint
 10
229.261081
 20
40.642313
 30
0.0
  0
POINT
  5
158
100
AcDbEntity
  8
0
390
0
 62
     7
100
AcDbPoint
 10
189.056259
 20
46.249498
 30
0.0
  0
LINE
  5
159
100
AcDbEntity
  8
0
390
0
  6
Continuous
 62
     7
100
AcDbLine
 10
229.261081
 20
40.642313
 30
0.0
 11
189.056259
 21
46.249498
 31
0.0
  0
POINT
  5
15A
100
AcDbEntity
  8
0
390
0
 62
     7
100
AcDbPoint
 10
247.674009
 20
51.856682
 30
0.0
  0
POINT
  5
15B
100
AcDbEntity
  8
0
390
0
 62
     7
100
AcDbPoint
 10
287.0
 20
46.249498
 30
0.0
  0
LINE
  5
15C
100
AcDbEntity
  8
0
390
0
  6
Continuous
 62
     7
100
AcDbLine
 10
247.674009
 20
51.856682
 30
0.0
 11
287.0
 21
46.249498
 31
0.0
  0
POINT
  5
15D
100
AcDbEntity
  8
0
390
0
 62
     7
100
AcDbPoint
 10
287.0
 20
40.642313
 30
0.0
  0
POINT
  5
15E
100
AcDbEntity
  8
0
390
0
 62
     7
100
AcDbPoint
 10
247.674009
 20
46.249498
 30
0.0
  0
LINE
  5
15F
100
AcDbEntity
  8
0
390
0
  6
Continuous
 62
     7
100
AcDbLine
 10
287.0
 20
40.642313
 30
0.0
 11
247.674009
 21
46.249498
 31
0.0
  0
LINE
  5
160
100
AcDbEntity
  8
0
390
0
  6
Continuous
 62
     7
100
AcDbLine
 10
191.06501
 20
36.542169
 30
0.0
 11
210.163182
 21
28.480012
 31
0.0
  0
MTEXT
  5
162
100
AcDbEntity
  8
0
390
0
 62
     7
100
AcDbMText
 10
247.437577
 20
14.514029
 30
0.0
 40
2.8
 41
24.133455
 71
     7
 72
     1
  1
{\W0.95;株式会社}
  7
TopStyle2
210
0.0
220
0.0
230
1.0
 73
     1
 44
1.0
  0
MTEXT
  5
163
100
AcDbEntity
  8
0
390
0
 62
     7
100
AcDbMText
 10
260.102025
 20
13.946757
 30
0.0
 40
3.8
 41
49.106768
 71
     7
 72
     1
  1
{\W0.95;プロスパイン}
  7
TopStyle2
210
0.0
220
0.0
230
1.0
 73
     1
 44
1.0
  0
INSERT
  5
2CC
100
AcDbEntity
  8
0
390
0
100
AcDbBlockReference
  2
AID504
 10
0.0
 20
0.0
 30
0.0
  0
LINE
  5
2CE
100
AcDbEntity
  8
0
390
0
  6
DOT
 62
     2
100
AcDbLine
 10
73.714735
 20
112.506158
 30
0.0
 11
73.714735
 21
115.381233
 31
0.0
  0
LINE
  5
2CF
100
AcDbEntity
  8
0
390
0
  6
DOT
 62
     2
100
AcDbLine
 10
68.714745
 20
115.381233
 30
0.0
 11
68.714745
 21
112.506158
 31
0.0
  0
LINE
  5
2D0
100
AcDbEntity
  8
0
390
0
  6
DOT
 62
     2
100
AcDbLine
 10
84.714745
 20
160.809639
 30
0.0
 11
84.714745
 21
159.506272
 31
0.0
  0
LINE
  5
2D1
100
AcDbEntity
  8
0
390
0
  6
DOT
 62
     2
100
AcDbLine
 10
84.714745
 20
155.381233
 30
0.0
 11
84.714745
 21
152.077337
 31
0.0
  0
LINE
  5
2D2
100
AcDbEntity
  8
0
390
0
  6
DOT
 62
     2
100
AcDbLine
 10
89.714735
 20
152.077331
 30
0.0
 11
89.714735
 21
155.381233
 31
0.0
  0
LINE
  5
2D3
100
AcDbEntity
  8
0
390
0
  6
DOT
 62
     2
100
AcDbLine
 10
89.714735
 20
155.381247
 30
0.0
 11
89.714735
 21
159.506252
 31
0.0
  0
LINE
  5
2D4
100
AcDbEntity
  8
0
390
0
  6
DOT
 62
     2
100
AcDbLine
 10
89.714735
 20
159.506272
 30
0.0
 11
89.714735
 21
160.809639
 31
0.0
  0
LINE
  5
2D5
100
AcDbEntity
  8
0
390
0
  6
DOT
 62
     2
100
AcDbLine
 10
85.11474
 20
160.867747
 30
0.0
 11
85.11474
 21
159.706252
 31
0.0
  0
LINE
  5
2D6
100
AcDbEntity
  8
0
390
0
  6
DOT
 62
     2
100
AcDbLine
 10
85.11474
 20
154.981232
 30
0.0
 11
85.11474
 21
152.206158
 31
0.0
  0
LINE
  5
2D7
100
AcDbEntity
  8
0
390
0
  6
DOT
 62
     2
100
AcDbLine
 10
89.31474
 20
152.206296
 30
0.0
 11
89.31474
 21
154.981232
 31
0.0
  0
LINE
  5
2D8
100
AcDbEntity
  8
0
390
0
  6
DOT
 62
     2
100
AcDbLine
 10
89.31474
 20
159.706252
 30
0.0
 11
89.31474
 21
160.867795
 31
0.0
  0
LINE
  5
2D9
100
AcDbEntity
  8
0
390
0
  6
DOT
 62
     2
100
AcDbLine
 10
69.11474
 20
114.981232
 30
0.0
 11
69.11474
 21
112.506158
 31
0.0
  0
LINE
  5
2DA
100
AcDbEntity
  8
0
390
0
  6
DOT
 62
     2
100
AcDbLine
 10
73.31474
 20
112.506051
 30
0.0
 11
73.31474
 21
112.506158
 31
0.0
  0
LINE
  5
2DB
100
AcDbEntity
  8
0
390
0
  6
DOT
 62
     2
100
AcDbLine
 10
68.714745
 20
121.006158
 30
0.0
 11
68.714745
 21
119.506272
 31
0.0
  0
LINE
  5
2DC
100
AcDbEntity
  8
0
390
0
  6
DOT
 62
     2
100
AcDbLine
 10
73.714735
 20
115.381252
 30
0.0
 11
73.714735
 21
119.506255
 31
0.0
  0
LINE
  5
2DD
100
AcDbEntity
  8
0
390
0
  6
DOT
 62
     2
100
AcDbLine
 10
73.714735
 20
119.506272
 30
0.0
 11
73.714735
 21
121.006158
 31
0.0
  0
LINE
  5
2DE
100
AcDbEntity
  8
0
390
0
  6
DOT
 62
     2
100
AcDbLine
 10
69.11474
 20
121.006158
 30
0.0
 11
69.11474
 21
119.706252
 31
0.0
  0
LINE
  5
2DF
100
AcDbEntity
  8
0
390
0
  6
DOT
 62
     2
100
AcDbLine
 10
73.31474
 20
119.706252
 30
0.0
 11
73.31474
 21
121.006158
 31
0.0
  0
LINE
  5
2E0
100
AcDbEntity
  8
0
390
0
  6
DOT
 62
     2
100
AcDbLine
 10
183.076964
 20
112.077228
 30
0.0
 11
183.076964
 21
115.381233
 31
0.0
  0
LINE
  5
2E1
100
AcDbEntity
  8
0
390
0
  6
DOT
 62
     2
100
AcDbLine
 10
178.076974
 20
115.381233
 30
0.0
 11
178.076974
 21
112.077638
 31
0.0
  0
LINE
  5
2E2
100
AcDbEntity
  8
0
390
0
  6
DOT
 62
     2
100
AcDbLine
 10
183.076964
 20
119.506272
 30
0.0
 11
183.076964
 21
120.809639
 31
0.0
  0
LINE
  5
2E3
100
AcDbEntity
  8
0
390
0
  6
DOT
 62
     2
100
AcDbLine
 10
162.076974
 20
161.006158
 30
0.0
 11
162.076974
 21
159.506272
 31
0.0
  0
LINE
  5
2E4
100
AcDbEntity
  8
0
390
0
  6
DOT
 62
     2
100
AcDbLine
 10
162.076974
 20
155.381233
 30
0.0
 11
162.076974
 21
152.506158
 31
0.0
  0
LINE
  5
2E5
100
AcDbEntity
  8
0
390
0
  6
DOT
 62
     2
100
AcDbLine
 10
162.076974
 20
152.506158
 30
0.0
 11
162.076974
 21
152.505784
 31
0.0
  0
LINE
  5
2E6
100
AcDbEntity
  8
0
390
0
  6
DOT
 62
     2
100
AcDbLine
 10
167.076964
 20
152.506158
 30
0.0
 11
167.076964
 21
155.381233
 31
0.0
  0
LINE
  5
2E7
100
AcDbEntity
  8
0
390
0
  6
DOT
 62
     2
100
AcDbLine
 10
167.076964
 20
155.381247
 30
0.0
 11
167.076964
 21
159.506255
 31
0.0
  0
LINE
  5
2E8
100
AcDbEntity
  8
0
390
0
  6
DOT
 62
     2
100
AcDbLine
 10
167.076964
 20
159.506272
 30
0.0
 11
167.076964
 21
161.006158
 31
0.0
  0
LINE
  5
2E9
100
AcDbEntity
  8
0
390
0
  6
DOT
 62
     2
100
AcDbLine
 10
178.076974
 20
120.809815
 30
0.0
 11
178.076974
 21
120.809639
 31
0.0
  0
LINE
  5
2EA
100
AcDbEntity
  8
0
390
0
  6
DOT
 62
     2
100
AcDbLine
 10
178.076974
 20
118.272658
 30
0.0
 11
178.076974
 21
115.381247
 31
0.0
  0
LINE
  5
2EB
100
AcDbEntity
  8
0
390
0
  6
DOT
 62
     2
100
AcDbLine
 10
183.076964
 20
115.381247
 30
0.0
 11
183.076964
 21
118.272658
 31
0.0
  0
LINE
  5
2EC
100
AcDbEntity
  8
0
390
0
  6
DOT
 62
     2
100
AcDbLine
 10
166.676969
 20
159.706252
 30
0.0
 11
166.676969
 21
161.006158
 31
0.0
  0
LINE
  5
2ED
100
AcDbEntity
  8
0
390
0
  6
DOT
 62
     2
100
AcDbLine
 10
166.676969
 20
152.506052
 30
0.0
 11
166.676969
 21
152.506158
 31
0.0
  0
LINE
  5
2EE
100
AcDbEntity
  8
0
390
0
  6
DOT
 62
     2
100
AcDbLine
 10
178.476969
 20
120.867793
 30
0.0
 11
178.476969
 21
119.706252
 31
0.0
  0
LINE
  5
2EF
100
AcDbEntity
  8
0
390
0
  6
DOT
 62
     2
100
AcDbLine
 10
178.476969
 20
114.981232
 30
0.0
 11
178.476969
 21
112.206289
 31
0.0
  0
LINE
  5
2F0
100
AcDbEntity
  8
0
390
0
  6
DOT
 62
     2
100
AcDbLine
 10
182.676969
 20
112.206158
 30
0.0
 11
182.676969
 21
114.981232
 31
0.0
  0
LINE
  5
2F1
100
AcDbEntity
  8
0
390
0
  6
DOT
 62
     2
100
AcDbLine
 10
182.676969
 20
119.706252
 30
0.0
 11
182.676969
 21
120.867747
 31
0.0
  0
LINE
  5
2F2
100
AcDbEntity
  8
0
390
0
  6
Continuous
 62
     7
100
AcDbLine
 10
261.820128
 20
167.242378
 30
0.0
 11
270.899379
 21
172.484286
 31
0.0
  0
LINE
  5
2F3
100
AcDbEntity
  8
0
390
0
  6
Continuous
 62
     7
100
AcDbLine
 10
260.399379
 20
190.67082
 30
0.0
 11
251.320128
 21
185.428912
 31
0.0
  0
INSERT
  5
2FC
100
AcDbEntity
  8
0
390
0
100
AcDbBlockReference
  2
AID1302
 10
0.0
 20
0.0
 30
0.0
  0
POINT
  5
2FD
100
AcDbEntity
  8
0
390
0
 62
     7
100
AcDbPoint
 10
187.931586
 20
95.771732
 30
0.0
  0
DIMENSION
  5
2FE
100
AcDbEntity
  8
0
390
0
100
AcDbDimension
  2
*D13
 10
191.576969
 20
181.547246
 30
0.0
 11
175.576969
 21
184.697246
 31
0.0
 71
     5
 72
     1
 41
1.0
 42
0.0
  3
Standard
100
AcDbAlignedDimension
 13
159.576969
 23
161.006158
 33
0.0
 14
191.576969
 24
162.206158
 34
0.0
100
AcDbRotatedDimension
1001
ACAD
1000
DSTYLE
1002
{
1070
   271
1070
     1
1070
   179
1070
     1
1002
}
  0
DIMENSION
  5
310
100
AcDbEntity
  8
0
390
0
100
AcDbDimension
  2
*D14
 10
169.576969
 20
167.317511
 30
0.0
 11
180.339376
 21
170.459556
 31
0.0
 71
     5
 72
     1
 41
1.0
 42
0.0
  3
Standard
100
AcDbAlignedDimension
 13
169.576969
 23
162.206158
 33
0.0
 14
191.576969
 24
162.206158
 34
0.0
100
AcDbRotatedDimension
1001
ACAD
1000
DSTYLE
1002
{
1070
   271
1070
     1
1070
   179
1070
     1
1002
}
  0
DIMENSION
  5
322
100
AcDbEntity
  8
0
390
0
100
AcDbDimension
  2
*D15
 10
212.803954
 20
137.506158
 30
0.0
 11
209.537704
 21
145.006158
 31
0.0
 71
     5
 72
     1
 41
1.0
 42
0.0
  3
Standard
100
AcDbAlignedDimension
 13
191.076969
 23
152.506158
 33
0.0
 14
191.076969
 24
137.506158
 34
0.0
 50
270.0
100
AcDbRotatedDimension
1001
ACAD
1000
DSTYLE
1002
{
1070
    41
1040
0.99
1070
    42
1040
0.99
1070
    44
1040
0.99
1070
    47
1040
0.05
1070
    71
1070
     1
1070
    48
1040
0.0
1070
    71
1070
     1
1070
   140
1040
3.3
1070
     3
1000
%%c<>
1070
   147
1040
1.65
1070
   271
1070
     1
1070
   179
1070
     1
1002
}
  0
LINE
  5
334
100
AcDbEntity
  8
0
390
0
  6
DOT
 62
     2
100
AcDbLine
 10
73.31474
 20
114.981252
 30
0.0
 11
73.31474
 21
119.506252
 31
0.0
  0
LINE
  5
335
100
AcDbEntity
  8
0
390
0
  6
DOT
 62
     2
100
AcDbLine
 10
69.11474
 20
119.506252
 30
0.0
 11
69.11474
 21
114.981252
 31
0.0
  0
LINE
  5
336
100
AcDbEntity
  8
0
390
0
  6
DOT
 62
     2
100
AcDbLine
 10
89.31474
 20
154.981252
 30
0.0
 11
89.31474
 21
159.506252
 31
0.0
  0
LINE
  5
337
100
AcDbEntity
  8
0
390
0
  6
DOT
 62
     2
100
AcDbLine
 10
85.11474
 20
159.506252
 30
0.0
 11
85.11474
 21
154.981252
 31
0.0
  0
LINE
  5
338
100
AcDbEntity
  8
0
390
0
  6
DOT
 62
     2
100
AcDbLine
 10
68.714745
 20
119.506255
 30
0.0
 11
68.714745
 21
115.381252
 31
0.0
  0
LINE
  5
339
100
AcDbEntity
  8
0
390
0
  6
DOT
 62
     2
100
AcDbLine
 10
68.71474
 20
115.381252
 30
0.0
 11
69.11474
 21
114.981252
 31
0.0
  0
LINE
  5
33A
100
AcDbEntity
  8
0
390
0
  6
DOT
 62
     2
100
AcDbLine
 10
69.11474
 20
114.981252
 30
0.0
 11
69.96474
 21
114.131252
 31
0.0
  0
LINE
  5
33B
100
AcDbEntity
  8
0
390
0
  6
DOT
 62
     2
100
AcDbLine
 10
72.46474
 20
114.131252
 30
0.0
 11
73.31474
 21
114.981252
 31
0.0
  0
LINE
  5
33C
100
AcDbEntity
  8
0
390
0
  6
DOT
 62
     2
100
AcDbLine
 10
73.31474
 20
114.981252
 30
0.0
 11
73.71474
 21
115.381252
 31
0.0
  0
LINE
  5
33D
100
AcDbEntity
  8
0
390
0
  6
DOT
 62
     2
100
AcDbLine
 10
73.71474
 20
115.381252
 30
0.0
 11
73.71474
 21
119.506252
 31
0.0
  0
LINE
  5
33E
100
AcDbEntity
  8
0
390
0
  6
DOT
 62
     2
100
AcDbLine
 10
68.71474
 20
119.506252
 30
0.0
 11
68.71474
 21
115.381252
 31
0.0
  0
LINE
  5
33F
100
AcDbEntity
  8
0
390
0
  6
DOT
 62
     2
100
AcDbLine
 10
73.71474
 20
119.506252
 30
0.0
 11
73.31474
 21
119.706252
 31
0.0
  0
LINE
  5
340
100
AcDbEntity
  8
0
390
0
  6
DOT
 62
     2
100
AcDbLine
 10
73.31474
 20
119.706252
 30
0.0
 11
72.658116
 21
120.034564
 31
0.0
  0
LINE
  5
341
100
AcDbEntity
  8
0
390
0
  6
DOT
 62
     2
100
AcDbLine
 10
69.771364
 20
120.034564
 30
0.0
 11
69.11474
 21
119.706252
 31
0.0
  0
LINE
  5
342
100
AcDbEntity
  8
0
390
0
  6
DOT
 62
     2
100
AcDbLine
 10
69.11474
 20
119.706252
 30
0.0
 11
68.71474
 21
119.506252
 31
0.0
  0
LINE
  5
343
100
AcDbEntity
  8
0
390
0
  6
DOT
 62
     2
100
AcDbLine
 10
72.46474
 20
114.131252
 30
0.0
 11
71.21474
 21
114.853796
 31
0.0
  0
LINE
  5
344
100
AcDbEntity
  8
0
390
0
  6
DOT
 62
     2
100
AcDbLine
 10
71.21474
 20
114.853796
 30
0.0
 11
69.96474
 21
114.131252
 31
0.0
  0
LINE
  5
345
100
AcDbEntity
  8
0
390
0
  6
DOT
 62
     2
100
AcDbLine
 10
89.71474
 20
159.506252
 30
0.0
 11
89.31474
 21
159.706252
 31
0.0
  0
LINE
  5
346
100
AcDbEntity
  8
0
390
0
  6
DOT
 62
     2
100
AcDbLine
 10
85.96474
 20
160.131252
 30
0.0
 11
85.11474
 21
159.706252
 31
0.0
  0
LINE
  5
347
100
AcDbEntity
  8
0
390
0
  6
DOT
 62
     2
100
AcDbLine
 10
84.71474
 20
155.381252
 30
0.0
 11
85.11474
 21
154.981252
 31
0.0
  0
LINE
  5
348
100
AcDbEntity
  8
0
390
0
  6
DOT
 62
     2
100
AcDbLine
 10
85.11474
 20
154.981252
 30
0.0
 11
85.96474
 21
154.131252
 31
0.0
  0
LINE
  5
349
100
AcDbEntity
  8
0
390
0
  6
DOT
 62
     2
100
AcDbLine
 10
88.46474
 20
154.131252
 30
0.0
 11
89.31474
 21
154.981252
 31
0.0
  0
LINE
  5
34A
100
AcDbEntity
  8
0
390
0
  6
DOT
 62
     2
100
AcDbLine
 10
89.31474
 20
154.981252
 30
0.0
 11
89.71474
 21
155.381252
 31
0.0
  0
LINE
  5
34B
100
AcDbEntity
  8
0
390
0
  6
DOT
 62
     2
100
AcDbLine
 10
88.46474
 20
154.131252
 30
0.0
 11
87.21474
 21
154.853796
 31
0.0
  0
LINE
  5
34C
100
AcDbEntity
  8
0
390
0
  6
DOT
 62
     2
100
AcDbLine
 10
87.21474
 20
154.853796
 30
0.0
 11
85.96474
 21
154.131252
 31
0.0
  0
LINE
  5
34D
100
AcDbEntity
  8
0
390
0
  6
DOT
 62
     2
100
AcDbLine
 10
182.676969
 20
118.341824
 30
0.0
 11
182.676969
 21
119.506252
 31
0.0
  0
LINE
  5
34E
100
AcDbEntity
  8
0
390
0
  6
DOT
 62
     2
100
AcDbLine
 10
178.476969
 20
119.506252
 30
0.0
 11
178.476969
 21
118.341824
 31
0.0
  0
LINE
  5
34F
100
AcDbEntity
  8
0
390
0
  6
DOT
 62
     2
100
AcDbLine
 10
166.676969
 20
154.981252
 30
0.0
 11
166.676969
 21
159.506252
 31
0.0
  0
LINE
  5
350
100
AcDbEntity
  8
0
390
0
  6
DOT
 62
     2
100
AcDbLine
 10
162.476969
 20
159.506252
 30
0.0
 11
162.476969
 21
154.981252
 31
0.0
  0
LINE
  5
351
100
AcDbEntity
  8
0
390
0
  6
DOT
 62
     2
100
AcDbLine
 10
183.076969
 20
119.506252
 30
0.0
 11
182.676969
 21
119.706252
 31
0.0
  0
LINE
  5
352
100
AcDbEntity
  8
0
390
0
  6
DOT
 62
     2
100
AcDbLine
 10
182.676969
 20
119.706252
 30
0.0
 11
181.826969
 21
120.131252
 31
0.0
  0
LINE
  5
353
100
AcDbEntity
  8
0
390
0
  6
DOT
 62
     2
100
AcDbLine
 10
179.326969
 20
120.131252
 30
0.0
 11
178.476969
 21
119.706252
 31
0.0
  0
LINE
  5
354
100
AcDbEntity
  8
0
390
0
  6
DOT
 62
     2
100
AcDbLine
 10
178.476969
 20
119.706252
 30
0.0
 11
178.076969
 21
119.506252
 31
0.0
  0
LINE
  5
355
100
AcDbEntity
  8
0
390
0
  6
DOT
 62
     2
100
AcDbLine
 10
178.076969
 20
115.381252
 30
0.0
 11
178.476969
 21
114.981252
 31
0.0
  0
LINE
  5
356
100
AcDbEntity
  8
0
390
0
  6
DOT
 62
     2
100
AcDbLine
 10
178.476969
 20
114.981252
 30
0.0
 11
179.326969
 21
114.131252
 31
0.0
  0
LINE
  5
357
100
AcDbEntity
  8
0
390
0
  6
DOT
 62
     2
100
AcDbLine
 10
181.826969
 20
114.131252
 30
0.0
 11
182.676969
 21
114.981252
 31
0.0
  0
LINE
  5
358
100
AcDbEntity
  8
0
390
0
  6
DOT
 62
     2
100
AcDbLine
 10
182.676969
 20
114.981252
 30
0.0
 11
183.076969
 21
115.381252
 31
0.0
  0
LINE
  5
359
100
AcDbEntity
  8
0
390
0
  6
DOT
 62
     2
100
AcDbLine
 10
181.826969
 20
114.131252
 30
0.0
 11
180.576969
 21
114.853796
 31
0.0
  0
LINE
  5
35A
100
AcDbEntity
  8
0
390
0
  6
DOT
 62
     2
100
AcDbLine
 10
180.576969
 20
114.853796
 30
0.0
 11
179.326969
 21
114.131252
 31
0.0
  0
LINE
  5
35B
100
AcDbEntity
  8
0
390
0
  6
DOT
 62
     2
100
AcDbLine
 10
162.076969
 20
155.381252
 30
0.0
 11
162.476969
 21
154.981252
 31
0.0
  0
LINE
  5
35C
100
AcDbEntity
  8
0
390
0
  6
DOT
 62
     2
100
AcDbLine
 10
162.476969
 20
154.981252
 30
0.0
 11
163.326969
 21
154.131252
 31
0.0
  0
LINE
  5
35D
100
AcDbEntity
  8
0
390
0
  6
DOT
 62
     2
100
AcDbLine
 10
166.676969
 20
159.706252
 30
0.0
 11
166.020345
 21
160.034564
 31
0.0
  0
LINE
  5
35E
100
AcDbEntity
  8
0
390
0
  6
DOT
 62
     2
100
AcDbLine
 10
165.826969
 20
154.131252
 30
0.0
 11
164.576969
 21
154.853796
 31
0.0
  0
ELLIPSE
  5
35F
100
AcDbEntity
  8
0
390
0
  6
Continuous
 62
     7
100
AcDbEllipse
 10
254.321529
 20
170.56705
 30
0.0
 11
-0.7499999999999729
 21
0.0
 31
0.0
210
0.0
220
-0.0
230
1.0
 40
0.57735
 41
3.9269908169872147
 42
5.4977871437821637
  0
ELLIPSE
  5
360
100
AcDbEntity
  8
0
390
0
  6
Continuous
 62
     7
100
AcDbEllipse
 10
254.321529
 20
170.56705
 30
0.0
 11
-0.7499999999999729
 21
0.0
 31
0.0
210
0.0
220
-0.0
230
1.0
 40
0.57735
 41
5.4977871437821637
 42
5.8317320962751911
  0
ELLIPSE
  5
361
100
AcDbEntity
  8
0
390
0
  6
Continuous
 62
     7
100
AcDbEllipse
 10
256.442849
 20
176.26216
 30
0.0
 11
4.7999999999999705
 21
-8.3138438763306066
 31
-0.0000000000000004
210
0.0000000000000001
220
0.0
230
1.0
 40
0.57735
 41
6.28318530717958
 42
7.0685834705770336
  0
ELLIPSE
  5
362
100
AcDbEntity
  8
0
390
0
  6
Continuous
 62
     7
100
AcDbEllipse
 10
256.442849
 20
176.26216
 30
0.0
 11
4.7999999999999705
 21
-8.3138438763306066
 31
-0.0000000000000004
210
0.0000000000000001
220
0.0
230
1.0
 40
0.57735
 41
0.7853981633974474
 42
3.1415926535897962
  0
ELLIPSE
  5
363
100
AcDbEntity
  8
0
390
0
  6
Continuous
 62
     7
100
AcDbEllipse
 10
252.200208
 20
173.81267
 30
0.0
 11
-2.3999999999999853
 21
4.1569219381653033
 31
0.0000000000000002
210
0.0000000000000001
220
0.0
230
1.0
 40
0.57735
 41
5.497787143782138
 42
10.210176124166832
  0
ELLIPSE
  5
364
100
AcDbEntity
  8
0
390
0
  6
Continuous
 62
     7
100
AcDbEllipse
 10
252.200208
 20
173.81267
 30
0.0
 11
-2.3999999999999853
 21
4.1569219381653033
 31
0.0000000000000002
210
0.0000000000000001
220
0.0
230
1.0
 40
0.57735
 41
3.9269908169872449
 42
5.4977871437821388
  0
LINE
  5
365
100
AcDbEntity
  8
0
390
0
  6
Continuous
 62
     7
100
AcDbLine
 10
254.894965
 20
170.848349
 30
0.0
 11
254.851859
 21
170.873237
 31
0.0
  0
LINE
  5
366
100
AcDbEntity
  8
0
390
0
  6
Continuous
 62
     7
100
AcDbLine
 10
253.791199
 20
170.873237
 30
0.0
 11
253.609219
 21
170.768171
 31
0.0
  0
LINE
  5
367
100
AcDbEntity
  8
0
390
0
  6
Continuous
 62
     7
100
AcDbLine
 10
251.320128
 20
152.888368
 30
0.0
 11
260.399379
 21
147.64646
 31
0.0
  0
LINE
  5
368
100
AcDbEntity
  8
0
390
0
  6
Continuous
 62
     7
100
AcDbLine
 10
251.642849
 20
184.576004
 30
0.0
 11
247.400208
 21
182.126514
 31
0.0
  0
LINE
  5
369
100
AcDbEntity
  8
0
390
0
  6
Continuous
 62
     7
100
AcDbLine
 10
257.000208
 20
165.498827
 30
0.0
 11
261.242849
 21
167.948316
 31
0.0
  0
LINE
  5
36A
100
AcDbEntity
  8
0
390
0
  6
DOT
 62
     2
100
AcDbLine
 10
89.71474
 20
155.381252
 30
0.0
 11
89.71474
 21
159.506252
 31
0.0
  0
LINE
  5
36B
100
AcDbEntity
  8
0
390
0
  6
DOT
 62
     2
100
AcDbLine
 10
84.71474
 20
159.506252
 30
0.0
 11
84.71474
 21
155.381252
 31
0.0
  0
LINE
  5
36C
100
AcDbEntity
  8
0
390
0
  6
DOT
 62
     2
100
AcDbLine
 10
183.076969
 20
118.272657
 30
0.0
 11
183.076969
 21
119.506252
 31
0.0
  0
LINE
  5
36D
100
AcDbEntity
  8
0
390
0
  6
DOT
 62
     2
100
AcDbLine
 10
178.076969
 20
119.506252
 30
0.0
 11
178.076969
 21
118.272657
 31
0.0
  0
ELLIPSE
  5
36E
100
AcDbEntity
  8
0
390
0
  6
Continuous
 62
     7
100
AcDbEllipse
 10
252.41234
 20
173.935145
 30
0.0
 11
2.2499999999999742
 21
-3.8971143170299651
 31
-0.0000000000000002
210
0.0000000000000001
220
0.0
230
1.0
 40
0.57735
 41
2.3889957907691048
 42
3.1415926535898007
  0
ELLIPSE
  5
36F
100
AcDbEntity
  8
0
390
0
  6
Continuous
 62
     7
100
AcDbEllipse
 10
252.41234
 20
173.935145
 30
0.0
 11
2.2499999999999742
 21
-3.8971143170299651
 31
-0.0000000000000002
210
0.0000000000000001
220
0.0
230
1.0
 40
0.57735
 41
6.2831853071795836
 42
7.0357821700236594
  0
ELLIPSE
  5
370
100
AcDbEntity
  8
0
390
0
  6
Continuous
 62
     7
100
AcDbEllipse
 10
252.41234
 20
173.935145
 30
0.0
 11
2.2499999999999742
 21
-3.8971143170299651
 31
-0.0000000000000002
210
0.0000000000000001
220
0.0
230
1.0
 40
0.57735
 41
3.1415926535898007
 42
6.2831853071795836
  0
ELLIPSE
  5
371
100
AcDbEntity
  8
0
390
0
  6
Continuous
 62
     7
100
AcDbEllipse
 10
252.200208
 20
173.81267
 30
0.0
 11
4.8000000000000265
 21
-8.3138438763306066
 31
-0.0000000000000004
210
0.0000000000000001
220
0.0
230
1.0
 40
0.57735
 41
3.1415926535897869
 42
6.2831853071795924
  0
ELLIPSE
  5
372
100
AcDbEntity
  8
0
390
0
  6
Continuous
 62
     7
100
AcDbEllipse
 10
252.200208
 20
173.81267
 30
0.0
 11
4.8000000000000265
 21
-8.3138438763306066
 31
-0.0000000000000004
210
0.0000000000000001
220
0.0
230
1.0
 40
0.57735
 41
0.0000000000000064
 42
0.7853981633974438
  0
LINE
  5
373
100
AcDbEntity
  8
0
390
0
  6
DOT
 62
     2
100
AcDbLine
 10
84.714745
 20
159.506252
 30
0.0
 11
84.714745
 21
155.381247
 31
0.0
  0
LINE
  5
374
100
AcDbEntity
  8
0
390
0
  6
DOT
 62
     2
100
AcDbLine
 10
85.11474
 20
159.706252
 30
0.0
 11
85.11474
 21
159.506272
 31
0.0
  0
LINE
  5
375
100
AcDbEntity
  8
0
390
0
  6
DOT
 62
     2
100
AcDbLine
 10
89.31474
 20
159.506272
 30
0.0
 11
89.31474
 21
159.706252
 31
0.0
  0
LINE
  5
376
100
AcDbEntity
  8
0
390
0
  6
DOT
 62
     2
100
AcDbLine
 10
69.11474
 20
119.706252
 30
0.0
 11
69.11474
 21
119.506272
 31
0.0
  0
LINE
  5
377
100
AcDbEntity
  8
0
390
0
  6
DOT
 62
     2
100
AcDbLine
 10
73.31474
 20
112.506158
 30
0.0
 11
73.31474
 21
114.981232
 31
0.0
  0
LINE
  5
378
100
AcDbEntity
  8
0
390
0
  6
DOT
 62
     2
100
AcDbLine
 10
166.676969
 20
152.506158
 30
0.0
 11
166.676969
 21
154.981232
 31
0.0
  0
LINE
  5
379
100
AcDbEntity
  8
0
390
0
  6
DOT
 62
     2
100
AcDbLine
 10
178.476969
 20
119.706252
 30
0.0
 11
178.476969
 21
119.506272
 31
0.0
  0
LINE
  5
37A
100
AcDbEntity
  8
0
390
0
  6
DOT
 62
     2
100
AcDbLine
 10
182.676969
 20
119.506272
 30
0.0
 11
182.676969
 21
119.706252
 31
0.0
  0
LINE
  5
37B
100
AcDbEntity
  8
0
390
0
  6
Continuous
 62
     7
100
AcDbLine
 10
255.212483
 20
170.995757
 30
0.0
 11
255.486403
 21
171.210784
 31
0.0
  0
POLYLINE
  5
37C
100
AcDbEntity
  8
0
390
0
  6
Continuous
 62
     7
100
AcDb2dPolyline
 66
     1
 10
0.0
 20
0.0
 30
0.0
 40
0.1
 41
0.1
  0
VERTEX
  5
37D
100
AcDbEntity
  8
0
390
0
 62
     7
100
AcDbVertex
100
AcDb2dVertex
 10
253.061529
 20
171.435915
 30
0.0
  0
VERTEX
  5
37E
100
AcDbEntity
  8
0
390
0
 62
     7
100
AcDbVertex
100
AcDb2dVertex
 10
253.073656
 20
171.315146
 30
0.0
  0
VERTEX
  5
37F
100
AcDbEntity
  8
0
390
0
 62
     7
100
AcDbVertex
100
AcDb2dVertex
 10
253.105763
 20
171.207807
 30
0.0
  0
VERTEX
  5
380
100
AcDbEntity
  8
0
390
0
 62
     7
100
AcDbVertex
100
AcDb2dVertex
 10
253.158869
 20
171.103662
 30
0.0
  0
VERTEX
  5
381
100
AcDbEntity
  8
0
390
0
 62
     7
100
AcDbVertex
100
AcDb2dVertex
 10
253.228933
 20
171.010688
 30
0.0
  0
VERTEX
  5
382
100
AcDbEntity
  8
0
390
0
 62
     7
100
AcDbVertex
100
AcDb2dVertex
 10
253.317704
 20
170.926175
 30
0.0
  0
VERTEX
  5
383
100
AcDbEntity
  8
0
390
0
 62
     7
100
AcDbVertex
100
AcDb2dVertex
 10
253.422152
 20
170.853715
 30
0.0
  0
VERTEX
  5
384
100
AcDbEntity
  8
0
390
0
 62
     7
100
AcDbVertex
100
AcDb2dVertex
 10
253.536165
 20
170.796135
 30
0.0
  0
VERTEX
  5
385
100
AcDbEntity
  8
0
390
0
 62
     7
100
AcDbVertex
100
AcDb2dVertex
 10
253.6646
 20
170.750366
 30
0.0
 42
0.184698
  0
VERTEX
  5
386
100
AcDbEntity
  8
0
390
0
 62
     7
100
AcDbVertex
100
AcDb2dVertex
 10
255.212483
 20
170.995757
 30
0.0
  0
SEQEND
  5
387
100
AcDbEntity
  8
0
390
0
  0
POLYLINE
  5
388
100
AcDbEntity
  8
0
390
0
  6
Continuous
 62
     7
100
AcDb2dPolyline
 66
     1
 10
0.0
 20
0.0
 30
0.0
 40
0.1
 41
0.1
  0
VERTEX
  5
389
100
AcDbEntity
  8
0
390
0
 62
     7
100
AcDbVertex
100
AcDb2dVertex
 10
255.556086
 20
171.552695
 30
0.0
  0
VERTEX
  5
38A
100
AcDbEntity
  8
0
390
0
 62
     7
100
AcDbVertex
100
AcDb2dVertex
 10
255.494213
 20
171.652326
 30
0.0
  0
VERTEX
  5
38B
100
AcDbEntity
  8
0
390
0
 62
     7
100
AcDbVertex
100
AcDb2dVertex
 10
255.42476
 20
171.725709
 30
0.0
 42
0.204642
  0
VERTEX
  5
38C
100
AcDbEntity
  8
0
390
0
 62
     7
100
AcDbVertex
100
AcDb2dVertex
 10
253.751493
 20
172.144454
 30
0.0
  0
VERTEX
  5
38D
100
AcDbEntity
  8
0
390
0
 62
     7
100
AcDbVertex
100
AcDb2dVertex
 10
253.611281
 20
172.105867
 30
0.0
  0
VERTEX
  5
38E
100
AcDbEntity
  8
0
390
0
 62
     7
100
AcDbVertex
100
AcDb2dVertex
 10
253.48647
 20
172.05434
 30
0.0
  0
VERTEX
  5
38F
100
AcDbEntity
  8
0
390
0
 62
     7
100
AcDbVertex
100
AcDb2dVertex
 10
253.376371
 20
171.990623
 30
0.0
  0
VERTEX
  5
390
100
AcDbEntity
  8
0
390
0
 62
     7
100
AcDbVertex
100
AcDb2dVertex
 10
253.279295
 20
171.913676
 30
0.0
  0
VERTEX
  5
391
100
AcDbEntity
  8
0
390
0
 62
     7
100
AcDbVertex
100
AcDb2dVertex
 10
253.201956
 20
171.830059
 30
0.0
  0
VERTEX
  5
392
100
AcDbEntity
  8
0
390
0
 62
     7
100
AcDbVertex
100
AcDb2dVertex
 10
253.140164
 20
171.737099
 30
0.0
  0
VERTEX
  5
393
100
AcDbEntity
  8
0
390
0
 62
     7
100
AcDbVertex
100
AcDb2dVertex
 10
253.09558
 20
171.637047
 30
0.0
  0
VERTEX
  5
394
100
AcDbEntity
  8
0
390
0
 62
     7
100
AcDbVertex
100
AcDb2dVertex
 10
253.069251
 20
171.53251
 30
0.0
  0
VERTEX
  5
395
100
AcDbEntity
  8
0
390
0
 62
     7
100
AcDbVertex
100
AcDb2dVertex
 10
253.061529
 20
171.435915
 30
0.0
  0
SEQEND
  5
396
100
AcDbEntity
  8
0
390
0
  0
ELLIPSE
  5
397
100
AcDbEntity
  8
0
390
0
  6
Continuous
 62
     7
100
AcDbEllipse
 10
254.321529
 20
170.56705
 30
0.0
 11
-0.7499999999999729
 21
0.0
 31
0.0
210
0.0
220
-0.0
230
1.0
 40
0.57735
 41
3.8463739728503721
 42
3.9269908169872165
  0
LINE
  5
398
100
AcDbEntity
  8
0
390
0
  6
DOT
 62
     2
100
AcDbLine
 10
195.605375
 20
106.256158
 30
0.0
 11
195.702063
 21
106.256158
 31
0.0
  0
LINE
  5
399
100
AcDbEntity
  8
0
390
0
  6
DOT
 62
     2
100
AcDbLine
 10
195.077063
 20
102.506158
 30
0.0
 11
195.077063
 21
107.506158
 31
0.0
  0
LINE
  5
39A
100
AcDbEntity
  8
0
390
0
  6
DOT
 62
     2
100
AcDbLine
 10
195.702063
 20
103.756158
 30
0.0
 11
195.605375
 21
103.756158
 31
0.0
  0
LINE
  5
39B
100
AcDbEntity
  8
0
390
0
  6
DOT
 62
     2
100
AcDbLine
 10
179.326969
 20
120.034564
 30
0.0
 11
179.326969
 21
120.131252
 31
0.0
  0
POLYLINE
  5
39C
100
AcDbEntity
  8
0
390
0
  6
DOT
 62
     2
100
AcDb2dPolyline
 66
     1
 10
0.0
 20
0.0
 30
0.0
 40
0.1
 41
0.1
  0
VERTEX
  5
39D
100
AcDbEntity
  8
0
390
0
 62
     2
100
AcDbVertex
100
AcDb2dVertex
 10
166.020345
 20
160.034564
 30
0.0
  0
VERTEX
  5
39E
100
AcDbEntity
  8
0
390
0
 62
     2
100
AcDbVertex
100
AcDb2dVertex
 10
165.940624
 20
160.070915
 30
0.0
  0
VERTEX
  5
39F
100
AcDbEntity
  8
0
390
0
 62
     2
100
AcDbVertex
100
AcDb2dVertex
 10
165.860109
 20
160.099816
 30
0.0
  0
VERTEX
  5
3A0
100
AcDbEntity
  8
0
390
0
 62
     2
100
AcDbVertex
100
AcDb2dVertex
 10
165.779
 20
160.119931
 30
0.0
  0
VERTEX
  5
3A1
100
AcDbEntity
  8
0
390
0
 62
     2
100
AcDbVertex
100
AcDb2dVertex
 10
165.716006
 20
160.128599
 30
0.0
  0
VERTEX
  5
3A2
100
AcDbEntity
  8
0
390
0
 62
     2
100
AcDbVertex
100
AcDb2dVertex
 10
165.652797
 20
160.131031
 30
0.0
  0
VERTEX
  5
3A3
100
AcDbEntity
  8
0
390
0
 62
     2
100
AcDbVertex
100
AcDb2dVertex
 10
165.589603
 20
160.127253
 30
0.0
  0
VERTEX
  5
3A4
100
AcDbEntity
  8
0
390
0
 62
     2
100
AcDbVertex
100
AcDb2dVertex
 10
165.526655
 20
160.11729
 30
0.0
  0
VERTEX
  5
3A5
100
AcDbEntity
  8
0
390
0
 62
     2
100
AcDbVertex
100
AcDb2dVertex
 10
165.469281
 20
160.102943
 30
0.0
  0
VERTEX
  5
3A6
100
AcDbEntity
  8
0
390
0
 62
     2
100
AcDbVertex
100
AcDb2dVertex
 10
165.41223
 20
160.084116
 30
0.0
  0
VERTEX
  5
3A7
100
AcDbEntity
  8
0
390
0
 62
     2
100
AcDbVertex
100
AcDb2dVertex
 10
165.355249
 20
160.061131
 30
0.0
  0
VERTEX
  5
3A8
100
AcDbEntity
  8
0
390
0
 62
     2
100
AcDbVertex
100
AcDb2dVertex
 10
165.298657
 20
160.034564
 30
0.0
  0
SEQEND
  5
3A9
100
AcDbEntity
  8
0
390
0
  0
LINE
  5
3AA
100
AcDbEntity
  8
0
390
0
  6
DOT
 62
     2
100
AcDbLine
 10
166.020345
 20
160.034564
 30
0.0
 11
166.020345
 21
159.506252
 31
0.0
  0
LINE
  5
3AB
100
AcDbEntity
  8
0
390
0
  6
DOT
 62
     2
100
AcDbLine
 10
166.020345
 20
159.506252
 30
0.0
 11
166.020345
 21
157.131252
 31
0.0
  0
LINE
  5
3AC
100
AcDbEntity
  8
0
390
0
  6
DOT
 62
     2
100
AcDbLine
 10
73.714735
 20
121.006158
 30
0.0
 11
73.712098
 21
121.005746
 31
0.0
  0
ARC
  5
3AD
100
AcDbEntity
  8
0
390
0
  6
Continuous
 62
     2
100
AcDbCircle
 10
71.212746
 20
136.787417
 30
0.0
 40
15.977739
210
0.0
220
0.0
230
1.0
100
AcDbArc
 50
261.005328
 51
277.58528
  0
POLYLINE
  5
3AE
100
AcDbEntity
  8
0
390
0
  6
DOT
 62
     2
100
AcDb2dPolyline
 66
     1
 10
0.0
 20
0.0
 30
0.0
 40
0.1
 41
0.1
  0
VERTEX
  5
3AF
100
AcDbEntity
  8
0
390
0
 62
     2
100
AcDbVertex
100
AcDb2dVertex
 10
72.658116
 20
120.034564
 30
0.0
  0
VERTEX
  5
3B0
100
AcDbEntity
  8
0
390
0
 62
     2
100
AcDbVertex
100
AcDb2dVertex
 10
72.578395
 20
120.070915
 30
0.0
  0
VERTEX
  5
3B1
100
AcDbEntity
  8
0
390
0
 62
     2
100
AcDbVertex
100
AcDb2dVertex
 10
72.49788
 20
120.099816
 30
0.0
  0
VERTEX
  5
3B2
100
AcDbEntity
  8
0
390
0
 62
     2
100
AcDbVertex
100
AcDb2dVertex
 10
72.416771
 20
120.119931
 30
0.0
  0
VERTEX
  5
3B3
100
AcDbEntity
  8
0
390
0
 62
     2
100
AcDbVertex
100
AcDb2dVertex
 10
72.353776
 20
120.128599
 30
0.0
  0
VERTEX
  5
3B4
100
AcDbEntity
  8
0
390
0
 62
     2
100
AcDbVertex
100
AcDb2dVertex
 10
72.290567
 20
120.131031
 30
0.0
  0
VERTEX
  5
3B5
100
AcDbEntity
  8
0
390
0
 62
     2
100
AcDbVertex
100
AcDb2dVertex
 10
72.227374
 20
120.127253
 30
0.0
  0
VERTEX
  5
3B6
100
AcDbEntity
  8
0
390
0
 62
     2
100
AcDbVertex
100
AcDb2dVertex
 10
72.164426
 20
120.11729
 30
0.0
  0
VERTEX
  5
3B7
100
AcDbEntity
  8
0
390
0
 62
     2
100
AcDbVertex
100
AcDb2dVertex
 10
72.107052
 20
120.102943
 30
0.0
  0
VERTEX
  5
3B8
100
AcDbEntity
  8
0
390
0
 62
     2
100
AcDbVertex
100
AcDb2dVertex
 10
72.050001
 20
120.084116
 30
0.0
  0
VERTEX
  5
3B9
100
AcDbEntity
  8
0
390
0
 62
     2
100
AcDbVertex
100
AcDb2dVertex
 10
71.99302
 20
120.061131
 30
0.0
  0
VERTEX
  5
3BA
100
AcDbEntity
  8
0
390
0
 62
     2
100
AcDbVertex
100
AcDb2dVertex
 10
71.936428
 20
120.034564
 30
0.0
  0
SEQEND
  5
3BB
100
AcDbEntity
  8
0
390
0
  0
LINE
  5
3BC
100
AcDbEntity
  8
0
390
0
  6
DOT
 62
     2
100
AcDbLine
 10
72.658116
 20
120.034564
 30
0.0
 11
72.658116
 21
119.506252
 31
0.0
  0
LINE
  5
3BD
100
AcDbEntity
  8
0
390
0
  6
DOT
 62
     2
100
AcDbLine
 10
72.658116
 20
119.506252
 30
0.0
 11
72.658116
 21
117.131252
 31
0.0
  0
LINE
  5
3BE
100
AcDbEntity
  8
0
390
0
  6
DOT
 62
     2
100
AcDbLine
 10
76.839646
 20
147.506158
 30
0.0
 11
76.839646
 21
142.506158
 31
0.0
  0
LINE
  5
3BF
100
AcDbEntity
  8
0
390
0
  6
DOT
 62
     2
100
AcDbLine
 10
78.089646
 20
146.256158
 30
0.0
 11
78.089646
 21
143.756158
 31
0.0
  0
LINE
  5
3C0
100
AcDbEntity
  8
0
390
0
  6
DOT
 62
     2
100
AcDbLine
 10
89.71474
 20
155.381252
 30
0.0
 11
84.71474
 21
155.381252
 31
0.0
  0
LINE
  5
3C1
100
AcDbEntity
  8
0
390
0
  6
DOT
 62
     2
100
AcDbLine
 10
88.46474
 20
154.131252
 30
0.0
 11
85.96474
 21
154.131252
 31
0.0
  0
LINE
  5
3C2
100
AcDbEntity
  8
0
390
0
  6
DOT
 62
     2
100
AcDbLine
 10
85.96474
 20
160.034564
 30
0.0
 11
85.96474
 21
160.131252
 31
0.0
  0
LINE
  5
3C3
100
AcDbEntity
  8
0
390
0
  6
DOT
 62
     2
100
AcDbLine
 10
162.076969
 20
159.506252
 30
0.0
 11
162.076969
 21
155.381252
 31
0.0
  0
LINE
  5
3C4
100
AcDbEntity
  8
0
390
0
  6
DOT
 62
     2
100
AcDbLine
 10
163.133593
 20
160.034564
 30
0.0
 11
162.476969
 21
159.706252
 31
0.0
  0
LINE
  5
3C5
100
AcDbEntity
  8
0
390
0
  6
DOT
 62
     2
100
AcDbLine
 10
165.826969
 20
154.131252
 30
0.0
 11
166.676969
 21
154.981252
 31
0.0
  0
LINE
  5
3C6
100
AcDbEntity
  8
0
390
0
  6
DOT
 62
     2
100
AcDbLine
 10
164.576969
 20
154.853796
 30
0.0
 11
163.326969
 21
154.131252
 31
0.0
  0
LINE
  5
3C7
100
AcDbEntity
  8
0
390
0
  6
DOT
 62
     2
100
AcDbLine
 10
73.714745
 20
119.506252
 30
0.0
 11
71.21474
 21
119.506252
 31
0.0
  0
LINE
  5
3C8
100
AcDbEntity
  8
0
390
0
  6
DOT
 62
     2
100
AcDbLine
 10
71.21474
 20
119.506252
 30
0.0
 11
68.714735
 21
119.506252
 31
0.0
  0
LINE
  5
3C9
100
AcDbEntity
  8
0
390
0
  6
Continuous
 62
     2
100
AcDbLine
 10
73.321836
 20
120.949491
 30
0.0
 11
73.714735
 21
121.006158
 31
0.0
  0
LINE
  5
3CA
100
AcDbEntity
  8
0
390
0
  6
DOT
 62
     2
100
AcDbLine
 10
73.71474
 20
119.506252
 30
0.0
 11
71.21474
 21
119.506252
 31
0.0
  0
LINE
  5
3CB
100
AcDbEntity
  8
0
390
0
  6
DOT
 62
     2
100
AcDbLine
 10
71.21474
 20
119.506252
 30
0.0
 11
68.71474
 21
119.506252
 31
0.0
  0
LINE
  5
3CC
100
AcDbEntity
  8
0
390
0
  6
DOT
 62
     2
100
AcDbLine
 10
69.771364
 20
120.034564
 30
0.0
 11
69.842409
 21
120.067334
 31
0.0
  0
LINE
  5
3CD
100
AcDbEntity
  8
0
390
0
  6
DOT
 62
     2
100
AcDbLine
 10
69.771364
 20
120.034564
 30
0.0
 11
69.771364
 21
119.506252
 31
0.0
  0
LINE
  5
3CE
100
AcDbEntity
  8
0
390
0
  6
DOT
 62
     2
100
AcDbLine
 10
69.771364
 20
119.506252
 30
0.0
 11
69.771364
 21
117.131252
 31
0.0
  0
LINE
  5
3CF
100
AcDbEntity
  8
0
390
0
  6
DOT
 62
     2
100
AcDbLine
 10
72.089646
 20
146.256158
 30
0.0
 11
72.186334
 21
146.256158
 31
0.0
  0
LINE
  5
3D0
100
AcDbEntity
  8
0
390
0
  6
DOT
 62
     2
100
AcDbLine
 10
72.186334
 20
143.756158
 30
0.0
 11
72.089646
 21
143.756158
 31
0.0
  0
LINE
  5
3D1
100
AcDbEntity
  8
0
390
0
  6
DOT
 62
     2
100
AcDbLine
 10
88.46474
 20
160.131252
 30
0.0
 11
88.46474
 21
160.034564
 31
0.0
  0
LINE
  5
3D2
100
AcDbEntity
  8
0
390
0
  6
Continuous
 62
     7
100
AcDbLine
 10
69.11474
 20
121.006158
 30
0.0
 11
69.118205
 21
121.005704
 31
0.0
  0
ARC
  5
3D3
100
AcDbEntity
  8
0
390
0
  6
Continuous
 62
     7
100
AcDbCircle
 10
71.21474
 20
136.868541
 30
0.0
 40
16.000787
210
0.0
220
0.0
230
1.0
100
AcDbArc
 50
262.458542
 51
277.541458
  0
LINE
  5
3D4
100
AcDbEntity
  8
0
390
0
  6
Continuous
 62
     2
100
AcDbLine
 10
71.411102
 20
142.506163
 30
0.0
 11
71.411259
 21
142.506163
 31
0.0
  0
LINE
  5
3D5
100
AcDbEntity
  8
0
390
0
  6
DOT
 62
     2
100
AcDbLine
 10
80.082284
 20
147.325226
 30
0.0
 11
80.14367
 21
147.506153
 31
0.0
  0
LINE
  5
3D6
100
AcDbEntity
  8
0
390
0
  6
DOT
 62
     2
100
AcDbLine
 10
80.14367
 20
142.506163
 30
0.0
 11
80.082303
 21
142.687032
 31
0.0
  0
LINE
  5
3D7
100
AcDbEntity
  8
0
390
0
  6
DOT
 62
     2
100
AcDbLine
 10
77.239646
 20
147.106158
 30
0.0
 11
76.839646
 21
147.506158
 31
0.0
  0
LINE
  5
3D8
100
AcDbEntity
  8
0
390
0
  6
DOT
 62
     2
100
AcDbLine
 10
78.089646
 20
146.256158
 30
0.0
 11
77.239646
 21
147.106158
 31
0.0
  0
LINE
  5
3D9
100
AcDbEntity
  8
0
390
0
  6
DOT
 62
     2
100
AcDbLine
 10
77.239646
 20
142.906158
 30
0.0
 11
78.089646
 21
143.756158
 31
0.0
  0
LINE
  5
3DA
100
AcDbEntity
  8
0
390
0
  6
DOT
 62
     2
100
AcDbLine
 10
76.839646
 20
142.506158
 30
0.0
 11
77.239646
 21
142.906158
 31
0.0
  0
LINE
  5
3DB
100
AcDbEntity
  8
0
390
0
  6
DOT
 62
     2
100
AcDbLine
 10
72.089646
 20
143.756158
 30
0.0
 11
72.514646
 21
142.906158
 31
0.0
  0
LINE
  5
3DC
100
AcDbEntity
  8
0
390
0
  6
DOT
 62
     2
100
AcDbLine
 10
77.367102
 20
145.006158
 30
0.0
 11
78.089646
 21
143.756158
 31
0.0
  0
LINE
  5
3DD
100
AcDbEntity
  8
0
390
0
  6
DOT
 62
     2
100
AcDbLine
 10
78.089646
 20
146.256158
 30
0.0
 11
77.367102
 21
145.006158
 31
0.0
  0
LINE
  5
3DE
100
AcDbEntity
  8
0
390
0
  6
DOT
 62
     2
100
AcDbLine
 10
71.353151
 20
142.906158
 30
0.0
 11
72.514646
 21
142.906158
 31
0.0
  0
LINE
  5
3DF
100
AcDbEntity
  8
0
390
0
  6
DOT
 62
     2
100
AcDbLine
 10
72.514646
 20
142.906158
 30
0.0
 11
72.714626
 21
142.906158
 31
0.0
  0
LINE
  5
3E0
100
AcDbEntity
  8
0
390
0
  6
Continuous
 62
     7
100
AcDbLine
 10
76.51474
 20
87.506158
 30
0.0
 11
97.91474
 21
87.506158
 31
0.0
  0
LINE
  5
3E1
100
AcDbEntity
  8
0
390
0
  6
Continuous
 62
     7
100
AcDbLine
 10
97.91474
 20
122.506158
 30
0.0
 11
76.51474
 21
122.506158
 31
0.0
  0
LINE
  5
3E2
100
AcDbEntity
  8
0
390
0
  6
Continuous
 62
     7
100
AcDbLine
 10
68.714745
 20
121.006158
 30
0.0
 11
66.21474
 21
121.006158
 31
0.0
  0
LINE
  5
3E3
100
AcDbEntity
  8
0
390
0
  6
Continuous
 62
     7
100
AcDbLine
 10
66.21474
 20
89.006158
 30
0.0
 11
76.21474
 21
89.006158
 31
0.0
  0
LINE
  5
3E4
100
AcDbEntity
  8
0
390
0
  6
DOT
 62
     2
100
AcDbLine
 10
76.51474
 20
91.506158
 30
0.0
 11
97.91474
 21
91.506158
 31
0.0
  0
LINE
  5
3E5
100
AcDbEntity
  8
0
390
0
  6
DOT
 62
     2
100
AcDbLine
 10
97.91474
 20
118.506158
 30
0.0
 11
76.51474
 21
118.506158
 31
0.0
  0
LINE
  5
3E6
100
AcDbEntity
  8
0
390
0
  6
DOT
 62
     2
100
AcDbLine
 10
98.21474
 20
113.006158
 30
0.0
 11
97.71474
 21
112.506158
 31
0.0
  0
LINE
  5
3E7
100
AcDbEntity
  8
0
390
0
  6
DOT
 62
     2
100
AcDbLine
 10
97.71474
 20
97.506158
 30
0.0
 11
98.21474
 21
97.006158
 31
0.0
  0
LINE
  5
3E8
100
AcDbEntity
  8
0
390
0
  6
DOT
 62
     2
100
AcDbLine
 10
66.21474
 20
97.006158
 30
0.0
 11
66.71474
 21
97.506158
 31
0.0
  0
LINE
  5
3E9
100
AcDbEntity
  8
0
390
0
  6
DOT
 62
     2
100
AcDbLine
 10
66.71474
 20
112.506158
 30
0.0
 11
66.21474
 21
113.006158
 31
0.0
  0
LINE
  5
3EA
100
AcDbEntity
  8
0
390
0
  6
DOT
 62
     2
100
AcDbLine
 10
68.714745
 20
112.506158
 30
0.0
 11
66.71474
 21
112.506158
 31
0.0
  0
LINE
  5
3EB
100
AcDbEntity
  8
0
390
0
  6
DOT
 62
     2
100
AcDbLine
 10
66.71474
 20
97.506158
 30
0.0
 11
97.71474
 21
97.506158
 31
0.0
  0
LINE
  5
3EC
100
AcDbEntity
  8
0
390
0
  6
DOT
 62
     2
100
AcDbLine
 10
190.952063
 20
102.506158
 30
0.0
 11
190.952063
 21
107.506158
 31
0.0
  0
LINE
  5
3ED
100
AcDbEntity
  8
0
390
0
  6
DOT
 62
     2
100
AcDbLine
 10
189.702063
 20
103.756158
 30
0.0
 11
189.702063
 21
106.256158
 31
0.0
  0
LINE
  5
3EE
100
AcDbEntity
  8
0
390
0
  6
DOT
 62
     2
100
AcDbLine
 10
181.826969
 20
120.131252
 30
0.0
 11
181.826969
 21
120.034564
 31
0.0
  0
LINE
  5
3EF
100
AcDbEntity
  8
0
390
0
  6
DOT
 62
     2
100
AcDbLine
 10
183.076969
 20
115.381252
 30
0.0
 11
178.076969
 21
115.381252
 31
0.0
  0
LINE
  5
3F0
100
AcDbEntity
  8
0
390
0
  6
DOT
 62
     2
100
AcDbLine
 10
183.076969
 20
119.506252
 30
0.0
 11
178.076969
 21
119.506252
 31
0.0
  0
LINE
  5
3F1
100
AcDbEntity
  8
0
390
0
  6
DOT
 62
     2
100
AcDbLine
 10
181.826969
 20
114.131252
 30
0.0
 11
179.326969
 21
114.131252
 31
0.0
  0
LINE
  5
3F2
100
AcDbEntity
  8
0
390
0
  6
DOT
 62
     2
100
AcDbLine
 10
163.133593
 20
160.034564
 30
0.0
 11
163.133593
 21
159.506252
 31
0.0
  0
LINE
  5
3F3
100
AcDbEntity
  8
0
390
0
  6
DOT
 62
     2
100
AcDbLine
 10
163.133593
 20
159.506252
 30
0.0
 11
163.133593
 21
157.131252
 31
0.0
  0
LINE
  5
3F4
100
AcDbEntity
  8
0
390
0
  6
Continuous
 62
     7
100
AcDbLine
 10
162.476969
 20
161.006158
 30
0.0
 11
162.48003
 21
161.005757
 31
0.0
  0
ARC
  5
3F5
100
AcDbEntity
  8
0
390
0
  6
Continuous
 62
     7
100
AcDbCircle
 10
164.576969
 20
176.868129
 30
0.0
 40
16.000379
210
0.0
220
0.0
230
1.0
100
AcDbArc
 50
262.458349
 51
277.541651
  0
LINE
  5
3F6
100
AcDbEntity
  8
0
390
0
  6
DOT
 62
     2
100
AcDbLine
 10
193.912635
 20
102.906158
 30
0.0
 11
195.077063
 21
102.906158
 31
0.0
  0
LINE
  5
3F7
100
AcDbEntity
  8
0
390
0
  6
DOT
 62
     2
100
AcDbLine
 10
195.077063
 20
107.106158
 30
0.0
 11
193.912635
 21
107.106158
 31
0.0
  0
LINE
  5
3F8
100
AcDbEntity
  8
0
390
0
  6
DOT
 62
     2
100
AcDbLine
 10
196.380626
 20
107.506153
 30
0.0
 11
196.38045
 21
107.506153
 31
0.0
  0
LINE
  5
3F9
100
AcDbEntity
  8
0
390
0
  6
DOT
 62
     2
100
AcDbLine
 10
187.709678
 20
102.687869
 30
0.0
 11
187.648039
 21
102.506163
 31
0.0
  0
LINE
  5
3FA
100
AcDbEntity
  8
0
390
0
  6
DOT
 62
     2
100
AcDbLine
 10
187.648039
 20
107.506153
 30
0.0
 11
187.820726
 21
106.94986
 31
0.0
  0
LINE
  5
3FB
100
AcDbEntity
  8
0
390
0
  6
DOT
 62
     2
100
AcDbLine
 10
195.077083
 20
102.506163
 30
0.0
 11
196.38045
 21
102.506163
 31
0.0
  0
LINE
  5
3FC
100
AcDbEntity
  8
0
390
0
  6
DOT
 62
     2
100
AcDbLine
 10
183.076964
 20
118.272658
 30
0.0
 11
183.076964
 21
119.506255
 31
0.0
  0
LINE
  5
3FD
100
AcDbEntity
  8
0
390
0
  6
DOT
 62
     2
100
AcDbLine
 10
195.277063
 20
102.906158
 30
0.0
 11
195.702063
 21
103.756158
 31
0.0
  0
LINE
  5
3FE
100
AcDbEntity
  8
0
390
0
  6
DOT
 62
     2
100
AcDbLine
 10
195.702063
 20
106.256158
 30
0.0
 11
195.277063
 21
107.106158
 31
0.0
  0
LINE
  5
3FF
100
AcDbEntity
  8
0
390
0
  6
DOT
 62
     2
100
AcDbLine
 10
190.952063
 20
107.506158
 30
0.0
 11
190.552063
 21
107.106158
 31
0.0
  0
LINE
  5
400
100
AcDbEntity
  8
0
390
0
  6
DOT
 62
     2
100
AcDbLine
 10
190.552063
 20
107.106158
 30
0.0
 11
189.702063
 21
106.256158
 31
0.0
  0
LINE
  5
401
100
AcDbEntity
  8
0
390
0
  6
DOT
 62
     2
100
AcDbLine
 10
189.702063
 20
103.756158
 30
0.0
 11
190.552063
 21
102.906158
 31
0.0
  0
LINE
  5
402
100
AcDbEntity
  8
0
390
0
  6
DOT
 62
     2
100
AcDbLine
 10
190.552063
 20
102.906158
 30
0.0
 11
190.952063
 21
102.506158
 31
0.0
  0
LINE
  5
403
100
AcDbEntity
  8
0
390
0
  6
DOT
 62
     2
100
AcDbLine
 10
189.702063
 20
103.756158
 30
0.0
 11
190.424607
 21
105.006158
 31
0.0
  0
LINE
  5
404
100
AcDbEntity
  8
0
390
0
  6
DOT
 62
     2
100
AcDbLine
 10
190.424607
 20
105.006158
 30
0.0
 11
189.702063
 21
106.256158
 31
0.0
  0
LINE
  5
405
100
AcDbEntity
  8
0
390
0
  6
Continuous
 62
     7
100
AcDbLine
 10
169.876969
 20
127.506158
 30
0.0
 11
191.276969
 21
127.506158
 31
0.0
  0
LINE
  5
406
100
AcDbEntity
  8
0
390
0
  6
Continuous
 62
     7
100
AcDbLine
 10
191.276969
 20
162.506158
 30
0.0
 11
169.876969
 21
162.506158
 31
0.0
  0
LINE
  5
407
100
AcDbEntity
  8
0
390
0
  6
Continuous
 62
     7
100
AcDbLine
 10
162.477081
 20
161.006158
 30
0.0
 11
162.476969
 21
161.006158
 31
0.0
  0
LINE
  5
408
100
AcDbEntity
  8
0
390
0
  6
DOT
 62
     2
100
AcDbLine
 10
162.476969
 20
161.006158
 30
0.0
 11
162.078011
 21
161.006158
 31
0.0
  0
LINE
  5
409
100
AcDbEntity
  8
0
390
0
  6
DOT
 62
     2
100
AcDbLine
 10
162.078011
 20
161.006158
 30
0.0
 11
162.077821
 21
161.006158
 31
0.0
  0
LINE
  5
40A
100
AcDbEntity
  8
0
390
0
  6
DOT
 62
     2
100
AcDbLine
 10
162.077821
 20
161.006158
 30
0.0
 11
162.076974
 21
161.006158
 31
0.0
  0
LINE
  5
40B
100
AcDbEntity
  8
0
390
0
  6
Continuous
 62
     7
100
AcDbLine
 10
162.076974
 20
161.006158
 30
0.0
 11
159.576969
 21
161.006158
 31
0.0
  0
LINE
  5
40C
100
AcDbEntity
  8
0
390
0
  6
Continuous
 62
     7
100
AcDbLine
 10
169.576969
 20
161.006158
 30
0.0
 11
167.076964
 21
161.006158
 31
0.0
  0
LINE
  5
40D
100
AcDbEntity
  8
0
390
0
  6
DOT
 62
     2
100
AcDbLine
 10
167.076964
 20
161.006158
 30
0.0
 11
166.676969
 21
161.006158
 31
0.0
  0
LINE
  5
40E
100
AcDbEntity
  8
0
390
0
  6
Continuous
 62
     7
100
AcDbLine
 10
166.676969
 20
161.006158
 30
0.0
 11
166.676527
 21
161.006158
 31
0.0
  0
LINE
  5
40F
100
AcDbEntity
  8
0
390
0
  6
DOT
 62
     2
100
AcDbLine
 10
169.576969
 20
131.506158
 30
0.0
 11
169.876969
 21
131.506158
 31
0.0
  0
LINE
  5
410
100
AcDbEntity
  8
0
390
0
  6
DOT
 62
     2
100
AcDbLine
 10
169.876969
 20
131.506158
 30
0.0
 11
191.276969
 21
131.506158
 31
0.0
  0
LINE
  5
411
100
AcDbEntity
  8
0
390
0
  6
DOT
 62
     2
100
AcDbLine
 10
159.576969
 20
137.006158
 30
0.0
 11
160.076969
 21
137.506158
 31
0.0
  0
LINE
  5
412
100
AcDbEntity
  8
0
390
0
  6
DOT
 62
     2
100
AcDbLine
 10
160.076969
 20
152.506158
 30
0.0
 11
159.576969
 21
153.006158
 31
0.0
  0
LINE
  5
413
100
AcDbEntity
  8
0
390
0
  6
DOT
 62
     2
100
AcDbLine
 10
191.576969
 20
153.006158
 30
0.0
 11
191.076969
 21
152.506158
 31
0.0
  0
LINE
  5
414
100
AcDbEntity
  8
0
390
0
  6
DOT
 62
     2
100
AcDbLine
 10
191.076969
 20
137.506158
 30
0.0
 11
191.576969
 21
137.006158
 31
0.0
  0
LINE
  5
415
100
AcDbEntity
  8
0
390
0
  6
DOT
 62
     2
100
AcDbLine
 10
162.477284
 20
152.506158
 30
0.0
 11
162.476969
 21
152.506158
 31
0.0
  0
LINE
  5
416
100
AcDbEntity
  8
0
390
0
  6
DOT
 62
     2
100
AcDbLine
 10
162.476969
 20
152.506158
 30
0.0
 11
162.076974
 21
152.506158
 31
0.0
  0
LINE
  5
417
100
AcDbEntity
  8
0
390
0
  6
DOT
 62
     2
100
AcDbLine
 10
162.076974
 20
152.506158
 30
0.0
 11
160.076969
 21
152.506158
 31
0.0
  0
LINE
  5
418
100
AcDbEntity
  8
0
390
0
  6
DOT
 62
     2
100
AcDbLine
 10
191.076969
 20
152.506158
 30
0.0
 11
167.076964
 21
152.506158
 31
0.0
  0
LINE
  5
419
100
AcDbEntity
  8
0
390
0
  6
DOT
 62
     2
100
AcDbLine
 10
167.076964
 20
152.506158
 30
0.0
 11
166.676969
 21
152.506158
 31
0.0
  0
LINE
  5
41A
100
AcDbEntity
  8
0
390
0
  6
DOT
 62
     2
100
AcDbLine
 10
166.676969
 20
152.506158
 30
0.0
 11
166.676589
 21
152.506158
 31
0.0
  0
LINE
  5
41B
100
AcDbEntity
  8
0
390
0
  6
DOT
 62
     2
100
AcDbLine
 10
160.076969
 20
137.506158
 30
0.0
 11
191.076969
 21
137.506158
 31
0.0
  0
LINE
  5
41C
100
AcDbEntity
  8
0
390
0
  6
DOT
 62
     2
100
AcDbLine
 10
190.552043
 20
107.106158
 30
0.0
 11
187.777099
 21
107.106158
 31
0.0
  0
LINE
  5
41D
100
AcDbEntity
  8
0
390
0
  6
DOT
 62
     2
100
AcDbLine
 10
187.776969
 20
102.906158
 30
0.0
 11
190.552043
 21
102.906158
 31
0.0
  0
LINE
  5
41E
100
AcDbEntity
  8
0
390
0
  6
DOT
 62
     2
100
AcDbLine
 10
167.076969
 20
159.506252
 30
0.0
 11
166.676969
 21
159.706252
 31
0.0
  0
ELLIPSE
  5
41F
100
AcDbEntity
  8
0
390
0
  6
Continuous
 62
     7
100
AcDbEllipse
 10
265.776659
 20
156.666242
 30
0.0
 11
-2.4000000000000132
 21
-4.1569219381653033
 31
0.0
210
0.0000000000000001
220
-0.0
230
1.0
 40
0.57735
 41
3.9269908169872458
 42
5.4977871437821424
  0
ELLIPSE
  5
420
100
AcDbEntity
  8
0
390
0
  6
Continuous
 62
     7
100
AcDbEllipse
 10
265.776659
 20
156.666242
 30
0.0
 11
-2.4000000000000132
 21
-4.1569219381653033
 31
0.0000000000000002
210
0.0000000000000001
220
-0.0
230
1.0
 40
0.57735
 41
5.4977871437821424
 42
10.210176124166832
  0
ELLIPSE
  5
421
100
AcDbEntity
  8
0
390
0
  6
Continuous
 62
     7
100
AcDbEllipse
 10
265.564527
 20
156.788717
 30
0.0
 11
2.2499999999999742
 21
3.8971143170299651
 31
0.0
210
0.0000000000000001
220
-0.0
230
1.0
 40
0.57735
 41
2.3889957907424293
 42
3.1415926535897687
  0
ELLIPSE
  5
422
100
AcDbEntity
  8
0
390
0
  6
Continuous
 62
     7
100
AcDbEllipse
 10
265.564527
 20
156.788717
 30
0.0
 11
2.2499999999999742
 21
3.8971143170299651
 31
0.0
210
0.0000000000000001
220
-0.0
230
1.0
 40
0.57735
 41
0.0000000000000107
 42
0.7525968628479957
  0
ELLIPSE
  5
423
100
AcDbEntity
  8
0
390
0
  6
Continuous
 62
     7
100
AcDbEllipse
 10
265.564527
 20
156.788717
 30
0.0
 11
2.2499999999999742
 21
3.8971143170299651
 31
0.0
210
0.0000000000000001
220
-0.0
230
1.0
 40
0.57735
 41
3.1415926535897687
 42
6.2831853071795978
  0
LINE
  5
424
100
AcDbEntity
  8
0
390
0
  6
Continuous
 62
     7
100
AcDbLine
 10
270.899379
 20
165.832994
 30
0.0
 11
265.139191
 21
169.15864
 31
0.0
  0
LINE
  5
425
100
AcDbEntity
  8
0
390
0
  6
Continuous
 62
     7
100
AcDbLine
 10
247.400208
 20
156.190766
 30
0.0
 11
249.643511
 21
154.895594
 31
0.0
  0
LINE
  5
426
100
AcDbEntity
  8
0
390
0
  6
DOT
 62
     2
100
AcDbLine
 10
71.411259
 20
142.506163
 30
0.0
 11
71.302664
 21
143.331099
 31
0.0
  0
LINE
  5
427
100
AcDbEntity
  8
0
390
0
  6
DOT
 62
     2
100
AcDbLine
 10
71.302686
 20
146.681427
 30
0.0
 11
71.411259
 21
147.506153
 31
0.0
  0
LINE
  5
428
100
AcDbEntity
  8
0
390
0
  6
DOT
 62
     2
100
AcDbLine
 10
72.46474
 20
114.131252
 30
0.0
 11
71.21474
 21
114.131252
 31
0.0
  0
LINE
  5
429
100
AcDbEntity
  8
0
390
0
  6
DOT
 62
     2
100
AcDbLine
 10
73.71474
 20
115.381252
 30
0.0
 11
71.21474
 21
115.381252
 31
0.0
  0
LINE
  5
42A
100
AcDbEntity
  8
0
390
0
  6
DOT
 62
     2
100
AcDbLine
 10
71.21474
 20
114.131252
 30
0.0
 11
69.96474
 21
114.131252
 31
0.0
  0
LINE
  5
42B
100
AcDbEntity
  8
0
390
0
  6
DOT
 62
     2
100
AcDbLine
 10
71.21474
 20
115.381252
 30
0.0
 11
68.71474
 21
115.381252
 31
0.0
  0
POLYLINE
  5
42C
100
AcDbEntity
  8
0
390
0
  6
DOT
 62
     2
100
AcDb2dPolyline
 66
     1
 10
0.0
 20
0.0
 30
0.0
 40
0.1
 41
0.1
  0
VERTEX
  5
42D
100
AcDbEntity
  8
0
390
0
 62
     2
100
AcDbVertex
100
AcDb2dVertex
 10
70.493052
 20
120.034564
 30
0.0
  0
VERTEX
  5
42E
100
AcDbEntity
  8
0
390
0
 62
     2
100
AcDbVertex
100
AcDb2dVertex
 10
70.413331
 20
120.070915
 30
0.0
  0
VERTEX
  5
42F
100
AcDbEntity
  8
0
390
0
 62
     2
100
AcDbVertex
100
AcDb2dVertex
 10
70.332816
 20
120.099816
 30
0.0
  0
VERTEX
  5
430
100
AcDbEntity
  8
0
390
0
 62
     2
100
AcDbVertex
100
AcDb2dVertex
 10
70.251708
 20
120.119931
 30
0.0
  0
VERTEX
  5
431
100
AcDbEntity
  8
0
390
0
 62
     2
100
AcDbVertex
100
AcDb2dVertex
 10
70.188713
 20
120.128599
 30
0.0
  0
VERTEX
  5
432
100
AcDbEntity
  8
0
390
0
 62
     2
100
AcDbVertex
100
AcDb2dVertex
 10
70.125504
 20
120.131031
 30
0.0
  0
VERTEX
  5
433
100
AcDbEntity
  8
0
390
0
 62
     2
100
AcDbVertex
100
AcDb2dVertex
 10
70.06231
 20
120.127253
 30
0.0
  0
VERTEX
  5
434
100
AcDbEntity
  8
0
390
0
 62
     2
100
AcDbVertex
100
AcDb2dVertex
 10
69.999362
 20
120.11729
 30
0.0
  0
VERTEX
  5
435
100
AcDbEntity
  8
0
390
0
 62
     2
100
AcDbVertex
100
AcDb2dVertex
 10
69.941989
 20
120.102943
 30
0.0
  0
VERTEX
  5
436
100
AcDbEntity
  8
0
390
0
 62
     2
100
AcDbVertex
100
AcDb2dVertex
 10
69.884938
 20
120.084116
 30
0.0
  0
VERTEX
  5
437
100
AcDbEntity
  8
0
390
0
 62
     2
100
AcDbVertex
100
AcDb2dVertex
 10
69.827957
 20
120.061131
 30
0.0
  0
VERTEX
  5
438
100
AcDbEntity
  8
0
390
0
 62
     2
100
AcDbVertex
100
AcDb2dVertex
 10
69.771364
 20
120.034564
 30
0.0
  0
SEQEND
  5
439
100
AcDbEntity
  8
0
390
0
  0
ARC
  5
43A
100
AcDbEntity
  8
0
390
0
  6
DOT
 62
     2
100
AcDbCircle
 10
71.21474
 20
117.383455
 30
0.0
 40
2.747584
210
0.0
220
0.0
230
1.0
100
AcDbArc
 50
74.771882
 51
105.228118
  0
LINE
  5
43B
100
AcDbEntity
  8
0
390
0
  6
DOT
 62
     2
100
AcDbLine
 10
70.493052
 20
117.131252
 30
0.0
 11
71.936428
 21
117.131252
 31
0.0
  0
LINE
  5
43C
100
AcDbEntity
  8
0
390
0
  6
DOT
 62
     2
100
AcDbLine
 10
70.493052
 20
120.034564
 30
0.0
 11
70.493052
 21
119.506252
 31
0.0
  0
LINE
  5
43D
100
AcDbEntity
  8
0
390
0
  6
DOT
 62
     2
100
AcDbLine
 10
70.493052
 20
119.506252
 30
0.0
 11
70.493052
 21
117.131252
 31
0.0
  0
LINE
  5
43E
100
AcDbEntity
  8
0
390
0
  6
DOT
 62
     2
100
AcDbLine
 10
69.771364
 20
117.131252
 30
0.0
 11
70.493052
 21
117.131252
 31
0.0
  0
LINE
  5
43F
100
AcDbEntity
  8
0
390
0
  6
DOT
 62
     2
100
AcDbLine
 10
71.936428
 20
120.034564
 30
0.0
 11
71.936428
 21
119.506252
 31
0.0
  0
LINE
  5
440
100
AcDbEntity
  8
0
390
0
  6
DOT
 62
     2
100
AcDbLine
 10
71.936428
 20
119.506252
 30
0.0
 11
71.936428
 21
117.131252
 31
0.0
  0
LINE
  5
441
100
AcDbEntity
  8
0
390
0
  6
DOT
 62
     2
100
AcDbLine
 10
71.936428
 20
117.131252
 30
0.0
 11
72.658116
 21
117.131252
 31
0.0
  0
LINE
  5
442
100
AcDbEntity
  8
0
390
0
  6
DOT
 62
     2
100
AcDbLine
 10
72.714646
 20
147.506158
 30
0.0
 11
72.714646
 21
142.506158
 31
0.0
  0
ARC
  5
443
100
AcDbEntity
  8
0
390
0
  6
DOT
 62
     2
100
AcDbCircle
 10
74.162063
 20
144.381158
 30
0.0
 40
2.072229
210
0.0
220
0.0
230
1.0
100
AcDbArc
 50
162.445814
 51
197.554186
  0
ARC
  5
444
100
AcDbEntity
  8
0
390
0
  6
DOT
 62
     2
100
AcDbCircle
 10
74.162063
 20
145.631158
 30
0.0
 40
2.072229
210
0.0
220
0.0
230
1.0
100
AcDbArc
 50
162.445814
 51
197.554186
  0
LINE
  5
445
100
AcDbEntity
  8
0
390
0
  6
DOT
 62
     2
100
AcDbLine
 10
75.089646
 20
145.006158
 30
0.0
 11
75.089646
 21
146.256158
 31
0.0
  0
LINE
  5
446
100
AcDbEntity
  8
0
390
0
  6
DOT
 62
     2
100
AcDbLine
 10
75.089646
 20
143.756158
 30
0.0
 11
75.089646
 21
145.006158
 31
0.0
  0
LINE
  5
447
100
AcDbEntity
  8
0
390
0
  6
DOT
 62
     2
100
AcDbLine
 10
72.186334
 20
145.006158
 30
0.0
 11
72.714646
 21
145.006158
 31
0.0
  0
LINE
  5
448
100
AcDbEntity
  8
0
390
0
  6
DOT
 62
     2
100
AcDbLine
 10
72.714646
 20
145.006158
 30
0.0
 11
75.089646
 21
145.006158
 31
0.0
  0
LINE
  5
449
100
AcDbEntity
  8
0
390
0
  6
DOT
 62
     2
100
AcDbLine
 10
72.186334
 20
146.256158
 30
0.0
 11
72.714646
 21
146.256158
 31
0.0
  0
LINE
  5
44A
100
AcDbEntity
  8
0
390
0
  6
DOT
 62
     2
100
AcDbLine
 10
72.714646
 20
146.256158
 30
0.0
 11
75.089646
 21
146.256158
 31
0.0
  0
LINE
  5
44B
100
AcDbEntity
  8
0
390
0
  6
DOT
 62
     2
100
AcDbLine
 10
72.186334
 20
143.756158
 30
0.0
 11
72.714646
 21
143.756158
 31
0.0
  0
LINE
  5
44C
100
AcDbEntity
  8
0
390
0
  6
DOT
 62
     2
100
AcDbLine
 10
72.714646
 20
143.756158
 30
0.0
 11
75.089646
 21
143.756158
 31
0.0
  0
LINE
  5
44D
100
AcDbEntity
  8
0
390
0
  6
DOT
 62
     2
100
AcDbLine
 10
89.71474
 20
159.506252
 30
0.0
 11
84.71474
 21
159.506252
 31
0.0
  0
ARC
  5
44E
100
AcDbEntity
  8
0
390
0
  6
DOT
 62
     2
100
AcDbCircle
 10
86.58974
 20
158.058835
 30
0.0
 40
2.072229
210
0.0
220
0.0
230
1.0
100
AcDbArc
 50
72.445814
 51
107.554186
  0
ARC
  5
44F
100
AcDbEntity
  8
0
390
0
  6
DOT
 62
     2
100
AcDbCircle
 10
87.83974
 20
158.058835
 30
0.0
 40
2.072229
210
0.0
220
0.0
230
1.0
100
AcDbArc
 50
72.445814
 51
107.554186
  0
LINE
  5
450
100
AcDbEntity
  8
0
390
0
  6
DOT
 62
     2
100
AcDbLine
 10
85.96474
 20
157.131252
 30
0.0
 11
87.21474
 21
157.131252
 31
0.0
  0
LINE
  5
451
100
AcDbEntity
  8
0
390
0
  6
DOT
 62
     2
100
AcDbLine
 10
87.21474
 20
160.034564
 30
0.0
 11
87.21474
 21
159.506252
 31
0.0
  0
LINE
  5
452
100
AcDbEntity
  8
0
390
0
  6
DOT
 62
     2
100
AcDbLine
 10
87.21474
 20
159.506252
 30
0.0
 11
87.21474
 21
157.131252
 31
0.0
  0
LINE
  5
453
100
AcDbEntity
  8
0
390
0
  6
DOT
 62
     2
100
AcDbLine
 10
87.21474
 20
157.131252
 30
0.0
 11
88.46474
 21
157.131252
 31
0.0
  0
LINE
  5
454
100
AcDbEntity
  8
0
390
0
  6
DOT
 62
     2
100
AcDbLine
 10
85.96474
 20
160.034564
 30
0.0
 11
85.96474
 21
159.506252
 31
0.0
  0
LINE
  5
455
100
AcDbEntity
  8
0
390
0
  6
DOT
 62
     2
100
AcDbLine
 10
85.96474
 20
159.506252
 30
0.0
 11
85.96474
 21
157.131252
 31
0.0
  0
LINE
  5
456
100
AcDbEntity
  8
0
390
0
  6
DOT
 62
     2
100
AcDbLine
 10
88.46474
 20
160.034564
 30
0.0
 11
88.46474
 21
159.506252
 31
0.0
  0
LINE
  5
457
100
AcDbEntity
  8
0
390
0
  6
DOT
 62
     2
100
AcDbLine
 10
88.46474
 20
159.506252
 30
0.0
 11
88.46474
 21
157.131252
 31
0.0
  0
CIRCLE
  5
458
100
AcDbEntity
  8
0
390
0
  6
Continuous
 62
     7
100
AcDbCircle
 10
87.21474
 20
145.006158
 30
0.0
 40
8.0
210
0.0
220
0.0
230
1.0
  0
CIRCLE
  5
459
100
AcDbEntity
  8
0
390
0
  6
Continuous
 62
     7
100
AcDbCircle
 10
87.21474
 20
145.006158
 30
0.0
 40
7.5
210
0.0
220
0.0
230
1.0
  0
LINE
  5
45A
100
AcDbEntity
  8
0
390
0
  6
Continuous
 62
     7
100
AcDbLine
 10
69.114852
 20
121.006158
 30
0.0
 11
69.11474
 21
121.006158
 31
0.0
  0
LINE
  5
45B
100
AcDbEntity
  8
0
390
0
  6
DOT
 62
     2
100
AcDbLine
 10
69.11474
 20
121.006158
 30
0.0
 11
68.715431
 21
121.006158
 31
0.0
  0
LINE
  5
45C
100
AcDbEntity
  8
0
390
0
  6
DOT
 62
     2
100
AcDbLine
 10
68.715431
 20
121.006158
 30
0.0
 11
68.71524
 21
121.006158
 31
0.0
  0
LINE
  5
45D
100
AcDbEntity
  8
0
390
0
  6
DOT
 62
     2
100
AcDbLine
 10
68.71524
 20
121.006158
 30
0.0
 11
68.714745
 21
121.006158
 31
0.0
  0
LINE
  5
45E
100
AcDbEntity
  8
0
390
0
  6
Continuous
 62
     7
100
AcDbLine
 10
76.21474
 20
121.006158
 30
0.0
 11
73.714735
 21
121.006158
 31
0.0
  0
LINE
  5
45F
100
AcDbEntity
  8
0
390
0
  6
DOT
 62
     2
100
AcDbLine
 10
73.714735
 20
121.006158
 30
0.0
 11
73.714515
 21
121.006158
 31
0.0
  0
LINE
  5
460
100
AcDbEntity
  8
0
390
0
  6
DOT
 62
     2
100
AcDbLine
 10
73.714515
 20
121.006158
 30
0.0
 11
73.713877
 21
121.006158
 31
0.0
  0
LINE
  5
461
100
AcDbEntity
  8
0
390
0
  6
DOT
 62
     2
100
AcDbLine
 10
73.713877
 20
121.006158
 30
0.0
 11
73.31474
 21
121.006158
 31
0.0
  0
LINE
  5
462
100
AcDbEntity
  8
0
390
0
  6
DOT
 62
     2
100
AcDbLine
 10
69.11474
 20
112.506158
 30
0.0
 11
68.714745
 21
112.506158
 31
0.0
  0
LINE
  5
463
100
AcDbEntity
  8
0
390
0
  6
DOT
 62
     2
100
AcDbLine
 10
97.71474
 20
112.506158
 30
0.0
 11
73.714735
 21
112.506158
 31
0.0
  0
LINE
  5
464
100
AcDbEntity
  8
0
390
0
  6
DOT
 62
     2
100
AcDbLine
 10
73.714735
 20
112.506158
 30
0.0
 11
73.31474
 21
112.506158
 31
0.0
  0
LINE
  5
465
100
AcDbEntity
  8
0
390
0
  6
DOT
 62
     2
100
AcDbLine
 10
69.115054
 20
112.506158
 30
0.0
 11
69.11474
 21
112.506158
 31
0.0
  0
LINE
  5
466
100
AcDbEntity
  8
0
390
0
  6
DOT
 62
     2
100
AcDbLine
 10
167.076974
 20
159.506252
 30
0.0
 11
164.576969
 21
159.506252
 31
0.0
  0
LINE
  5
467
100
AcDbEntity
  8
0
390
0
  6
DOT
 62
     2
100
AcDbLine
 10
164.576969
 20
159.506252
 30
0.0
 11
162.076964
 21
159.506252
 31
0.0
  0
ARC
  5
468
100
AcDbEntity
  8
0
390
0
  6
DOT
 62
     2
100
AcDbCircle
 10
164.576969
 20
159.579447
 30
0.0
 40
7.502093
210
0.0
220
0.0
230
1.0
100
AcDbArc
 50
250.53447
 51
289.46553
  0
LINE
  5
469
100
AcDbEntity
  8
0
390
0
  6
DOT
 62
     2
100
AcDbLine
 10
178.076974
 20
120.809639
 30
0.0
 11
178.904182
 21
120.918474
 31
0.0
  0
LINE
  5
46A
100
AcDbEntity
  8
0
390
0
  6
DOT
 62
     2
100
AcDbLine
 10
182.252631
 20
120.918171
 30
0.0
 11
183.076964
 21
120.809639
 31
0.0
  0
ARC
  5
46B
100
AcDbEntity
  8
0
390
0
  6
DOT
 62
     2
100
AcDbCircle
 10
193.629646
 20
105.631158
 30
0.0
 40
2.072229
210
0.0
220
0.0
230
1.0
100
AcDbArc
 50
342.445814
 51
17.554186
  0
ARC
  5
46C
100
AcDbEntity
  8
0
390
0
  6
DOT
 62
     2
100
AcDbCircle
 10
193.629646
 20
104.381158
 30
0.0
 40
2.072229
210
0.0
220
0.0
230
1.0
100
AcDbArc
 50
342.445814
 51
17.554186
  0
LINE
  5
46D
100
AcDbEntity
  8
0
390
0
  6
DOT
 62
     2
100
AcDbLine
 10
195.605375
 20
105.006158
 30
0.0
 11
195.077063
 21
105.006158
 31
0.0
  0
LINE
  5
46E
100
AcDbEntity
  8
0
390
0
  6
DOT
 62
     2
100
AcDbLine
 10
195.077063
 20
105.006158
 30
0.0
 11
192.702063
 21
105.006158
 31
0.0
  0
LINE
  5
46F
100
AcDbEntity
  8
0
390
0
  6
DOT
 62
     2
100
AcDbLine
 10
192.702063
 20
105.006158
 30
0.0
 11
192.702063
 21
103.756158
 31
0.0
  0
LINE
  5
470
100
AcDbEntity
  8
0
390
0
  6
DOT
 62
     2
100
AcDbLine
 10
192.702063
 20
106.256158
 30
0.0
 11
192.702063
 21
105.006158
 31
0.0
  0
LINE
  5
471
100
AcDbEntity
  8
0
390
0
  6
DOT
 62
     2
100
AcDbLine
 10
195.605375
 20
103.756158
 30
0.0
 11
195.077063
 21
103.756158
 31
0.0
  0
LINE
  5
472
100
AcDbEntity
  8
0
390
0
  6
DOT
 62
     2
100
AcDbLine
 10
195.077063
 20
103.756158
 30
0.0
 11
192.702063
 21
103.756158
 31
0.0
  0
LINE
  5
473
100
AcDbEntity
  8
0
390
0
  6
DOT
 62
     2
100
AcDbLine
 10
195.605375
 20
106.256158
 30
0.0
 11
195.077063
 21
106.256158
 31
0.0
  0
LINE
  5
474
100
AcDbEntity
  8
0
390
0
  6
DOT
 62
     2
100
AcDbLine
 10
195.077063
 20
106.256158
 30
0.0
 11
192.702063
 21
106.256158
 31
0.0
  0
ARC
  5
475
100
AcDbEntity
  8
0
390
0
  6
DOT
 62
     2
100
AcDbCircle
 10
179.951969
 20
118.058835
 30
0.0
 40
2.072229
210
0.0
220
0.0
230
1.0
100
AcDbArc
 50
72.445814
 51
107.554186
  0
ARC
  5
476
100
AcDbEntity
  8
0
390
0
  6
DOT
 62
     2
100
AcDbCircle
 10
181.201969
 20
118.058835
 30
0.0
 40
2.072229
210
0.0
220
0.0
230
1.0
100
AcDbArc
 50
72.445814
 51
107.554186
  0
LINE
  5
477
100
AcDbEntity
  8
0
390
0
  6
DOT
 62
     2
100
AcDbLine
 10
180.576969
 20
120.034564
 30
0.0
 11
180.576969
 21
119.506252
 31
0.0
  0
LINE
  5
478
100
AcDbEntity
  8
0
390
0
  6
DOT
 62
     2
100
AcDbLine
 10
180.576969
 20
119.506252
 30
0.0
 11
180.576969
 21
117.131252
 31
0.0
  0
LINE
  5
479
100
AcDbEntity
  8
0
390
0
  6
DOT
 62
     2
100
AcDbLine
 10
180.576969
 20
117.131252
 30
0.0
 11
181.826969
 21
117.131252
 31
0.0
  0
LINE
  5
47A
100
AcDbEntity
  8
0
390
0
  6
DOT
 62
     2
100
AcDbLine
 10
179.326969
 20
117.131252
 30
0.0
 11
180.576969
 21
117.131252
 31
0.0
  0
LINE
  5
47B
100
AcDbEntity
  8
0
390
0
  6
DOT
 62
     2
100
AcDbLine
 10
179.326969
 20
120.034564
 30
0.0
 11
179.326969
 21
119.506252
 31
0.0
  0
LINE
  5
47C
100
AcDbEntity
  8
0
390
0
  6
DOT
 62
     2
100
AcDbLine
 10
179.326969
 20
119.506252
 30
0.0
 11
179.326969
 21
117.131252
 31
0.0
  0
LINE
  5
47D
100
AcDbEntity
  8
0
390
0
  6
DOT
 62
     2
100
AcDbLine
 10
181.826969
 20
120.034564
 30
0.0
 11
181.826969
 21
119.506252
 31
0.0
  0
LINE
  5
47E
100
AcDbEntity
  8
0
390
0
  6
DOT
 62
     2
100
AcDbLine
 10
181.826969
 20
119.506252
 30
0.0
 11
181.826969
 21
117.131252
 31
0.0
  0
LINE
  5
47F
100
AcDbEntity
  8
0
390
0
  6
DOT
 62
     2
100
AcDbLine
 10
165.826969
 20
154.131252
 30
0.0
 11
164.576969
 21
154.131252
 31
0.0
  0
LINE
  5
480
100
AcDbEntity
  8
0
390
0
  6
DOT
 62
     2
100
AcDbLine
 10
167.076969
 20
155.381252
 30
0.0
 11
164.576969
 21
155.381252
 31
0.0
  0
LINE
  5
481
100
AcDbEntity
  8
0
390
0
  6
DOT
 62
     2
100
AcDbLine
 10
164.576969
 20
154.131252
 30
0.0
 11
163.326969
 21
154.131252
 31
0.0
  0
LINE
  5
482
100
AcDbEntity
  8
0
390
0
  6
DOT
 62
     2
100
AcDbLine
 10
164.576969
 20
155.381252
 30
0.0
 11
162.076969
 21
155.381252
 31
0.0
  0
LINE
  5
483
100
AcDbEntity
  8
0
390
0
  6
DOT
 62
     2
100
AcDbLine
 10
167.076969
 20
159.506252
 30
0.0
 11
164.576969
 21
159.506252
 31
0.0
  0
POLYLINE
  5
484
100
AcDbEntity
  8
0
390
0
  6
DOT
 62
     2
100
AcDb2dPolyline
 66
     1
 10
0.0
 20
0.0
 30
0.0
 40
0.1
 41
0.1
  0
VERTEX
  5
485
100
AcDbEntity
  8
0
390
0
 62
     2
100
AcDbVertex
100
AcDb2dVertex
 10
163.855281
 20
160.034564
 30
0.0
  0
VERTEX
  5
486
100
AcDbEntity
  8
0
390
0
 62
     2
100
AcDbVertex
100
AcDb2dVertex
 10
163.77556
 20
160.070915
 30
0.0
  0
VERTEX
  5
487
100
AcDbEntity
  8
0
390
0
 62
     2
100
AcDbVertex
100
AcDb2dVertex
 10
163.695045
 20
160.099816
 30
0.0
  0
VERTEX
  5
488
100
AcDbEntity
  8
0
390
0
 62
     2
100
AcDbVertex
100
AcDb2dVertex
 10
163.613937
 20
160.119931
 30
0.0
  0
VERTEX
  5
489
100
AcDbEntity
  8
0
390
0
 62
     2
100
AcDbVertex
100
AcDb2dVertex
 10
163.550942
 20
160.128599
 30
0.0
  0
VERTEX
  5
48A
100
AcDbEntity
  8
0
390
0
 62
     2
100
AcDbVertex
100
AcDb2dVertex
 10
163.487733
 20
160.131031
 30
0.0
  0
VERTEX
  5
48B
100
AcDbEntity
  8
0
390
0
 62
     2
100
AcDbVertex
100
AcDb2dVertex
 10
163.42454
 20
160.127253
 30
0.0
  0
VERTEX
  5
48C
100
AcDbEntity
  8
0
390
0
 62
     2
100
AcDbVertex
100
AcDb2dVertex
 10
163.361591
 20
160.11729
 30
0.0
  0
VERTEX
  5
48D
100
AcDbEntity
  8
0
390
0
 62
     2
100
AcDbVertex
100
AcDb2dVertex
 10
163.304218
 20
160.102943
 30
0.0
  0
VERTEX
  5
48E
100
AcDbEntity
  8
0
390
0
 62
     2
100
AcDbVertex
100
AcDb2dVertex
 10
163.247167
 20
160.084116
 30
0.0
  0
VERTEX
  5
48F
100
AcDbEntity
  8
0
390
0
 62
     2
100
AcDbVertex
100
AcDb2dVertex
 10
163.190186
 20
160.061131
 30
0.0
  0
VERTEX
  5
490
100
AcDbEntity
  8
0
390
0
 62
     2
100
AcDbVertex
100
AcDb2dVertex
 10
163.133593
 20
160.034564
 30
0.0
  0
SEQEND
  5
491
100
AcDbEntity
  8
0
390
0
  0
ARC
  5
492
100
AcDbEntity
  8
0
390
0
  6
DOT
 62
     2
100
AcDbCircle
 10
164.576969
 20
157.383455
 30
0.0
 40
2.747584
210
0.0
220
0.0
230
1.0
100
AcDbArc
 50
74.771882
 51
105.228118
  0
LINE
  5
493
100
AcDbEntity
  8
0
390
0
  6
DOT
 62
     2
100
AcDbLine
 10
164.576969
 20
159.506252
 30
0.0
 11
162.076969
 21
159.506252
 31
0.0
  0
LINE
  5
494
100
AcDbEntity
  8
0
390
0
  6
DOT
 62
     2
100
AcDbLine
 10
163.855281
 20
157.131252
 30
0.0
 11
165.298657
 21
157.131252
 31
0.0
  0
LINE
  5
495
100
AcDbEntity
  8
0
390
0
  6
DOT
 62
     2
100
AcDbLine
 10
165.298657
 20
157.131252
 30
0.0
 11
166.020345
 21
157.131252
 31
0.0
  0
LINE
  5
496
100
AcDbEntity
  8
0
390
0
  6
DOT
 62
     2
100
AcDbLine
 10
165.298657
 20
160.034564
 30
0.0
 11
165.298657
 21
159.506252
 31
0.0
  0
LINE
  5
497
100
AcDbEntity
  8
0
390
0
  6
DOT
 62
     2
100
AcDbLine
 10
165.298657
 20
159.506252
 30
0.0
 11
165.298657
 21
157.131252
 31
0.0
  0
LINE
  5
498
100
AcDbEntity
  8
0
390
0
  6
DOT
 62
     2
100
AcDbLine
 10
163.133593
 20
157.131252
 30
0.0
 11
163.855281
 21
157.131252
 31
0.0
  0
LINE
  5
499
100
AcDbEntity
  8
0
390
0
  6
DOT
 62
     2
100
AcDbLine
 10
163.855281
 20
160.034564
 30
0.0
 11
163.855281
 21
159.506252
 31
0.0
  0
LINE
  5
49A
100
AcDbEntity
  8
0
390
0
  6
DOT
 62
     2
100
AcDbLine
 10
163.855281
 20
159.506252
 30
0.0
 11
163.855281
 21
157.131252
 31
0.0
  0
CIRCLE
  5
49B
100
AcDbEntity
  8
0
390
0
  6
Continuous
 62
     7
100
AcDbCircle
 10
180.576969
 20
105.006158
 30
0.0
 40
8.0
210
0.0
220
0.0
230
1.0
  0
CIRCLE
  5
49C
100
AcDbEntity
  8
0
390
0
  6
Continuous
 62
     7
100
AcDbCircle
 10
180.576969
 20
105.006158
 30
0.0
 40
7.5
210
0.0
220
0.0
230
1.0
  0
CIRCLE
  5
49D
100
AcDbEntity
  8
0
390
0
  6
DOT
 62
     2
100
AcDbCircle
 10
180.576969
 20
105.006158
 30
0.0
 40
16.0
210
0.0
220
0.0
230
1.0
  0
LINE
  5
49E
100
AcDbEntity
  8
0
390
0
  6
DOT
 62
     2
100
AcDbLine
 10
190.552063
 20
102.906158
 30
0.0
 11
193.912635
 21
102.906158
 31
0.0
  0
LINE
  5
49F
100
AcDbEntity
  8
0
390
0
  6
DOT
 62
     2
100
AcDbLine
 10
193.912635
 20
107.106158
 30
0.0
 11
190.552063
 21
107.106158
 31
0.0
  0
LINE
  5
4A0
100
AcDbEntity
  8
0
390
0
  6
DOT
 62
     2
100
AcDbLine
 10
182.676969
 20
114.981252
 30
0.0
 11
182.676969
 21
118.341824
 31
0.0
  0
LINE
  5
4A1
100
AcDbEntity
  8
0
390
0
  6
DOT
 62
     2
100
AcDbLine
 10
178.476969
 20
118.341824
 30
0.0
 11
178.476969
 21
114.981252
 31
0.0
  0
LINE
  5
4A2
100
AcDbEntity
  8
0
390
0
  6
DOT
 62
     2
100
AcDbLine
 10
162.076974
 20
159.506255
 30
0.0
 11
162.076974
 21
155.381247
 31
0.0
  0
LINE
  5
4A3
100
AcDbEntity
  8
0
390
0
  6
DOT
 62
     2
100
AcDbLine
 10
178.076974
 20
120.809639
 30
0.0
 11
178.076974
 21
119.506272
 31
0.0
  0
LINE
  5
4A4
100
AcDbEntity
  8
0
390
0
  6
DOT
 62
     2
100
AcDbLine
 10
190.952063
 20
102.506158
 30
0.0
 11
193.843468
 21
102.506158
 31
0.0
  0
LINE
  5
4A5
100
AcDbEntity
  8
0
390
0
  6
DOT
 62
     2
100
AcDbLine
 10
193.843468
 20
102.506158
 30
0.0
 11
195.077063
 21
102.506158
 31
0.0
  0
LINE
  5
4A6
100
AcDbEntity
  8
0
390
0
  6
DOT
 62
     2
100
AcDbLine
 10
195.077063
 20
107.506158
 30
0.0
 11
193.843468
 21
107.506158
 31
0.0
  0
LINE
  5
4A7
100
AcDbEntity
  8
0
390
0
  6
DOT
 62
     2
100
AcDbLine
 10
193.843468
 20
107.506158
 30
0.0
 11
190.952063
 21
107.506158
 31
0.0
  0
LINE
  5
4A8
100
AcDbEntity
  8
0
390
0
  6
DOT
 62
     2
100
AcDbLine
 10
183.076969
 20
115.381252
 30
0.0
 11
183.076969
 21
118.272657
 31
0.0
  0
LINE
  5
4A9
100
AcDbEntity
  8
0
390
0
  6
DOT
 62
     2
100
AcDbLine
 10
178.076969
 20
118.272657
 30
0.0
 11
178.076969
 21
115.381252
 31
0.0
  0
LINE
  5
4AA
100
AcDbEntity
  8
0
390
0
  6
DOT
 62
     2
100
AcDbLine
 10
69.11474
 20
112.506158
 30
0.0
 11
69.115796
 21
112.505862
 31
0.0
  0
ARC
  5
4AB
100
AcDbEntity
  8
0
390
0
  6
DOT
 62
     2
100
AcDbCircle
 10
71.21474
 20
119.706501
 30
0.0
 40
7.500329
210
0.0
220
0.0
230
0.9999999999999999
100
AcDbArc
 50
253.740528
 51
286.259472
  0
LINE
  5
4AC
100
AcDbEntity
  8
0
390
0
  6
DOT
 62
     2
100
AcDbLine
 10
73.31474
 20
112.506158
 30
0.0
 11
73.31436
 21
112.506158
 31
0.0
  0
LINE
  5
4AD
100
AcDbEntity
  8
0
390
0
  6
DOT
 62
     2
100
AcDbLine
 10
73.31474
 20
119.506272
 30
0.0
 11
73.31474
 21
119.706252
 31
0.0
  0
LINE
  5
4AE
100
AcDbEntity
  8
0
390
0
  6
DOT
 62
     2
100
AcDbLine
 10
162.476969
 20
159.706252
 30
0.0
 11
162.076969
 21
159.506252
 31
0.0
  0
LINE
  5
4AF
100
AcDbEntity
  8
0
390
0
  6
DOT
 62
     2
100
AcDbLine
 10
167.076969
 20
155.381252
 30
0.0
 11
167.076969
 21
159.506252
 31
0.0
  0
LINE
  5
4B0
100
AcDbEntity
  8
0
390
0
  6
DOT
 62
     2
100
AcDbLine
 10
162.476969
 20
159.706252
 30
0.0
 11
162.476969
 21
159.506272
 31
0.0
  0
LINE
  5
4B1
100
AcDbEntity
  8
0
390
0
  6
DOT
 62
     2
100
AcDbLine
 10
162.476969
 20
154.981232
 30
0.0
 11
162.476969
 21
152.506158
 31
0.0
  0
LINE
  5
4B2
100
AcDbEntity
  8
0
390
0
  6
DOT
 62
     2
100
AcDbLine
 10
162.476969
 20
161.006158
 30
0.0
 11
162.476969
 21
159.706252
 31
0.0
  0
CIRCLE
  5
4B3
100
AcDbEntity
  8
0
390
0
  6
DOT
 62
     2
100
AcDbCircle
 10
71.215617
 20
105.006124
 30
0.0
 40
2.099967
210
0.0
220
0.0
230
1.0
  0
LINE
  5
4B4
100
AcDbEntity
  8
0
390
0
  6
DOT
 62
     2
100
AcDbLine
 10
76.839665
 20
142.506163
 30
0.0
 11
80.143459
 21
142.506163
 31
0.0
  0
LINE
  5
4B5
100
AcDbEntity
  8
0
390
0
  6
DOT
 62
     2
100
AcDbLine
 10
80.143352
 20
147.506153
 30
0.0
 11
76.839665
 21
147.506153
 31
0.0
  0
LINE
  5
4B6
100
AcDbEntity
  8
0
390
0
  6
Continuous
 62
     7
100
AcDbLine
 10
73.31474
 20
121.006158
 30
0.0
 11
73.314298
 21
121.006158
 31
0.0
  0
ARC
  5
4B7
100
AcDbEntity
  8
0
390
0
  6
Continuous
 62
     2
100
AcDbCircle
 10
164.574982
 20
176.787872
 30
0.0
 40
15.978189
210
0.0
220
0.0
230
1.0
100
AcDbArc
 50
261.005562
 51
277.585506
  0
LINE
  5
4B8
100
AcDbEntity
  8
0
390
0
  6
Continuous
 62
     2
100
AcDbLine
 10
166.684193
 20
160.949508
 30
0.0
 11
167.076964
 21
161.006158
 31
0.0
  0
LINE
  5
4B9
100
AcDbEntity
  8
0
390
0
  6
DOT
 62
     2
100
AcDbLine
 10
196.38045
 20
107.506153
 30
0.0
 11
196.489285
 21
106.678945
 31
0.0
  0
LINE
  5
4BA
100
AcDbEntity
  8
0
390
0
  6
DOT
 62
     2
100
AcDbLine
 10
196.488982
 20
103.330496
 30
0.0
 11
196.38045
 21
102.506163
 31
0.0
  0
LINE
  5
4BB
100
AcDbEntity
  8
0
390
0
  6
DOT
 62
     2
100
AcDbLine
 10
162.476969
 20
152.506158
 30
0.0
 11
162.479715
 21
152.50539
 31
0.0
  0
ARC
  5
4BC
100
AcDbEntity
  8
0
390
0
  6
DOT
 62
     2
100
AcDbCircle
 10
164.576969
 20
159.706294
 30
0.0
 40
7.50013
210
0.0
220
0.0
230
0.9999999999999999
100
AcDbArc
 50
253.740086
 51
286.259914
  0
CIRCLE
  5
4BD
100
AcDbEntity
  8
0
390
0
  6
DOT
 62
     2
100
AcDbCircle
 10
164.577846
 20
145.006124
 30
0.0
 40
2.099967
210
0.0
220
0.0
230
1.0
  0
LINE
  5
4BE
100
AcDbEntity
  8
0
390
0
  6
DOT
 62
     2
100
AcDbLine
 10
190.952044
 20
107.506153
 30
0.0
 11
187.648449
 21
107.506153
 31
0.0
  0
LINE
  5
4BF
100
AcDbEntity
  8
0
390
0
  6
DOT
 62
     2
100
AcDbLine
 10
187.648039
 20
102.506163
 30
0.0
 11
190.952044
 21
102.506163
 31
0.0
  0
LINE
  5
4C0
100
AcDbEntity
  8
0
390
0
  6
Continuous
 62
     7
100
AcDbLine
 10
159.576969
 20
129.006158
 30
0.0
 11
169.576969
 21
129.006158
 31
0.0
  0
LINE
  5
4C1
100
AcDbEntity
  8
0
390
0
  6
DOT
 62
     2
100
AcDbLine
 10
166.676969
 20
159.506272
 30
0.0
 11
166.676969
 21
159.706252
 31
0.0
  0
POLYLINE
  5
4C2
100
AcDbEntity
  8
0
390
0
  6
Continuous
 62
     7
100
AcDb2dPolyline
 66
     1
 10
0.0
 20
0.0
 30
0.0
 40
0.1
 41
0.1
  0
VERTEX
  5
4C3
100
AcDbEntity
  8
0
390
0
 62
     7
100
AcDbVertex
100
AcDb2dVertex
 10
247.592027
 20
160.42337
 30
0.0
  0
VERTEX
  5
4C4
100
AcDbEntity
  8
0
390
0
 62
     7
100
AcDbVertex
100
AcDb2dVertex
 10
247.701412
 20
160.351256
 30
0.0
 42
-0.243833
  0
VERTEX
  5
4C5
100
AcDbEntity
  8
0
390
0
 62
     7
100
AcDbVertex
100
AcDb2dVertex
 10
248.409661
 20
158.658545
 30
0.0
  0
VERTEX
  5
4C6
100
AcDbEntity
  8
0
390
0
 62
     7
100
AcDbVertex
100
AcDb2dVertex
 10
248.385016
 20
158.552777
 30
0.0
  0
VERTEX
  5
4C7
100
AcDbEntity
  8
0
390
0
 62
     7
100
AcDbVertex
100
AcDb2dVertex
 10
248.347871
 20
158.45887
 30
0.0
  0
VERTEX
  5
4C8
100
AcDbEntity
  8
0
390
0
 62
     7
100
AcDbVertex
100
AcDb2dVertex
 10
248.282077
 20
158.359991
 30
0.0
  0
VERTEX
  5
4C9
100
AcDbEntity
  8
0
390
0
 62
     7
100
AcDbVertex
100
AcDb2dVertex
 10
248.194872
 20
158.287727
 30
0.0
  0
SEQEND
  5
4CA
100
AcDbEntity
  8
0
390
0
  0
POLYLINE
  5
4CB
100
AcDbEntity
  8
0
390
0
  6
Continuous
 62
     7
100
AcDb2dPolyline
 66
     1
 10
0.0
 20
0.0
 30
0.0
 40
0.1
 41
0.1
  0
VERTEX
  5
4CC
100
AcDbEntity
  8
0
390
0
 62
     7
100
AcDbVertex
100
AcDb2dVertex
 10
246.932602
 20
160.468789
 30
0.0
  0
VERTEX
  5
4CD
100
AcDbEntity
  8
0
390
0
 62
     7
100
AcDbVertex
100
AcDb2dVertex
 10
246.936631
 20
160.471085
 30
0.0
  0
VERTEX
  5
4CE
100
AcDbEntity
  8
0
390
0
 62
     7
100
AcDbVertex
100
AcDb2dVertex
 10
246.965872
 20
160.486369
 30
0.0
  0
VERTEX
  5
4CF
100
AcDbEntity
  8
0
390
0
 62
     7
100
AcDbVertex
100
AcDb2dVertex
 10
246.997017
 20
160.500088
 30
0.0
  0
VERTEX
  5
4D0
100
AcDbEntity
  8
0
390
0
 62
     7
100
AcDbVertex
100
AcDb2dVertex
 10
247.029194
 20
160.511758
 30
0.0
  0
VERTEX
  5
4D1
100
AcDbEntity
  8
0
390
0
 62
     7
100
AcDbVertex
100
AcDb2dVertex
 10
247.062304
 20
160.521343
 30
0.0
  0
VERTEX
  5
4D2
100
AcDbEntity
  8
0
390
0
 62
     7
100
AcDbVertex
100
AcDb2dVertex
 10
247.096244
 20
160.528806
 30
0.0
  0
VERTEX
  5
4D3
100
AcDbEntity
  8
0
390
0
 62
     7
100
AcDbVertex
100
AcDb2dVertex
 10
247.130114
 20
160.534021
 30
0.0
  0
VERTEX
  5
4D4
100
AcDbEntity
  8
0
390
0
 62
     7
100
AcDbVertex
100
AcDb2dVertex
 10
247.164693
 20
160.537191
 30
0.0
  0
VERTEX
  5
4D5
100
AcDbEntity
  8
0
390
0
 62
     7
100
AcDbVertex
100
AcDb2dVertex
 10
247.199882
 20
160.538303
 30
0.0
  0
VERTEX
  5
4D6
100
AcDbEntity
  8
0
390
0
 62
     7
100
AcDbVertex
100
AcDb2dVertex
 10
247.235579
 20
160.537344
 30
0.0
  0
VERTEX
  5
4D7
100
AcDbEntity
  8
0
390
0
 62
     7
100
AcDbVertex
100
AcDb2dVertex
 10
247.272815
 20
160.534181
 30
0.0
  0
VERTEX
  5
4D8
100
AcDbEntity
  8
0
390
0
 62
     7
100
AcDbVertex
100
AcDb2dVertex
 10
247.310502
 20
160.528814
 30
0.0
  0
VERTEX
  5
4D9
100
AcDbEntity
  8
0
390
0
 62
     7
100
AcDbVertex
100
AcDb2dVertex
 10
247.34853
 20
160.521254
 30
0.0
  0
VERTEX
  5
4DA
100
AcDbEntity
  8
0
390
0
 62
     7
100
AcDbVertex
100
AcDb2dVertex
 10
247.386783
 20
160.511515
 30
0.0
  0
VERTEX
  5
4DB
100
AcDbEntity
  8
0
390
0
 62
     7
100
AcDbVertex
100
AcDb2dVertex
 10
247.427741
 20
160.498729
 30
0.0
  0
VERTEX
  5
4DC
100
AcDbEntity
  8
0
390
0
 62
     7
100
AcDbVertex
100
AcDb2dVertex
 10
247.46888
 20
160.483469
 30
0.0
  0
VERTEX
  5
4DD
100
AcDbEntity
  8
0
390
0
 62
     7
100
AcDbVertex
100
AcDb2dVertex
 10
247.510063
 20
160.465787
 30
0.0
  0
VERTEX
  5
4DE
100
AcDbEntity
  8
0
390
0
 62
     7
100
AcDbVertex
100
AcDb2dVertex
 10
247.551157
 20
160.445736
 30
0.0
  0
VERTEX
  5
4DF
100
AcDbEntity
  8
0
390
0
 62
     7
100
AcDbVertex
100
AcDb2dVertex
 10
247.592027
 20
160.42337
 30
0.0
  0
SEQEND
  5
4E0
100
AcDbEntity
  8
0
390
0
  0
POLYLINE
  5
4E1
100
AcDbEntity
  8
0
390
0
  6
Continuous
 62
     7
100
AcDb2dPolyline
 66
     1
 10
0.0
 20
0.0
 30
0.0
 40
0.1
 41
0.1
  0
VERTEX
  5
4E2
100
AcDbEntity
  8
0
390
0
 62
     7
100
AcDbVertex
100
AcDb2dVertex
 10
248.194872
 20
158.287727
 30
0.0
  0
VERTEX
  5
4E3
100
AcDbEntity
  8
0
390
0
 62
     7
100
AcDbVertex
100
AcDb2dVertex
 10
248.091854
 20
158.247371
 30
0.0
  0
VERTEX
  5
4E4
100
AcDbEntity
  8
0
390
0
 62
     7
100
AcDbVertex
100
AcDb2dVertex
 10
247.96977
 20
158.237963
 30
0.0
  0
VERTEX
  5
4E5
100
AcDbEntity
  8
0
390
0
 62
     7
100
AcDbVertex
100
AcDb2dVertex
 10
247.838052
 20
158.259932
 30
0.0
  0
VERTEX
  5
4E6
100
AcDbEntity
  8
0
390
0
 62
     7
100
AcDbVertex
100
AcDb2dVertex
 10
247.729476
 20
158.297367
 30
0.0
 42
-0.23674
  0
VERTEX
  5
4E7
100
AcDbEntity
  8
0
390
0
 62
     7
100
AcDbVertex
100
AcDb2dVertex
 10
246.651019
 20
159.736574
 30
0.0
  0
VERTEX
  5
4E8
100
AcDbEntity
  8
0
390
0
 62
     7
100
AcDbVertex
100
AcDb2dVertex
 10
246.642353
 20
159.872216
 30
0.0
  0
VERTEX
  5
4E9
100
AcDbEntity
  8
0
390
0
 62
     7
100
AcDbVertex
100
AcDb2dVertex
 10
246.649732
 20
159.996086
 30
0.0
  0
VERTEX
  5
4EA
100
AcDbEntity
  8
0
390
0
 62
     7
100
AcDbVertex
100
AcDb2dVertex
 10
246.672973
 20
160.1133
 30
0.0
  0
VERTEX
  5
4EB
100
AcDbEntity
  8
0
390
0
 62
     7
100
AcDbVertex
100
AcDb2dVertex
 10
246.71156
 20
160.219468
 30
0.0
  0
VERTEX
  5
4EC
100
AcDbEntity
  8
0
390
0
 62
     7
100
AcDbVertex
100
AcDb2dVertex
 10
246.763533
 20
160.311166
 30
0.0
  0
VERTEX
  5
4ED
100
AcDbEntity
  8
0
390
0
 62
     7
100
AcDbVertex
100
AcDb2dVertex
 10
246.830461
 20
160.390991
 30
0.0
  0
VERTEX
  5
4EE
100
AcDbEntity
  8
0
390
0
 62
     7
100
AcDbVertex
100
AcDb2dVertex
 10
246.932602
 20
160.468789
 30
0.0
  0
SEQEND
  5
4EF
100
AcDbEntity
  8
0
390
0
  0
POLYLINE
  5
4F0
100
AcDbEntity
  8
0
390
0
  6
Continuous
 62
     7
100
AcDb2dPolyline
 66
     1
 10
0.0
 20
0.0
 30
0.0
 40
0.1
 41
0.1
  0
VERTEX
  5
4F1
100
AcDbEntity
  8
0
390
0
 62
     7
100
AcDbVertex
100
AcDb2dVertex
 10
261.051031
 20
172.180921
 30
0.0
  0
VERTEX
  5
4F2
100
AcDbEntity
  8
0
390
0
 62
     7
100
AcDbVertex
100
AcDb2dVertex
 10
261.08796
 20
172.201242
 30
0.0
  0
VERTEX
  5
4F3
100
AcDbEntity
  8
0
390
0
 62
     7
100
AcDbVertex
100
AcDb2dVertex
 10
261.125058
 20
172.219669
 30
0.0
  0
VERTEX
  5
4F4
100
AcDbEntity
  8
0
390
0
 62
     7
100
AcDbVertex
100
AcDb2dVertex
 10
261.162226
 20
172.236159
 30
0.0
  0
VERTEX
  5
4F5
100
AcDbEntity
  8
0
390
0
 62
     7
100
AcDbVertex
100
AcDb2dVertex
 10
261.199365
 20
172.250666
 30
0.0
  0
VERTEX
  5
4F6
100
AcDbEntity
  8
0
390
0
 62
     7
100
AcDbVertex
100
AcDb2dVertex
 10
261.237521
 20
172.263511
 30
0.0
  0
VERTEX
  5
4F7
100
AcDbEntity
  8
0
390
0
 62
     7
100
AcDbVertex
100
AcDb2dVertex
 10
261.275568
 20
172.274238
 30
0.0
  0
VERTEX
  5
4F8
100
AcDbEntity
  8
0
390
0
 62
     7
100
AcDbVertex
100
AcDb2dVertex
 10
261.313396
 20
172.282825
 30
0.0
  0
VERTEX
  5
4F9
100
AcDbEntity
  8
0
390
0
 62
     7
100
AcDbVertex
100
AcDb2dVertex
 10
261.350896
 20
172.289251
 30
0.0
  0
VERTEX
  5
4FA
100
AcDbEntity
  8
0
390
0
 62
     7
100
AcDbVertex
100
AcDb2dVertex
 10
261.386974
 20
172.293419
 30
0.0
  0
VERTEX
  5
4FB
100
AcDbEntity
  8
0
390
0
 62
     7
100
AcDbVertex
100
AcDb2dVertex
 10
261.422662
 20
172.295548
 30
0.0
  0
VERTEX
  5
4FC
100
AcDbEntity
  8
0
390
0
 62
     7
100
AcDbVertex
100
AcDb2dVertex
 10
261.457862
 20
172.295644
 30
0.0
  0
VERTEX
  5
4FD
100
AcDbEntity
  8
0
390
0
 62
     7
100
AcDbVertex
100
AcDb2dVertex
 10
261.492473
 20
172.29371
 30
0.0
  0
VERTEX
  5
4FE
100
AcDbEntity
  8
0
390
0
 62
     7
100
AcDbVertex
100
AcDb2dVertex
 10
261.527421
 20
172.289603
 30
0.0
  0
VERTEX
  5
4FF
100
AcDbEntity
  8
0
390
0
 62
     7
100
AcDbVertex
100
AcDb2dVertex
 10
261.561663
 20
172.283369
 30
0.0
  0
VERTEX
  5
500
100
AcDbEntity
  8
0
390
0
 62
     7
100
AcDbVertex
100
AcDb2dVertex
 10
261.595094
 20
172.275034
 30
0.0
  0
VERTEX
  5
501
100
AcDbEntity
  8
0
390
0
 62
     7
100
AcDbVertex
100
AcDb2dVertex
 10
261.627613
 20
172.264625
 30
0.0
  0
VERTEX
  5
502
100
AcDbEntity
  8
0
390
0
 62
     7
100
AcDbVertex
100
AcDb2dVertex
 10
261.658471
 20
172.252461
 30
0.0
  0
VERTEX
  5
503
100
AcDbEntity
  8
0
390
0
 62
     7
100
AcDbVertex
100
AcDb2dVertex
 10
261.68838
 20
172.23835
 30
0.0
  0
VERTEX
  5
504
100
AcDbEntity
  8
0
390
0
 62
     7
100
AcDbVertex
100
AcDb2dVertex
 10
261.710457
 20
172.226338
 30
0.0
  0
SEQEND
  5
505
100
AcDbEntity
  8
0
390
0
  0
POLYLINE
  5
506
100
AcDbEntity
  8
0
390
0
  6
Continuous
 62
     7
100
AcDb2dPolyline
 66
     1
 10
0.0
 20
0.0
 30
0.0
 40
0.1
 41
0.1
  0
VERTEX
  5
507
100
AcDbEntity
  8
0
390
0
 62
     7
100
AcDbVertex
100
AcDb2dVertex
 10
260.450456
 20
170.043955
 30
0.0
  0
VERTEX
  5
508
100
AcDbEntity
  8
0
390
0
 62
     7
100
AcDbVertex
100
AcDb2dVertex
 10
260.353624
 20
170.126097
 30
0.0
  0
VERTEX
  5
509
100
AcDbEntity
  8
0
390
0
 62
     7
100
AcDbVertex
100
AcDb2dVertex
 10
260.28849
 20
170.230353
 30
0.0
  0
VERTEX
  5
50A
100
AcDbEntity
  8
0
390
0
 62
     7
100
AcDbVertex
100
AcDb2dVertex
 10
260.253212
 20
170.326708
 30
0.0
  0
VERTEX
  5
50B
100
AcDbEntity
  8
0
390
0
 62
     7
100
AcDbVertex
100
AcDb2dVertex
 10
260.230508
 20
170.434459
 30
0.0
 42
-0.23843
  0
VERTEX
  5
50C
100
AcDbEntity
  8
0
390
0
 62
     7
100
AcDbVertex
100
AcDb2dVertex
 10
260.930106
 20
172.100105
 30
0.0
  0
VERTEX
  5
50D
100
AcDbEntity
  8
0
390
0
 62
     7
100
AcDbVertex
100
AcDb2dVertex
 10
261.051031
 20
172.180921
 30
0.0
  0
SEQEND
  5
50E
100
AcDbEntity
  8
0
390
0
  0
POLYLINE
  5
50F
100
AcDbEntity
  8
0
390
0
  6
Continuous
 62
     7
100
AcDb2dPolyline
 66
     1
 10
0.0
 20
0.0
 30
0.0
 40
0.1
 41
0.1
  0
VERTEX
  5
510
100
AcDbEntity
  8
0
390
0
 62
     7
100
AcDbVertex
100
AcDb2dVertex
 10
261.710457
 20
172.226338
 30
0.0
  0
VERTEX
  5
511
100
AcDbEntity
  8
0
390
0
 62
     7
100
AcDbVertex
100
AcDb2dVertex
 10
261.798403
 20
172.161963
 30
0.0
  0
VERTEX
  5
512
100
AcDbEntity
  8
0
390
0
 62
     7
100
AcDbVertex
100
AcDb2dVertex
 10
261.867717
 20
172.085194
 30
0.0
  0
VERTEX
  5
513
100
AcDbEntity
  8
0
390
0
 62
     7
100
AcDbVertex
100
AcDb2dVertex
 10
261.92285
 20
171.995086
 30
0.0
  0
VERTEX
  5
514
100
AcDbEntity
  8
0
390
0
 62
     7
100
AcDbVertex
100
AcDb2dVertex
 10
261.964865
 20
171.888834
 30
0.0
  0
VERTEX
  5
515
100
AcDbEntity
  8
0
390
0
 62
     7
100
AcDbVertex
100
AcDb2dVertex
 10
261.990579
 20
171.773611
 30
0.0
  0
VERTEX
  5
516
100
AcDbEntity
  8
0
390
0
 62
     7
100
AcDbVertex
100
AcDb2dVertex
 10
262.000571
 20
171.649272
 30
0.0
  0
VERTEX
  5
517
100
AcDbEntity
  8
0
390
0
 62
     7
100
AcDbVertex
100
AcDb2dVertex
 10
261.994408
 20
171.514955
 30
0.0
 42
-0.250674
  0
VERTEX
  5
518
100
AcDbEntity
  8
0
390
0
 62
     7
100
AcDbVertex
100
AcDb2dVertex
 10
260.857561
 20
170.033633
 30
0.0
  0
VERTEX
  5
519
100
AcDbEntity
  8
0
390
0
 62
     7
100
AcDbVertex
100
AcDb2dVertex
 10
260.7558
 20
170.005986
 30
0.0
  0
VERTEX
  5
51A
100
AcDbEntity
  8
0
390
0
 62
     7
100
AcDbVertex
100
AcDb2dVertex
 10
260.627157
 20
169.99516
 30
0.0
  0
VERTEX
  5
51B
100
AcDbEntity
  8
0
390
0
 62
     7
100
AcDbVertex
100
AcDb2dVertex
 10
260.513693
 20
170.015429
 30
0.0
  0
VERTEX
  5
51C
100
AcDbEntity
  8
0
390
0
 62
     7
100
AcDbVertex
100
AcDb2dVertex
 10
260.450456
 20
170.043955
 30
0.0
  0
SEQEND
  5
51D
100
AcDbEntity
  8
0
390
0
  0
ARC
  5
51E
100
AcDbEntity
  8
0
390
0
  6
DOT
 62
     2
100
AcDbCircle
 10
71.21474
 20
105.006158
 30
0.0
 40
2.1
210
0.0
220
0.0
230
1.0
100
AcDbArc
 50
180.0
 51
185.473413
  0
CIRCLE
  5
51F
100
AcDbEntity
  8
0
390
0
  6
DOT
 62
     2
100
AcDbCircle
 10
71.214887
 20
105.007533
 30
0.0
 40
2.499854
210
0.0
220
0.0
230
1.0
  0
CIRCLE
  5
520
100
AcDbEntity
  8
0
390
0
  6
DOT
 62
     2
100
AcDbCircle
 10
71.21474
 20
105.006158
 30
0.0
 40
1.25
210
0.0
220
0.0
230
1.0
  0
ARC
  5
521
100
AcDbEntity
  8
0
390
0
  6
DOT
 62
     2
100
AcDbCircle
 10
71.21474
 20
105.006158
 30
0.0
 40
2.5
210
0.0
220
0.0
230
1.0
100
AcDbArc
 50
90.0
 51
91.263522
  0
ARC
  5
522
100
AcDbEntity
  8
0
390
0
  6
DOT
 62
     2
100
AcDbCircle
 10
71.21474
 20
105.006158
 30
0.0
 40
2.5
210
0.0
220
0.0
230
1.0
100
AcDbArc
 50
0.0
 51
7.18331
  0
LINE
  5
523
100
AcDbEntity
  8
0
390
0
  6
DOT
 62
     2
100
AcDbLine
 10
71.936428
 20
106.256158
 30
0.0
 11
72.658116
 21
105.006158
 31
0.0
  0
LINE
  5
524
100
AcDbEntity
  8
0
390
0
  6
DOT
 62
     2
100
AcDbLine
 10
70.493052
 20
106.256158
 30
0.0
 11
71.936428
 21
106.256158
 31
0.0
  0
LINE
  5
525
100
AcDbEntity
  8
0
390
0
  6
DOT
 62
     2
100
AcDbLine
 10
72.658116
 20
105.006158
 30
0.0
 11
71.936428
 21
103.756158
 31
0.0
  0
LINE
  5
526
100
AcDbEntity
  8
0
390
0
  6
DOT
 62
     2
100
AcDbLine
 10
71.936428
 20
103.756158
 30
0.0
 11
70.493052
 21
103.756158
 31
0.0
  0
LINE
  5
527
100
AcDbEntity
  8
0
390
0
  6
DOT
 62
     2
100
AcDbLine
 10
69.771364
 20
105.006158
 30
0.0
 11
70.493052
 21
106.256158
 31
0.0
  0
LINE
  5
528
100
AcDbEntity
  8
0
390
0
  6
DOT
 62
     2
100
AcDbLine
 10
70.493052
 20
103.756158
 30
0.0
 11
69.771364
 21
105.006158
 31
0.0
  0
LINE
  5
529
100
AcDbEntity
  8
0
390
0
  6
DOT
 62
     2
100
AcDbLine
 10
72.714646
 20
142.506163
 30
0.0
 11
76.839651
 21
142.506163
 31
0.0
  0
LINE
  5
52A
100
AcDbEntity
  8
0
390
0
  6
DOT
 62
     2
100
AcDbLine
 10
76.839651
 20
147.506153
 30
0.0
 11
72.714646
 21
147.506153
 31
0.0
  0
LINE
  5
52B
100
AcDbEntity
  8
0
390
0
  6
DOT
 62
     2
100
AcDbLine
 10
72.714626
 20
147.506153
 30
0.0
 11
71.411259
 21
147.506153
 31
0.0
  0
LINE
  5
52C
100
AcDbEntity
  8
0
390
0
  6
DOT
 62
     2
100
AcDbLine
 10
72.714646
 20
142.506158
 30
0.0
 11
76.839646
 21
142.506158
 31
0.0
  0
LINE
  5
52D
100
AcDbEntity
  8
0
390
0
  6
DOT
 62
     2
100
AcDbLine
 10
72.714646
 20
147.506158
 30
0.0
 11
72.514646
 21
147.106158
 31
0.0
  0
LINE
  5
52E
100
AcDbEntity
  8
0
390
0
  6
DOT
 62
     2
100
AcDbLine
 10
72.514646
 20
147.106158
 30
0.0
 11
72.089646
 21
146.256158
 31
0.0
  0
LINE
  5
52F
100
AcDbEntity
  8
0
390
0
  6
DOT
 62
     2
100
AcDbLine
 10
72.514646
 20
142.906158
 30
0.0
 11
72.714646
 21
142.506158
 31
0.0
  0
LINE
  5
530
100
AcDbEntity
  8
0
390
0
  6
DOT
 62
     2
100
AcDbLine
 10
89.31474
 20
159.706252
 30
0.0
 11
88.46474
 21
160.131252
 31
0.0
  0
LINE
  5
531
100
AcDbEntity
  8
0
390
0
  6
DOT
 62
     2
100
AcDbLine
 10
85.11474
 20
159.706252
 30
0.0
 11
84.71474
 21
159.506252
 31
0.0
  0
LINE
  5
532
100
AcDbEntity
  8
0
390
0
  6
DOT
 62
     2
100
AcDbLine
 10
77.239666
 20
142.906158
 30
0.0
 11
80.01474
 21
142.906158
 31
0.0
  0
LINE
  5
533
100
AcDbEntity
  8
0
390
0
  6
DOT
 62
     2
100
AcDbLine
 10
80.01461
 20
147.106158
 30
0.0
 11
77.239666
 21
147.106158
 31
0.0
  0
LINE
  5
534
100
AcDbEntity
  8
0
390
0
  6
DOT
 62
     2
100
AcDbLine
 10
77.239646
 20
147.106158
 30
0.0
 11
72.714646
 21
147.106158
 31
0.0
  0
LINE
  5
535
100
AcDbEntity
  8
0
390
0
  6
DOT
 62
     2
100
AcDbLine
 10
72.714626
 20
147.106158
 30
0.0
 11
72.514646
 21
147.106158
 31
0.0
  0
LINE
  5
536
100
AcDbEntity
  8
0
390
0
  6
DOT
 62
     2
100
AcDbLine
 10
72.514646
 20
147.106158
 30
0.0
 11
71.353104
 21
147.106158
 31
0.0
  0
LINE
  5
537
100
AcDbEntity
  8
0
390
0
  6
DOT
 62
     2
100
AcDbLine
 10
183.076974
 20
119.506252
 30
0.0
 11
178.076964
 21
119.506252
 31
0.0
  0
ARC
  5
538
100
AcDbEntity
  8
0
390
0
  6
DOT
 62
     2
100
AcDbCircle
 10
164.576969
 20
145.006158
 30
0.0
 40
2.1
210
0.0
220
0.0
230
1.0
100
AcDbArc
 50
180.0
 51
185.473413
  0
CIRCLE
  5
539
100
AcDbEntity
  8
0
390
0
  6
DOT
 62
     2
100
AcDbCircle
 10
164.577116
 20
145.007533
 30
0.0
 40
2.499854
210
0.0
220
0.0
230
1.0
  0
CIRCLE
  5
53A
100
AcDbEntity
  8
0
390
0
  6
DOT
 62
     2
100
AcDbCircle
 10
164.576969
 20
145.006158
 30
0.0
 40
1.25
210
0.0
220
0.0
230
1.0
  0
ARC
  5
53B
100
AcDbEntity
  8
0
390
0
  6
DOT
 62
     2
100
AcDbCircle
 10
164.576969
 20
145.006158
 30
0.0
 40
2.5
210
0.0
220
0.0
230
1.0
100
AcDbArc
 50
90.0
 51
91.263522
  0
ARC
  5
53C
100
AcDbEntity
  8
0
390
0
  6
DOT
 62
     2
100
AcDbCircle
 10
164.576969
 20
145.006158
 30
0.0
 40
2.5
210
0.0
220
0.0
230
1.0
100
AcDbArc
 50
0.0
 51
7.18331
  0
LINE
  5
53D
100
AcDbEntity
  8
0
390
0
  6
DOT
 62
     2
100
AcDbLine
 10
166.020345
 20
145.006158
 30
0.0
 11
165.298657
 21
143.756158
 31
0.0
  0
LINE
  5
53E
100
AcDbEntity
  8
0
390
0
  6
DOT
 62
     2
100
AcDbLine
 10
163.855281
 20
146.256158
 30
0.0
 11
165.298657
 21
146.256158
 31
0.0
  0
LINE
  5
53F
100
AcDbEntity
  8
0
390
0
  6
DOT
 62
     2
100
AcDbLine
 10
165.298657
 20
143.756158
 30
0.0
 11
163.855281
 21
143.756158
 31
0.0
  0
LINE
  5
540
100
AcDbEntity
  8
0
390
0
  6
DOT
 62
     2
100
AcDbLine
 10
163.133593
 20
145.006158
 30
0.0
 11
163.855281
 21
146.256158
 31
0.0
  0
LINE
  5
541
100
AcDbEntity
  8
0
390
0
  6
DOT
 62
     2
100
AcDbLine
 10
165.298657
 20
146.256158
 30
0.0
 11
166.020345
 21
145.006158
 31
0.0
  0
LINE
  5
542
100
AcDbEntity
  8
0
390
0
  6
DOT
 62
     2
100
AcDbLine
 10
163.855281
 20
143.756158
 30
0.0
 11
163.133593
 21
145.006158
 31
0.0
  0
LINE
  5
543
100
AcDbEntity
  8
0
390
0
  6
DOT
 62
     2
100
AcDbLine
 10
196.38045
 20
107.506153
 30
0.0
 11
195.077083
 21
107.506153
 31
0.0
  0
LINE
  5
544
100
AcDbEntity
  8
0
390
0
  6
DOT
 62
     2
100
AcDbLine
 10
193.843469
 20
107.506153
 30
0.0
 11
190.952058
 21
107.506153
 31
0.0
  0
LINE
  5
545
100
AcDbEntity
  8
0
390
0
  6
DOT
 62
     2
100
AcDbLine
 10
190.952058
 20
102.506163
 30
0.0
 11
193.843469
 21
102.506163
 31
0.0
  0
LINE
  5
546
100
AcDbEntity
  8
0
390
0
  6
DOT
 62
     2
100
AcDbLine
 10
193.843469
 20
102.506163
 30
0.0
 11
195.077066
 21
102.506163
 31
0.0
  0
LINE
  5
547
100
AcDbEntity
  8
0
390
0
  6
DOT
 62
     2
100
AcDbLine
 10
195.077063
 20
102.506158
 30
0.0
 11
195.277063
 21
102.906158
 31
0.0
  0
LINE
  5
548
100
AcDbEntity
  8
0
390
0
  6
DOT
 62
     2
100
AcDbLine
 10
195.277063
 20
107.106158
 30
0.0
 11
195.077063
 21
107.506158
 31
0.0
  0
LINE
  5
549
100
AcDbEntity
  8
0
390
0
  6
DOT
 62
     2
100
AcDbLine
 10
196.438605
 20
107.106158
 30
0.0
 11
195.277063
 21
107.106158
 31
0.0
  0
LINE
  5
54A
100
AcDbEntity
  8
0
390
0
  6
DOT
 62
     2
100
AcDbLine
 10
195.277063
 20
107.106158
 30
0.0
 11
195.077083
 21
107.106158
 31
0.0
  0
LINE
  5
54B
100
AcDbEntity
  8
0
390
0
  6
DOT
 62
     2
100
AcDbLine
 10
195.077083
 20
102.906158
 30
0.0
 11
195.277063
 21
102.906158
 31
0.0
  0
LINE
  5
54C
100
AcDbEntity
  8
0
390
0
  6
DOT
 62
     2
100
AcDbLine
 10
195.277063
 20
102.906158
 30
0.0
 11
196.438558
 21
102.906158
 31
0.0
  0
LINE
  5
54D
100
AcDbEntity
  8
0
390
0
  6
Continuous
 62
     7
100
AcDbLine
 10
261.309914
 20
171.709776
 30
0.0
 11
261.003728
 21
170.920627
 31
0.0
  0
LINE
  5
54E
100
AcDbEntity
  8
0
390
0
  6
Continuous
 62
     7
100
AcDbLine
 10
261.003728
 20
172.145372
 30
0.0
 11
261.045469
 21
172.097162
 31
0.0
  0
LINE
  5
54F
100
AcDbEntity
  8
0
390
0
  6
Continuous
 62
     7
100
AcDbLine
 10
261.045469
 20
172.097162
 30
0.0
 11
261.309914
 21
171.709776
 31
0.0
  0
LINE
  5
550
100
AcDbEntity
  8
0
390
0
  6
Continuous
 62
     7
100
AcDbLine
 10
260.391355
 20
170.567073
 30
0.0
 11
260.2349
 21
170.82164
 31
0.0
  0
LINE
  5
551
100
AcDbEntity
  8
0
390
0
  6
Continuous
 62
     7
100
AcDbLine
 10
261.003728
 20
170.920627
 30
0.0
 11
260.391355
 21
170.567073
 31
0.0
  0
LINE
  5
552
100
AcDbEntity
  8
0
390
0
  6
Continuous
 62
     7
100
AcDbLine
 10
261.309914
 20
171.709776
 30
0.0
 11
260.817295
 21
171.99419
 31
0.0
  0
LINE
  5
553
100
AcDbEntity
  8
0
390
0
  6
Continuous
 62
     7
100
AcDbLine
 10
261.003728
 20
170.920627
 30
0.0
 11
260.358841
 21
171.292953
 31
0.0
  0
LINE
  5
554
100
AcDbEntity
  8
0
390
0
  6
Continuous
 62
     7
100
AcDbLine
 10
248.40809
 20
159.064001
 30
0.0
 11
248.251702
 21
158.809523
 31
0.0
  0
LINE
  5
555
100
AcDbEntity
  8
0
390
0
  6
Continuous
 62
     7
100
AcDbLine
 10
247.333143
 20
159.952225
 30
0.0
 11
247.604727
 21
160.347946
 31
0.0
  0
LINE
  5
556
100
AcDbEntity
  8
0
390
0
  6
Continuous
 62
     7
100
AcDbLine
 10
247.604727
 20
160.347946
 30
0.0
 11
247.63933
 21
160.387821
 31
0.0
  0
LINE
  5
557
100
AcDbEntity
  8
0
390
0
  6
Continuous
 62
     7
100
AcDbLine
 10
247.63933
 20
159.163076
 30
0.0
 11
247.333143
 21
159.952225
 31
0.0
  0
LINE
  5
558
100
AcDbEntity
  8
0
390
0
  6
Continuous
 62
     7
100
AcDbLine
 10
248.251702
 20
158.809523
 30
0.0
 11
247.63933
 21
159.163076
 31
0.0
  0
LINE
  5
559
100
AcDbEntity
  8
0
390
0
  6
Continuous
 62
     7
100
AcDbLine
 10
247.333143
 20
159.952225
 30
0.0
 11
247.825865
 21
160.236698
 31
0.0
  0
LINE
  5
55A
100
AcDbEntity
  8
0
390
0
  6
Continuous
 62
     7
100
AcDbLine
 10
247.63933
 20
159.163076
 30
0.0
 11
248.284342
 21
159.535474
 31
0.0
  0
LINE
  5
55B
100
AcDbEntity
  8
0
390
0
  6
CENTER
 62
     1
100
AcDbLine
 10
65.71474
 20
145.006158
 30
0.0
 11
108.71474
 21
145.006158
 31
0.0
  0
LINE
  5
55C
100
AcDbEntity
  8
0
390
0
  6
CENTER
 62
     1
100
AcDbLine
 10
87.21474
 20
123.506158
 30
0.0
 11
87.21474
 21
166.506158
 31
0.0
  0
LINE
  5
55D
100
AcDbEntity
  8
0
390
0
  6
CENTER
 62
     1
100
AcDbLine
 10
101.71474
 20
105.006158
 30
0.0
 11
62.71474
 21
105.006158
 31
0.0
  0
DIMENSION
  5
55E
100
AcDbEntity
  8
0
390
0
100
AcDbDimension
  2
*D16
 10
64.66474
 20
145.006158
 30
0.0
 11
69.071389
 21
163.149509
 31
0.0
 70
     2
 71
     5
 72
     1
 41
1.0
 42
0.0
210
0.0
220
0.0
230
1.0
  3
Standard
100
AcDb2LineAngularDimension
 13
87.21474
 23
167.556158
 33
0.0
 14
87.21474
 24
168.349958
 34
0.0
 15
63.87094
 25
145.006158
 35
0.0
 16
71.450643
 26
160.770255
 36
0.0
1001
ACAD
1000
DSTYLE
1002
{
1070
   271
1070
     1
1070
   179
1070
     1
1002
}
  0
LINE
  5
570
100
AcDbEntity
  8
0
390
0
  6
CENTER
 62
     1
100
AcDbLine
 10
156.272116
 20
145.007533
 30
0.0
 11
194.33771
 21
145.007533
 31
0.0
  0
LINE
  5
571
100
AcDbEntity
  8
0
390
0
  6
CENTER
 62
     1
100
AcDbLine
 10
164.577116
 20
139.543075
 30
0.0
 11
164.577116
 21
165.602078
 31
0.0
  0
LINE
  5
572
100
AcDbEntity
  8
0
390
0
  6
CENTER
 62
     1
100
AcDbLine
 10
159.076969
 20
105.006158
 30
0.0
 11
202.076969
 21
105.006158
 31
0.0
  0
LINE
  5
573
100
AcDbEntity
  8
0
390
0
  6
CENTER
 62
     1
100
AcDbLine
 10
180.576969
 20
83.506158
 30
0.0
 11
180.576969
 21
126.506158
 31
0.0
  0
POINT
  5
574
100
AcDbEntity
  8
0
390
0
 62
     7
100
AcDbPoint
 10
156.272116
 20
144.880513
 30
0.0
  0
POINT
  5
575
100
AcDbEntity
  8
0
390
0
 62
     7
100
AcDbPoint
 10
194.33771
 20
144.660875
 30
0.0
  0
POINT
  5
576
100
AcDbEntity
  8
0
390
0
 62
     7
100
AcDbPoint
 10
164.246199
 20
165.602078
 30
0.0
  0
POINT
  5
577
100
AcDbEntity
  8
0
390
0
 62
     7
100
AcDbPoint
 10
164.834628
 20
139.543075
 30
0.0
  0
DIMENSION
  5
578
100
AcDbEntity
  8
0
390
0
100
AcDbDimension
  2
*D17
 10
164.577116
 20
174.88697
 30
0.0
 11
178.077042
 21
178.029015
 31
0.0
 71
     5
 72
     1
 41
1.0
 42
0.0
  3
Standard
100
AcDbAlignedDimension
 13
164.577116
 23
165.602078
 33
0.0
 14
191.576969
 24
162.206158
 34
0.0
100
AcDbRotatedDimension
1001
ACAD
1000
DSTYLE
1002
{
1070
   271
1070
     1
1070
   179
1070
     1
1002
}
  0
DIMENSION
  5
58A
100
AcDbEntity
  8
0
390
0
100
AcDbDimension
  2
*D18
 10
162.076974
 20
167.617511
 30
0.0
 11
150.439474
 21
170.759556
 31
0.0
 71
     5
 72
     1
 41
1.0
 42
0.0
  3
Standard
100
AcDbAlignedDimension
 13
162.076974
 23
161.006158
 33
0.0
 14
167.076964
 24
161.006158
 34
0.0
100
AcDbRotatedDimension
1001
ACAD
1000
DSTYLE
1002
{
1070
     3
1000
2 -M<>
1070
   280
1040
0.0
1070
   271
1070
     0
1070
   179
1070
     0
1002
}
  0
DIMENSION
  5
59C
100
AcDbEntity
  8
0
390
0
100
AcDbDimension
  2
*D19
 10
221.975828
 20
162.506158
 30
0.0
 11
218.666737
 21
145.006158
 31
0.0
 71
     5
 72
     1
 41
1.0
 42
0.0
  3
Standard
100
AcDbAlignedDimension
 13
191.276969
 23
162.506158
 33
0.0
 14
191.276969
 24
127.506158
 34
0.0
 50
270.0
100
AcDbRotatedDimension
1001
ACAD
1000
DSTYLE
1002
{
1070
     3
1000
%%c<>
1070
   271
1070
     1
1070
   179
1070
     1
1002
}
  0
DIMENSION
  5
5AE
100
AcDbEntity
  8
0
390
0
100
AcDbDimension
  2
*D20
 10
143.065463
 20
161.006158
 30
0.0
 11
139.756372
 21
145.006158
 31
0.0
 71
     5
 72
     1
 41
1.0
 42
0.0
  3
Standard
100
AcDbAlignedDimension
 13
159.576969
 23
161.006158
 33
0.0
 14
159.576969
 24
129.006158
 34
0.0
 50
270.0
100
AcDbRotatedDimension
1001
ACAD
1000
DSTYLE
1002
{
1070
     3
1000
%%c<>
1070
   271
1070
     1
1070
   179
1070
     1
1002
}
  0
INSERT
  5
5CB
100
AcDbEntity
  8
0
390
0
100
AcDbBlockReference
  2
AID2178
 10
0.0
 20
0.0
 30
0.0
  0
INSERT
  5
5D7
100
AcDbEntity
  8
0
390
0
100
AcDbBlockReference
  2
AID2184
 10
0.0
 20
0.0
 30
0.0
  0
CIRCLE
  5
5D8
100
AcDbEntity
  8
0
390
0
  6
Continuous
 62
     7
100
AcDbCircle
 10
87.21474
 20
145.006158
 30
0.0
 40
17.2
210
0.0
220
0.0
230
1.0
  0
ARC
  5
5D9
100
AcDbEntity
  8
0
390
0
  6
DOT
 62
     2
100
AcDbCircle
 10
87.21474
 20
145.006158
 30
0.0
 40
13.8
210
0.0
220
0.0
230
1.0
100
AcDbArc
 50
100.4373
 51
180.0
  0
ARC
  5
5DA
100
AcDbEntity
  8
0
390
0
  6
DOT
 62
     2
100
AcDbCircle
 10
87.21474
 20
145.006158
 30
0.0
 40
13.8
210
0.0
220
0.0
230
1.0
100
AcDbArc
 50
98.752929
 51
100.4373
  0
ARC
  5
5DB
100
AcDbEntity
  8
0
390
0
  6
DOT
 62
     2
100
AcDbCircle
 10
87.21474
 20
145.006158
 30
0.0
 40
13.8
210
0.0
220
0.0
230
1.0
100
AcDbArc
 50
81.247071
 51
98.752929
  0
ARC
  5
5DC
100
AcDbEntity
  8
0
390
0
  6
DOT
 62
     2
100
AcDbCircle
 10
87.21474
 20
145.006158
 30
0.0
 40
13.8
210
0.0
220
0.0
230
1.0
100
AcDbArc
 50
79.5627
 51
81.247071
  0
ARC
  5
5DD
100
AcDbEntity
  8
0
390
0
  6
DOT
 62
     2
100
AcDbCircle
 10
87.21474
 20
145.006158
 30
0.0
 40
13.8
210
0.0
220
0.0
230
1.0
100
AcDbArc
 50
190.4373
 51
79.5627
  0
ARC
  5
5DE
100
AcDbEntity
  8
0
390
0
  6
DOT
 62
     2
100
AcDbCircle
 10
87.21474
 20
145.006158
 30
0.0
 40
13.8
210
0.0
220
0.0
230
1.0
100
AcDbArc
 50
188.752929
 51
190.4373
  0
ARC
  5
5DF
100
AcDbEntity
  8
0
390
0
  6
DOT
 62
     2
100
AcDbCircle
 10
87.21474
 20
145.006158
 30
0.0
 40
13.8
210
0.0
220
0.0
230
1.0
100
AcDbArc
 50
180.0
 51
188.752929
  0
CIRCLE
  5
5E0
100
AcDbEntity
  8
0
390
0
  6
Continuous
 62
     7
100
AcDbCircle
 10
87.21474
 20
145.006158
 30
0.0
 40
17.5
210
0.0
220
0.0
230
1.0
  0
CIRCLE
  5
5E1
100
AcDbEntity
  8
0
390
0
  6
DOT
 62
     2
100
AcDbCircle
 10
87.21474
 20
145.006158
 30
0.0
 40
13.5
210
0.0
220
0.0
230
1.0
  0
LINE
  5
5E2
100
AcDbEntity
  8
0
390
0
  6
Continuous
 62
     7
100
AcDbLine
 10
76.21474
 20
87.806158
 30
0.0
 11
76.21474
 21
122.206158
 31
0.0
  0
LINE
  5
5E3
100
AcDbEntity
  8
0
390
0
  6
Continuous
 62
     7
100
AcDbLine
 10
76.51474
 20
122.506158
 30
0.0
 11
76.51474
 21
87.506158
 31
0.0
  0
LINE
  5
5E4
100
AcDbEntity
  8
0
390
0
  6
Continuous
 62
     7
100
AcDbLine
 10
97.91474
 20
87.506158
 30
0.0
 11
97.91474
 21
122.506158
 31
0.0
  0
LINE
  5
5E5
100
AcDbEntity
  8
0
390
0
  6
Continuous
 62
     7
100
AcDbLine
 10
98.21474
 20
122.206158
 30
0.0
 11
98.21474
 21
87.806158
 31
0.0
  0
LINE
  5
5E6
100
AcDbEntity
  8
0
390
0
  6
Continuous
 62
     7
100
AcDbLine
 10
76.51474
 20
122.506158
 30
0.0
 11
76.21474
 21
122.206158
 31
0.0
  0
LINE
  5
5E7
100
AcDbEntity
  8
0
390
0
  6
Continuous
 62
     7
100
AcDbLine
 10
76.21474
 20
87.806158
 30
0.0
 11
76.51474
 21
87.506158
 31
0.0
  0
LINE
  5
5E8
100
AcDbEntity
  8
0
390
0
  6
Continuous
 62
     7
100
AcDbLine
 10
97.91474
 20
87.506158
 30
0.0
 11
98.21474
 21
87.806158
 31
0.0
  0
LINE
  5
5E9
100
AcDbEntity
  8
0
390
0
  6
Continuous
 62
     7
100
AcDbLine
 10
98.21474
 20
122.206158
 30
0.0
 11
97.91474
 21
122.506158
 31
0.0
  0
LINE
  5
5EA
100
AcDbEntity
  8
0
390
0
  6
DOT
 62
     2
100
AcDbLine
 10
76.21474
 20
91.206158
 30
0.0
 11
76.51474
 21
91.506158
 31
0.0
  0
LINE
  5
5EB
100
AcDbEntity
  8
0
390
0
  6
DOT
 62
     2
100
AcDbLine
 10
76.51474
 20
118.506158
 30
0.0
 11
76.21474
 21
118.806158
 31
0.0
  0
LINE
  5
5EC
100
AcDbEntity
  8
0
390
0
  6
DOT
 62
     2
100
AcDbLine
 10
98.21474
 20
118.806158
 30
0.0
 11
97.91474
 21
118.506158
 31
0.0
  0
LINE
  5
5ED
100
AcDbEntity
  8
0
390
0
  6
DOT
 62
     2
100
AcDbLine
 10
97.91474
 20
91.506158
 30
0.0
 11
98.21474
 21
91.206158
 31
0.0
  0
LINE
  5
5EE
100
AcDbEntity
  8
0
390
0
  6
DOT
 62
     2
100
AcDbLine
 10
76.21474
 20
91.506158
 30
0.0
 11
76.51474
 21
91.506158
 31
0.0
  0
LINE
  5
5EF
100
AcDbEntity
  8
0
390
0
  6
DOT
 62
     2
100
AcDbLine
 10
76.51474
 20
118.506158
 30
0.0
 11
76.21474
 21
118.506158
 31
0.0
  0
LINE
  5
5F0
100
AcDbEntity
  8
0
390
0
  6
Continuous
 62
     7
100
AcDbLine
 10
169.576969
 20
127.806158
 30
0.0
 11
169.576969
 21
162.206158
 31
0.0
  0
LINE
  5
5F1
100
AcDbEntity
  8
0
390
0
  6
Continuous
 62
     7
100
AcDbLine
 10
169.876969
 20
162.506158
 30
0.0
 11
169.876969
 21
127.506158
 31
0.0
  0
LINE
  5
5F2
100
AcDbEntity
  8
0
390
0
  6
Continuous
 62
     7
100
AcDbLine
 10
191.276969
 20
127.506158
 30
0.0
 11
191.276969
 21
162.506158
 31
0.0
  0
LINE
  5
5F3
100
AcDbEntity
  8
0
390
0
  6
Continuous
 62
     7
100
AcDbLine
 10
191.576969
 20
162.206158
 30
0.0
 11
191.576969
 21
127.806158
 31
0.0
  0
CIRCLE
  5
5F4
100
AcDbEntity
  8
0
390
0
  6
Continuous
 62
     7
100
AcDbCircle
 10
180.576969
 20
105.006158
 30
0.0
 40
17.5
210
0.0
220
0.0
230
1.0
  0
CIRCLE
  5
5F5
100
AcDbEntity
  8
0
390
0
  6
Continuous
 62
     7
100
AcDbCircle
 10
180.576969
 20
105.006158
 30
0.0
 40
17.2
210
0.0
220
0.0
230
1.0
  0
CIRCLE
  5
5F6
100
AcDbEntity
  8
0
390
0
  6
Continuous
 62
     7
100
AcDbCircle
 10
180.576969
 20
105.006158
 30
0.0
 40
13.8
210
0.0
220
0.0
230
1.0
  0
LINE
  5
5F7
100
AcDbEntity
  8
0
390
0
  6
Continuous
 62
     7
100
AcDbLine
 10
169.876969
 20
162.506158
 30
0.0
 11
169.576969
 21
162.206158
 31
0.0
  0
LINE
  5
5F8
100
AcDbEntity
  8
0
390
0
  6
Continuous
 62
     7
100
AcDbLine
 10
169.576969
 20
127.806158
 30
0.0
 11
169.876969
 21
127.506158
 31
0.0
  0
LINE
  5
5F9
100
AcDbEntity
  8
0
390
0
  6
Continuous
 62
     7
100
AcDbLine
 10
191.276969
 20
127.506158
 30
0.0
 11
191.576969
 21
127.806158
 31
0.0
  0
LINE
  5
5FA
100
AcDbEntity
  8
0
390
0
  6
Continuous
 62
     7
100
AcDbLine
 10
191.576969
 20
162.206158
 30
0.0
 11
191.276969
 21
162.506158
 31
0.0
  0
LINE
  5
5FB
100
AcDbEntity
  8
0
390
0
  6
DOT
 62
     2
100
AcDbLine
 10
169.576969
 20
131.206158
 30
0.0
 11
169.876969
 21
131.506158
 31
0.0
  0
LINE
  5
5FC
100
AcDbEntity
  8
0
390
0
  6
DOT
 62
     2
100
AcDbLine
 10
169.876969
 20
158.506158
 30
0.0
 11
169.576969
 21
158.806158
 31
0.0
  0
LINE
  5
5FD
100
AcDbEntity
  8
0
390
0
  6
DOT
 62
     2
100
AcDbLine
 10
191.576969
 20
158.806158
 30
0.0
 11
191.276969
 21
158.506158
 31
0.0
  0
LINE
  5
5FE
100
AcDbEntity
  8
0
390
0
  6
DOT
 62
     2
100
AcDbLine
 10
191.276969
 20
131.506158
 30
0.0
 11
191.576969
 21
131.206158
 31
0.0
  0
LINE
  5
5FF
100
AcDbEntity
  8
0
390
0
  6
DOT
 62
     2
100
AcDbLine
 10
191.276969
 20
158.506158
 30
0.0
 11
169.876969
 21
158.506158
 31
0.0
  0
LINE
  5
600
100
AcDbEntity
  8
0
390
0
  6
DOT
 62
     2
100
AcDbLine
 10
169.876969
 20
158.506158
 30
0.0
 11
169.576969
 21
158.506158
 31
0.0
  0
ELLIPSE
  5
601
100
AcDbEntity
  8
0
390
0
  6
Continuous
 62
     7
100
AcDbEllipse
 10
265.649379
 20
156.739727
 30
0.0
 11
-5.250000000000032
 21
-9.093266739736622
 31
0.0000000000000005
210
0.0000000000000001
220
-0.0
230
1.0
 40
0.57735
 41
6.28318530717958
 42
7.0685834705770416
  0
ELLIPSE
  5
602
100
AcDbEntity
  8
0
390
0
  6
Continuous
 62
     7
100
AcDbEllipse
 10
265.776659
 20
156.666242
 30
0.0
 11
5.1599999999999984
 21
8.9373821670554179
 31
0.0
210
0.0000000000000002
220
-0.0000000000000001
230
1.0
 40
0.57735
 41
5.4977871437821317
 42
8.6393797973719284
  0
ELLIPSE
  5
603
100
AcDbEntity
  8
0
390
0
  6
Continuous
 62
     7
100
AcDbEllipse
 10
265.776659
 20
156.666242
 30
0.0
 11
5.1599999999999984
 21
8.9373821670554179
 31
-0.0000000000000005
210
0.0000000000000001
220
-0.0
230
1.0
 40
0.57735
 41
3.9269908169872476
 42
5.4977871437821317
  0
ELLIPSE
  5
604
100
AcDbEntity
  8
0
390
0
  6
Continuous
 62
     7
100
AcDbEllipse
 10
265.649379
 20
156.739727
 30
0.0
 11
-5.250000000000032
 21
-9.093266739736622
 31
0.0
210
0.0000000000000002
220
-0.0000000000000001
230
1.0
 40
0.57735
 41
3.1415926535898033
 42
5.4977871437821388
  0
ELLIPSE
  5
605
100
AcDbEntity
  8
0
390
0
  6
Continuous
 62
     7
100
AcDbEllipse
 10
265.776659
 20
156.666242
 30
0.0
 11
5.1599999999999984
 21
8.9373821670554179
 31
0.0
210
0.0000000000000002
220
-0.0000000000000001
230
1.0
 40
0.57735
 41
2.3561944901923435
 42
3.9269908169872485
  0
ELLIPSE
  5
606
100
AcDbEntity
  8
0
390
0
  6
Continuous
 62
     7
100
AcDbEllipse
 10
265.649379
 20
156.739727
 30
0.0
 11
-5.250000000000032
 21
-9.093266739736622
 31
0.0
210
0.0000000000000001
220
-0.0
230
1.0
 40
0.57735
 41
5.4977871437821388
 42
6.2831853071795853
  0
ELLIPSE
  5
607
100
AcDbEntity
  8
0
390
0
  6
Continuous
 62
     7
100
AcDbEllipse
 10
265.649379
 20
156.739727
 30
0.0
 11
-5.250000000000032
 21
-9.093266739736622
 31
0.0
210
0.0000000000000001
220
-0.0
230
1.0
 40
0.57735
 41
2.3561944901923413
 42
3.1415926535898033
  0
ELLIPSE
  5
608
100
AcDbEntity
  8
0
390
0
  6
Continuous
 62
     7
100
AcDbEllipse
 10
256.570128
 20
161.981635
 30
0.0
 11
5.2499999999999769
 21
9.0932667397365936
 31
0.0
210
0.0000000000000001
220
-0.0
230
1.0
 40
0.57735
 41
2.3561944901923444
 42
3.1415926535897842
  0
ELLIPSE
  5
609
100
AcDbEntity
  8
0
390
0
  6
Continuous
 62
     7
100
AcDbEllipse
 10
265.776659
 20
156.666242
 30
0.0
 11
-4.1399999999999775
 21
-7.1706903433351457
 31
0.0
210
0.0000000000000001
220
-0.0
230
1.0
 40
0.57735
 41
3.9269908169872458
 42
5.4977871437821353
  0
ELLIPSE
  5
60A
100
AcDbEntity
  8
0
390
0
  6
Continuous
 62
     7
100
AcDbEllipse
 10
265.776659
 20
156.666242
 30
0.0
 11
-4.1399999999999775
 21
-7.1706903433351457
 31
0.0000000000000004
210
0.0000000000000001
220
-0.0
230
1.0
 40
0.57735
 41
5.4977871437821353
 42
10.210176124166832
  0
ELLIPSE
  5
60B
100
AcDbEntity
  8
0
390
0
  6
Continuous
 62
     7
100
AcDbEllipse
 10
265.649379
 20
156.739727
 30
0.0
 11
4.049999999999998
 21
7.0148057706539699
 31
0.0
210
0.0000000000000001
220
-0.0
230
1.0
 40
0.57735
 41
2.3672447728763011
 42
3.1415926535897913
  0
ELLIPSE
  5
60C
100
AcDbEntity
  8
0
390
0
  6
Continuous
 62
     7
100
AcDbEllipse
 10
265.649379
 20
156.739727
 30
0.0
 11
4.049999999999998
 21
7.0148057706539699
 31
0.0
210
0.0000000000000001
220
-0.0
230
1.0
 40
0.57735
 41
0.0
 42
0.7743478810016689
  0
ELLIPSE
  5
60D
100
AcDbEntity
  8
0
390
0
  6
Continuous
 62
     7
100
AcDbEllipse
 10
256.570128
 20
161.981635
 30
0.0
 11
5.2499999999999769
 21
9.0932667397365936
 31
-0.0000000000000005
210
0.0000000000000001
220
-0.0
230
1.0
 40
0.57735
 41
1.4489871311101894
 42
2.3561944901923439
  0
ELLIPSE
  5
60E
100
AcDbEntity
  8
0
390
0
  6
Continuous
 62
     7
100
AcDbEllipse
 10
256.442849
 20
162.05512
 30
0.0
 11
-5.1599999999999984
 21
-8.9373821670554179
 31
0.0
210
0.0000000000000001
220
-0.0
230
1.0
 40
0.57735
 41
4.588329928339137
 42
5.4977871437821353
  0
ELLIPSE
  5
60F
100
AcDbEntity
  8
0
390
0
  6
Continuous
 62
     7
100
AcDbEllipse
 10
256.442849
 20
176.26216
 30
0.0
 11
5.1599999999999984
 21
-8.9373821670553912
 31
0.0
210
0.0000000000000001
220
0.0
230
1.0
 40
0.57735
 41
5.9074350409552379
 42
7.0685834705770336
  0
ELLIPSE
  5
610
100
AcDbEntity
  8
0
390
0
  6
Continuous
 62
     7
100
AcDbEllipse
 10
256.570128
 20
176.335645
 30
0.0
 11
-5.250000000000032
 21
9.093266739736622
 31
0.0000000000000005
210
0.0000000000000001
220
0.0
230
1.0
 40
0.57735
 41
0.000000000000006
 42
0.4170552942857727
  0
ELLIPSE
  5
611
100
AcDbEntity
  8
0
390
0
  6
Continuous
 62
     7
100
AcDbEllipse
 10
256.442849
 20
176.26216
 30
0.0
 11
5.1599999999999984
 21
-8.9373821670553912
 31
-0.0000000000000005
210
0.0
220
-0.0
230
1.0
 40
0.57735
 41
0.7853981633974485
 42
3.5173429198141388
  0
ELLIPSE
  5
612
100
AcDbEntity
  8
0
390
0
  6
Continuous
 62
     7
100
AcDbEllipse
 10
256.570128
 20
176.335645
 30
0.0
 11
-5.250000000000032
 21
9.093266739736622
 31
0.0000000000000005
210
0.0000000000000001
220
0.0
230
1.0
 40
0.57735
 41
3.1415926535897896
 42
3.9269908169872401
  0
ELLIPSE
  5
613
100
AcDbEntity
  8
0
390
0
  6
Continuous
 62
     7
100
AcDbEllipse
 10
265.649379
 20
181.577553
 30
0.0
 11
5.2499999999999769
 21
-9.093266739736622
 31
-0.0000000000000005
210
0.0000000000000001
220
0.0
230
1.0
 40
0.57735
 41
6.28318530717958
 42
7.0685834705770336
  0
ELLIPSE
  5
614
100
AcDbEntity
  8
0
390
0
  6
Continuous
 62
     7
100
AcDbEllipse
 10
256.570128
 20
176.335645
 30
0.0
 11
-5.250000000000032
 21
9.093266739736622
 31
0.0000000000000005
210
0.0000000000000001
220
0.0
230
1.0
 40
0.57735
 41
3.9269908169872396
 42
6.2831853071795924
  0
ELLIPSE
  5
615
100
AcDbEntity
  8
0
390
0
  6
Continuous
 62
     7
100
AcDbEllipse
 10
256.570128
 20
176.335645
 30
0.0
 11
-5.250000000000032
 21
9.093266739736622
 31
0.0000000000000005
210
0.0000000000000001
220
0.0
230
1.0
 40
0.57735
 41
2.7245373593040094
 42
3.1415926535897896
  0
ELLIPSE
  5
616
100
AcDbEntity
  8
0
390
0
  6
Continuous
 62
     7
100
AcDbEllipse
 10
265.649379
 20
181.577553
 30
0.0
 11
5.2499999999999769
 21
-9.093266739736622
 31
-0.0000000000000005
210
0.0000000000000001
220
0.0
230
1.0
 40
0.57735
 41
0.7853981633974491
 42
2.3561944901923431
  0
ELLIPSE
  5
617
100
AcDbEntity
  8
0
390
0
  6
Continuous
 62
     7
100
AcDbEllipse
 10
265.649379
 20
181.577553
 30
0.0
 11
5.2499999999999769
 21
-9.093266739736622
 31
-0.0000000000000005
210
0.0000000000000001
220
0.0
230
1.0
 40
0.57735
 41
2.3561944901923431
 42
3.1415926535897989
  0
ELLIPSE
  5
618
100
AcDbEntity
  8
0
390
0
  6
Continuous
 62
     7
100
AcDbEllipse
 10
265.776659
 20
181.651038
 30
0.0
 11
-5.1599999999999984
 21
8.9373821670554179
 31
0.0000000000000005
210
0.0
220
-0.0
230
1.0
 40
0.57735
 41
3.9269908169872432
 42
5.4977871437821317
  0
LINE
  5
619
100
AcDbEntity
  8
0
390
0
  6
Continuous
 62
     7
100
AcDbLine
 10
265.649379
 20
148.166513
 30
0.0
 11
265.776659
 21
148.239998
 31
0.0
  0
LINE
  5
61A
100
AcDbEntity
  8
0
390
0
  6
Continuous
 62
     7
100
AcDbLine
 10
273.074001
 20
160.879365
 30
0.0
 11
273.074001
 21
161.026334
 31
0.0
  0
LINE
  5
61B
100
AcDbEntity
  8
0
390
0
  6
Continuous
 62
     7
100
AcDbLine
 10
249.145507
 20
157.841997
 30
0.0
 11
249.145507
 21
157.695028
 31
0.0
  0
LINE
  5
61C
100
AcDbEntity
  8
0
390
0
  6
Continuous
 62
     7
100
AcDbLine
 10
273.074001
 20
177.290946
 30
0.0
 11
273.074001
 21
177.437915
 31
0.0
  0
LINE
  5
61D
100
AcDbEntity
  8
0
390
0
  6
Continuous
 62
     7
100
AcDbLine
 10
265.776659
 20
190.077282
 30
0.0
 11
265.649379
 21
190.150767
 31
0.0
  0
CIRCLE
  5
61E
100
AcDbEntity
  8
0
390
0
  6
Continuous
 62
     7
100
AcDbCircle
 10
87.21474
 20
145.006158
 30
0.0
 40
16.0
210
0.0
220
0.0
230
1.0
  0
LINE
  5
61F
100
AcDbEntity
  8
0
390
0
  6
Continuous
 62
     7
100
AcDbLine
 10
66.21474
 20
89.006158
 30
0.0
 11
66.21474
 21
121.006158
 31
0.0
  0
LINE
  5
620
100
AcDbEntity
  8
0
390
0
  6
DOT
 62
     2
100
AcDbLine
 10
66.71474
 20
97.506158
 30
0.0
 11
66.71474
 21
112.506158
 31
0.0
  0
LINE
  5
621
100
AcDbEntity
  8
0
390
0
  6
DOT
 62
     2
100
AcDbLine
 10
97.71474
 20
112.506158
 30
0.0
 11
97.71474
 21
97.506158
 31
0.0
  0
LINE
  5
622
100
AcDbEntity
  8
0
390
0
  6
DOT
 62
     2
100
AcDbLine
 10
77.239646
 20
147.106158
 30
0.0
 11
72.714646
 21
147.106158
 31
0.0
  0
LINE
  5
623
100
AcDbEntity
  8
0
390
0
  6
DOT
 62
     2
100
AcDbLine
 10
72.714646
 20
142.906158
 30
0.0
 11
77.239646
 21
142.906158
 31
0.0
  0
LINE
  5
624
100
AcDbEntity
  8
0
390
0
  6
Continuous
 62
     7
100
AcDbLine
 10
159.576969
 20
129.006158
 30
0.0
 11
159.576969
 21
161.006158
 31
0.0
  0
LINE
  5
625
100
AcDbEntity
  8
0
390
0
  6
DOT
 62
     2
100
AcDbLine
 10
160.076969
 20
137.506158
 30
0.0
 11
160.076969
 21
152.506158
 31
0.0
  0
LINE
  5
626
100
AcDbEntity
  8
0
390
0
  6
DOT
 62
     2
100
AcDbLine
 10
191.076969
 20
152.506158
 30
0.0
 11
191.076969
 21
137.506158
 31
0.0
  0
LINE
  5
627
100
AcDbEntity
  8
0
390
0
  6
DOT
 62
     2
100
AcDbLine
 10
195.077066
 20
107.506153
 30
0.0
 11
193.843469
 21
107.506153
 31
0.0
  0
ELLIPSE
  5
628
100
AcDbEntity
  8
0
390
0
  6
Continuous
 62
     7
100
AcDbEllipse
 10
252.200208
 20
164.504609
 30
0.0
 11
-4.7999999999999989
 21
-8.3138438763306066
 31
0.0
210
0.0000000000000001
220
-0.0
230
1.0
 40
0.57735
 41
5.4977871437821353
 42
6.283185307179588
  0
ELLIPSE
  5
629
100
AcDbEntity
  8
0
390
0
  6
Continuous
 62
     7
100
AcDbEllipse
 10
252.200208
 20
164.504609
 30
0.0
 11
-4.7999999999999989
 21
-8.3138438763306066
 31
0.0
210
0.0000000000000001
220
-0.0
230
1.0
 40
0.57735
 41
4.4742812252018771
 42
5.4977871437821371
  0
ELLIPSE
  5
62A
100
AcDbEntity
  8
0
390
0
  6
Continuous
 62
     7
100
AcDbEllipse
 10
252.200208
 20
173.81267
 30
0.0
 11
4.8000000000000265
 21
-8.3138438763306066
 31
-0.0000000000000004
210
0.0000000000000001
220
0.0
230
1.0
 40
0.57735
 41
0.7853981633974438
 42
3.1415926535897869
  0
LINE
  5
62B
100
AcDbEntity
  8
0
390
0
  6
DOT
 62
     2
100
AcDbLine
 10
72.714646
 20
147.506163
 30
0.0
 11
72.714646
 21
142.506153
 31
0.0
  0
LINE
  5
62C
100
AcDbEntity
  8
0
390
0
  6
DOT
 62
     2
100
AcDbLine
 10
89.714745
 20
159.506252
 30
0.0
 11
84.714735
 21
159.506252
 31
0.0
  0
ARC
  5
62D
100
AcDbEntity
  8
0
390
0
  6
DOT
 62
     2
100
AcDbCircle
 10
71.21474
 20
119.577924
 30
0.0
 40
7.500657
210
0.0
220
0.0
230
1.0
100
AcDbArc
 50
250.530593
 51
289.469407
  0
CIRCLE
  5
62E
100
AcDbEntity
  8
0
390
0
  6
DOT
 62
     2
100
AcDbCircle
 10
87.21474
 20
145.006158
 30
0.0
 40
13.2
210
0.0
220
0.0
230
1.0
  0
LINE
  5
62F
100
AcDbEntity
  8
0
390
0
  6
DOT
 62
     2
100
AcDbLine
 10
71.411259
 20
142.506163
 30
0.0
 11
72.714626
 21
142.506163
 31
0.0
  0
LINE
  5
630
100
AcDbEntity
  8
0
390
0
  6
DOT
 62
     2
100
AcDbLine
 10
97.91474
 20
91.506158
 30
0.0
 11
98.21474
 21
91.806158
 31
0.0
  0
LINE
  5
631
100
AcDbEntity
  8
0
390
0
  6
DOT
 62
     2
100
AcDbLine
 10
98.21474
 20
118.206158
 30
0.0
 11
97.91474
 21
118.506158
 31
0.0
  0
LINE
  5
632
100
AcDbEntity
  8
0
390
0
  6
DOT
 62
     2
100
AcDbLine
 10
195.077063
 20
102.506153
 30
0.0
 11
195.077063
 21
107.506163
 31
0.0
  0
CIRCLE
  5
633
100
AcDbEntity
  8
0
390
0
  6
Continuous
 62
     7
100
AcDbCircle
 10
180.576969
 20
105.006158
 30
0.0
 40
13.5
210
0.0
220
0.0
230
1.0
  0
CIRCLE
  5
634
100
AcDbEntity
  8
0
390
0
  6
Continuous
 62
     7
100
AcDbCircle
 10
180.576969
 20
105.006158
 30
0.0
 40
13.5
210
0.0
220
0.0
230
1.0
  0
CIRCLE
  5
635
100
AcDbEntity
  8
0
390
0
  6
Continuous
 62
     7
100
AcDbCircle
 10
180.576969
 20
105.006158
 30
0.0
 40
13.2
210
0.0
220
0.0
230
1.0
  0
LINE
  5
636
100
AcDbEntity
  8
0
390
0
  6
DOT
 62
     2
100
AcDbLine
 10
178.076974
 20
119.506255
 30
0.0
 11
178.076974
 21
118.272658
 31
0.0
  0
LINE
  5
637
100
AcDbEntity
  8
0
390
0
  6
DOT
 62
     2
100
AcDbLine
 10
166.676969
 20
154.981252
 30
0.0
 11
167.076969
 21
155.381252
 31
0.0
  0
LINE
  5
638
100
AcDbEntity
  8
0
390
0
  6
DOT
 62
     2
100
AcDbLine
 10
191.276969
 20
131.506158
 30
0.0
 11
191.576969
 21
131.806158
 31
0.0
  0
LINE
  5
639
100
AcDbEntity
  8
0
390
0
  6
DOT
 62
     2
100
AcDbLine
 10
191.576969
 20
158.206158
 30
0.0
 11
191.276969
 21
158.506158
 31
0.0
  0
ELLIPSE
  5
63A
100
AcDbEntity
  8
0
390
0
  6
Continuous
 62
     7
100
AcDbEllipse
 10
265.649379
 20
156.739727
 30
0.0
 11
4.049999999999998
 21
7.0148057706539699
 31
0.0
210
0.0000000000000001
220
-0.0
230
1.0
 40
0.57735
 41
3.1415926535897918
 42
3.9269908169872325
  0
ELLIPSE
  5
63B
100
AcDbEntity
  8
0
390
0
  6
Continuous
 62
     7
100
AcDbEllipse
 10
265.649379
 20
156.739727
 30
0.0
 11
4.049999999999998
 21
7.0148057706539699
 31
0.0
210
0.0000000000000001
220
-0.0
230
1.0
 40
0.57735
 41
5.4977871437821459
 42
6.2831853071795862
  0
ELLIPSE
  5
63C
100
AcDbEntity
  8
0
390
0
  6
Continuous
 62
     7
100
AcDbEllipse
 10
265.649379
 20
156.739727
 30
0.0
 11
-4.049999999999998
 21
-7.0148057706539424
 31
0.0000000000000004
210
0.0000000000000001
220
-0.0
230
1.0
 40
0.57735
 41
0.0
 42
0.7853981633974414
  0
ELLIPSE
  5
63D
100
AcDbEntity
  8
0
390
0
  6
Continuous
 62
     7
100
AcDbEllipse
 10
265.776659
 20
156.666242
 30
0.0
 11
3.9600000000000191
 21
6.8589211979727676
 31
0.0
210
0.0000000000000001
220
-0.0
230
1.0
 40
0.57735
 41
5.4977871437821468
 42
8.639379797371932
  0
ELLIPSE
  5
63E
100
AcDbEntity
  8
0
390
0
  6
Continuous
 62
     7
100
AcDbEllipse
 10
265.776659
 20
156.666242
 30
0.0
 11
3.9600000000000191
 21
6.8589211979727676
 31
-0.0000000000000004
210
0.0000000000000001
220
-0.0
230
1.0
 40
0.57735
 41
3.9269908169872312
 42
5.4977871437821468
  0
ELLIPSE
  5
63F
100
AcDbEntity
  8
0
390
0
  6
Continuous
 62
     7
100
AcDbEllipse
 10
265.649379
 20
156.739727
 30
0.0
 11
-4.049999999999998
 21
-7.0148057706539424
 31
0.0000000000000004
210
0.0000000000000001
220
-0.0
230
1.0
 40
0.57735
 41
3.141592653589794
 42
3.9159405347662806
  0
ELLIPSE
  5
640
100
AcDbEntity
  8
0
390
0
  6
Continuous
 62
     7
100
AcDbEllipse
 10
265.776659
 20
156.666242
 30
0.0
 11
3.9600000000000191
 21
6.8589211979727676
 31
0.0
210
0.0000000000000001
220
-0.0
230
1.0
 40
0.57735
 41
2.3561944901923471
 42
3.9269908169872312
  0
ELLIPSE
  5
641
100
AcDbEntity
  8
0
390
0
  6
Continuous
 62
     7
100
AcDbEllipse
 10
265.649379
 20
156.739727
 30
0.0
 11
-4.049999999999998
 21
-7.0148057706539424
 31
0.0
210
0.0000000000000001
220
-0.0
230
1.0
 40
0.57735
 41
5.5088374259422732
 42
6.2831853071795862
  0
ELLIPSE
  5
642
100
AcDbEntity
  8
0
390
0
  6
Continuous
 62
     7
100
AcDbEllipse
 10
265.649379
 20
156.739727
 30
0.0
 11
-4.049999999999998
 21
-7.0148057706539424
 31
0.0
210
0.0000000000000001
220
-0.0
230
1.0
 40
0.57735
 41
2.3561944901923551
 42
3.1415926535897944
  0
LINE
  5
643
100
AcDbEntity
  8
0
390
0
  6
Continuous
 62
     7
100
AcDbLine
 10
265.649379
 20
150.126105
 30
0.0
 11
265.776659
 21
150.199589
 31
0.0
  0
LINE
  5
644
100
AcDbEntity
  8
0
390
0
  6
Continuous
 62
     7
100
AcDbLine
 10
271.376944
 20
159.899569
 30
0.0
 11
271.376944
 21
160.046538
 31
0.0
  0
ENDSEC
  0
SECTION
  2
OBJECTS
  0
DICTIONARY
  5
19
100
AcDbDictionary
280
     0
281
     1
  3
ACAD_GROUP
350
1A
  3
ACAD_MLINESTYLE
350
1B
  3
ACAD_LAYOUT
350
1E
  3
ACAD_PLOTSETTINGS
350
22
  3
ACAD_PLOTSTYLENAME
350
1F
  3
ACAD_WIPEOUT_VARS
350
23
  0
DICTIONARY
  5
1A
102
{ACAD_REACTORS
330
19
102
}
100
AcDbDictionary
280
     0
281
     1
  0
DICTIONARY
  5
1B
102
{ACAD_REACTORS
330
19
102
}
100
AcDbDictionary
280
     0
281
     1
  3
Standard
350
1C
  0
MLINESTYLE
  5
1C
102
{ACAD_REACTORS
330
1B
102
}
100
AcDbMlineStyle
  2
Standard
 70
     0
  3

 62
     0
 51
90.0
 52
90.0
 71
     2
 49
0.5
 62
   256
  6
ByLayer
 49
-0.5
 62
   256
  6
ByLayer
  0
ACDBDICTIONARYWDFLT
  5
1F
102
{ACAD_REACTORS
330
19
102
}
100
AcDbDictionary
281
     1
  3
Normal
350
1D
100
AcDbDictionaryWithDefault
340
1D
  0
ACDBPLACEHOLDER
  5
1D
102
{ACAD_REACTORS
330
1F
102
}
  0
LAYOUT
  5
20
102
{ACAD_REACTORS
330
1E
102
}
100
AcDbPlotSettings
  1

  2

  4

  6

 40
0.0
 41
0.0
 42
0.0
 43
0.0
 44
0.0
 45
0.0
 46
0.0
 47
0.0
 48
0.0
 49
0.0
140
0.0
141
0.0
142
1.0
143
1.0
 70
  1024
 72
     0
 73
     0
 74
     0
  7

 75
     0
147
1.0
148
0.0
149
0.0
100
AcDbLayout
  1
Model
 70
     0
 71
     1
 10
0.0
 20
0.0
 11
0.0
 21
0.0
 12
0.0
 22
0.0
 32
0.0
 14
0.0
 24
0.0
 34
0.0
 15
0.0
 25
0.0
 35
0.0
146
0.0
 13
0.0
 23
0.0
 33
0.0
 16
0.0
 26
0.0
 36
0.0
 17
0.0
 27
0.0
 37
0.0
 76
     0
330
A
331
0
345
0
346
0
  0
LAYOUT
  5
21
102
{ACAD_REACTORS
330
1E
102
}
100
AcDbPlotSettings
  1

  2

  4

  6

 40
0.0
 41
0.0
 42
0.0
 43
0.0
 44
0.0
 45
0.0
 46
0.0
 47
0.0
 48
0.0
 49
0.0
140
0.0
141
0.0
142
1.0
143
1.0
 70
     0
 72
     0
 73
     0
 74
     0
  7

 75
     0
147
1.0
148
0.0
149
0.0
100
AcDbLayout
  1
Layout1
 70
     0
 71
     2
 10
0.0
 20
0.0
 11
0.0
 21
0.0
 12
0.0
 22
0.0
 32
0.0
 14
0.0
 24
0.0
 34
0.0
 15
0.0
 25
0.0
 35
0.0
146
0.0
 13
0.0
 23
0.0
 33
0.0
 16
0.0
 26
0.0
 36
0.0
 17
0.0
 27
0.0
 37
0.0
 76
     0
330
B
331
0
345
0
346
0
  0
DICTIONARY
  5
1E
102
{ACAD_REACTORS
330
19
102
}
100
AcDbDictionary
280
     0
281
     1
  3
Layout1
350
21
  3
Model
350
20
  0
DICTIONARY
  5
22
102
{ACAD_REACTORS
330
19
102
}
100
AcDbDictionary
280
     0
281
     1
  0
WIPEOUTVARIABLES
  5
23
100
AcDbWipeoutVariables
 70
     1
  0
ENDSEC
  0
EOF
