  0
SECTION
  2
HEADER
  9
$ACADVER
  1
AC1015
  9
$ACADMAINTVER
 70
     6
  9
$DWGCODEPAGE
  3
DOS932
  9
$INSBASE
 10
0.0
 20
0.0
 30
0.0
  9
$EXTMIN
 10
37.750892
 20
71.656581
 30
0.0
  9
$EXTMAX
 10
240.233648
 20
196.150339
 30
0.0
  9
$LIMMIN
 10
37.750892
 20
71.656581
  9
$LIMMAX
 10
240.233648
 20
196.150339
  9
$ORTHOMODE
 70
     0
  9
$REGENMODE
 70
     1
  9
$FILLMODE
 70
     1
  9
$QTEXTMODE
 70
     0
  9
$MIRRTEXT
 70
     1
  9
$LTSCALE
 40
10.0
  9
$ATTMODE
 70
     1
  9
$TEXTSIZE
 40
0.2
  9
$TRACEWID
 40
0.05
  9
$TEXTSTYLE
  7
Standard
  9
$CLAYER
  8
0
  9
$CELTYPE
  6
Continuous
  9
$CECOLOR
 62
   256
  9
$CELTSCALE
 40
1.0
  9
$DISPSILH
 70
     0
  9
$DIMSCALE
 40
1.0
  9
$DIMASZ
 40
1.05
  9
$DIMEXO
 40
1.05
  9
$DIMDLI
 40
0.38
  9
$DIMRND
 40
0.0
  9
$DIMDLE
 40
0.0
  9
$DIMEXE
 40
1.05
  9
$DIMTP
 40
0.0
  9
$DIMTM
 40
0.0
  9
$DIMTXT
 40
3.5
  9
$DIMCEN
 40
0.09
  9
$DIMTSZ
 40
0.0
  9
$DIMTOL
 70
     0
  9
$DIMLIM
 70
     0
  9
$DIMTIH
 70
     0
  9
$DIMTOH
 70
     0
  9
$DIMSE1
 70
     0
  9
$DIMSE2
 70
     0
  9
$DIMTAD
 70
     1
  9
$DIMZIN
 70
     0
  9
$DIMBLK
  1

  9
$DIMASO
 70
     1
  9
$DIMSHO
 70
     1
  9
$DIMPOST
  1

  9
$DIMAPOST
  1

  9
$DIMALT
 70
     0
  9
$DIMALTD
 70
     2
  9
$DIMALTF
 40
25.4
  9
$DIMLFAC
 40
1.0
  9
$DIMTOFL
 70
     0
  9
$DIMTVP
 40
0.0
  9
$DIMTIX
 70
     0
  9
$DIMSOXD
 70
     0
  9
$DIMSAH
 70
     0
  9
$DIMBLK1
  1

  9
$DIMBLK2
  1

  9
$DIMSTYLE
  2
Standard
  9
$DIMCLRD
 70
     7
  9
$DIMCLRE
 70
     7
  9
$DIMCLRT
 70
     7
  9
$DIMTFAC
 40
0.5
  9
$DIMGAP
 40
1.75
  9
$DIMJUST
 70
     0
  9
$DIMSD1
 70
     0
  9
$DIMSD2
 70
     0
  9
$DIMTOLJ
 70
     1
  9
$DIMTZIN
 70
     0
  9
$DIMALTZ
 70
     0
  9
$DIMALTTZ
 70
     0
  9
$DIMUPT
 70
     0
  9
$DIMDEC
 70
     1
  9
$DIMTDEC
 70
     4
  9
$DIMALTU
 70
     2
  9
$DIMALTTD
 70
     2
  9
$DIMTXSTY
  7
Standard
  9
$DIMAUNIT
 70
     0
  9
$DIMADEC
 70
     0
  9
$DIMALTRND
 40
0.0
  9
$DIMAZIN
 70
     0
  9
$DIMDSEP
 70
     0
  9
$DIMATFIT
 70
     3
  9
$DIMFRAC
 70
     0
  9
$DIMLDRBLK
  1

  9
$DIMLUNIT
 70
     2
  9
$DIMLWD
 70
     0
  9
$DIMLWE
 70
     0
  9
$DIMTMOVE
 70
     0
  9
$LUNITS
 70
     2
  9
$LUPREC
 70
     4
  9
$SKETCHINC
 40
0.1
  9
$FILLETRAD
 40
0.0
  9
$AUNITS
 70
     0
  9
$AUPREC
 70
     0
  9
$MENU
  1
acad
  9
$ELEVATION
 40
0.0
  9
$PELEVATION
 40
0.0
  9
$THICKNESS
 40
0.0
  9
$LIMCHECK
 70
     0
  9
$CHAMFERA
 40
0.0
  9
$CHAMFERB
 40
0.0
  9
$CHAMFERC
 40
0.0
  9
$CHAMFERD
 40
0.0
  9
$SKPOLY
 70
     0
  9
$TDCREATE
 40
2458841.557361111
  9
$TDUCREATE
 40
0.000000000
  9
$TDUPDATE
 40
2458841.182048611
  9
$TDUUPDATE
 40
0.000000000
  9
$TDINDWG
 40
0.0000000000
  9
$TDUSRTIMER
 40
0.0000000000
  9
$USRTIMER
 70
     1
  9
$ANGBASE
 50
0.0
  9
$ANGDIR
 70
     0
  9
$PDMODE
 70
     0
  9
$PDSIZE
 40
0.0
  9
$PLINEWID
 40
0.0
  9
$SPLFRAME
 70
     0
  9
$SPLINETYPE
 70
     6
  9
$SPLINESEGS
 70
     8
  9
$HANDSEED
  5
232
  9
$SURFTAB1
 70
     6
  9
$SURFTAB2
 70
     6
  9
$SURFTYPE
 70
     6
  9
$SURFU
 70
     6
  9
$SURFV
 70
     6
  9
$UCSBASE
  2

  9
$UCSNAME
  2

  9
$UCSORG
 10
0.0
 20
0.0
 30
0.0
  9
$UCSXDIR
 10
1.0
 20
0.0
 30
0.0
  9
$UCSYDIR
 10
0.0
 20
1.0
 30
0.0
  9
$UCSORTHOREF
  2

  9
$UCSORTHOVIEW
 70
     0
  9
$UCSORGTOP
 10
0.0
 20
0.0
 30
0.0
  9
$UCSORGBOTTOM
 10
0.0
 20
0.0
 30
0.0
  9
$UCSORGLEFT
 10
0.0
 20
0.0
 30
0.0
  9
$UCSORGRIGHT
 10
0.0
 20
0.0
 30
0.0
  9
$UCSORGFRONT
 10
0.0
 20
0.0
 30
0.0
  9
$UCSORGBACK
 10
0.0
 20
0.0
 30
0.0
  9
$PUCSBASE
  2

  9
$PUCSNAME
  2

  9
$PUCSORG
 10
0.0
 20
0.0
 30
0.0
  9
$PUCSXDIR
 10
1.0
 20
0.0
 30
0.0
  9
$PUCSYDIR
 10
0.0
 20
1.0
 30
0.0
  9
$PUCSORTHOREF
  2

  9
$PUCSORTHOVIEW
 70
     0
  9
$PUCSORGTOP
 10
0.0
 20
0.0
 30
0.0
  9
$PUCSORGBOTTOM
 10
0.0
 20
0.0
 30
0.0
  9
$PUCSORGLEFT
 10
0.0
 20
0.0
 30
0.0
  9
$PUCSORGRIGHT
 10
0.0
 20
0.0
 30
0.0
  9
$PUCSORGFRONT
 10
0.0
 20
0.0
 30
0.0
  9
$PUCSORGBACK
 10
0.0
 20
0.0
 30
0.0
  9
$USERI1
 70
     0
  9
$USERI2
 70
     0
  9
$USERI3
 70
     0
  9
$USERI4
 70
     0
  9
$USERI5
 70
     0
  9
$USERR1
 40
0.0
  9
$USERR2
 40
0.0
  9
$USERR3
 40
0.0
  9
$USERR4
 40
0.0
  9
$USERR5
 40
0.0
  9
$WORLDVIEW
 70
     1
  9
$SHADEDGE
 70
     3
  9
$SHADEDIF
 70
    70
  9
$TILEMODE
 70
     1
  9
$MAXACTVP
 70
    16
  9
$PINSBASE
 10
0.0
 20
0.0
 30
0.0
  9
$PLIMCHECK
 70
     0
  9
$PEXTMIN
 10
1.000000E+20
 20
1.000000E+20
 30
1.000000E+20
  9
$PEXTMAX
 10
-1.000000E+20
 20
-1.000000E+20
 30
-1.000000E+20
  9
$PLIMMIN
 10
0.0
 20
0.0
  9
$PLIMMAX
 10
12.0
 20
9.0
  9
$UNITMODE
 70
     0
  9
$VISRETAIN
 70
     0
  9
$PLINEGEN
 70
     1
  9
$PSLTSCALE
 70
     0
  9
$TREEDEPTH
 70
  3020
  9
$CMLSTYLE
  2
Standard
  9
$CMLJUST
 70
     0
  9
$CMLSCALE
 40
1.0
  9
$PROXYGRAPHICS
 70
     0
  9
$MEASUREMENT
 70
     1
  9
$CELWEIGHT
370
     0
  9
$ENDCAPS
280
     0
  9
$JOINSTYLE
280
     0
  9
$LWDISPLAY
290
     0
  9
$INSUNITS
 70
     0
  9
$HYPERLINKBASE
  1

  9
$STYLESHEET
  1

  9
$XEDIT
290
     1
  9
$CEPSNTYPE
380
     0
  9
$PSTYLEMODE
290
     1
  9
$FINGERPRINTGUID
  2

  9
$VERSIONGUID
  2

  9
$EXTNAMES
290
     1
  9
$PSVPSCALE
 40
0.0
  0
ENDSEC
  0
SECTION
  2
CLASSES
  0
CLASS
  1
LWPOLYLINE
  2
AcDbPolyline
  3
AutoCAD 2000
 90
        0
280
     0
281
     1
  0
CLASS
  1
IMAGE
  2
AcDbRasterImage
  3
ISM
 90
      127
280
     0
281
     1
  0
CLASS
  1
OLE2FRAME
  2
AcDbOle2Frame
  3
AutoCAD 2000
 90
        0
280
     0
281
     1
  0
CLASS
  1
HATCH
  2
AcDbHatch
  3
AutoCAD 2000
 90
        0
280
     0
281
     1
  0
CLASS
  1
DICTIONARYVAR
  2
AcDbDictionaryVar
  3
AutoCAD 2000
 90
        0
280
     0
281
     0
  0
CLASS
  1
RASTERVARIABLES
  2
AcDbRasterVariables
  3
ISM
 90
        0
280
     0
281
     0
  0
CLASS
  1
IMAGEDEF
  2
AcDbRasterImageDef
  3
ISM
 90
        0
280
     0
281
     0
  0
CLASS
  1
IMAGEDEF_REACTOR
  2
AcDbRasterImageDefReactor
  3
ISM
 90
        1
280
     0
281
     0
  0
CLASS
  1
IDBUFFER
  2
AcDbIdBuffer
  3
AutoCAD 2000
 90
        0
280
     0
281
     0
  0
CLASS
  1
SPATIAL_FILTER
  2
AcDbSpatialFilter
  3
AutoCAD 2000
 90
        0
280
     0
281
     0
  0
CLASS
  1
XRECORD
  2
AcDbXrecord
  3
AutoCAD 2000
 90
        0
280
     0
281
     0
  0
CLASS
  1
SORTENTSTABLE
  2
AcDbSortentsTable
  3
AutoCAD 2000
 90
        0
280
     0
281
     0
  0
CLASS
  1
LAYER_INDEX
  2
AcDbLayerIndex
  3
AutoCAD 2000
 90
        0
280
     0
281
     0
  0
CLASS
  1
SPATIAL_INDEX
  2
AcDbSpatialIndex
  3
AutoCAD 2000
 90
        0
280
     0
281
     0
  0
CLASS
  1
OBJECT_PTR
  2
CAseDLPNTableRecord
  3
"ASE-LPNTableRecord"
 90
        1
280
     0
281
     0
  0
CLASS
  1
LAYOUT
  2
AcDbLayout
  3
AutoCAD 2000
 90
        0
280
     0
281
     0
  0
CLASS
  1
PLOTSETTINGS
  2
AcDbPlotSettings
  3
AutoCAD 2000
 90
        0
280
     0
281
     0
  0
CLASS
  1
ACDBDICTIONARYWDFLT
  2
AcDbDictionaryWithDefault
  3
AutoCAD 2000
 90
        0
280
     0
281
     0
  0
CLASS
  1
ACDBPLACEHOLDER
  2
AcDbPlaceHolder
  3
AutoCAD 2000
 90
        0
280
     0
281
     0
  0
CLASS
  1
VBA_PROJECT
  2
AcDbVbaProject
  3
acadvba
 90
        0
280
     0
281
     0
  0
CLASS
  1
WIPEOUT
  2
AcDbWipeout
  3
WipeOut|AutoCAD Express Tool|expresstools@autodesk.com
 90
      127
280
     0
281
     1
  0
CLASS
  1
WIPEOUTVARIABLES
  2
AcDbWipeoutVariables
  3
WipeOut|AutoCAD Express Tool|expresstools@autodesk.com
 90
        0
280
     0
281
     0
  0
CLASS
  1
RTEXT
  2
RText
  3
RText|AutoCAD Express Tool|expresstools@autodesk.com
 90
        0
280
     0
281
     1
  0
CLASS
  1
ARCALIGNEDTEXT
  2
AcDbArcAlignedText
  3
ATEXT|AutoCAD Express Tool|expresstools@autodesk.com
 90
        0
280
     0
281
     1
  0
ENDSEC
  0
SECTION
  2
TABLES
  0
TABLE
  2
VPORT
  5
7
100
AcDbSymbolTable
 70
     1
  0
VPORT
  5
15
100
AcDbSymbolTableRecord
100
AcDbViewportTableRecord
  2
*ACTIVE
 70
     0
 10
0.0
 20
0.0
 11
1.0
 21
1.0
 12
6.591288
 22
4.579184
 13
0.0
 23
0.0
 14
1.0
 24
1.0
 15
0.0
 25
0.0
 16
0.0
 26
0.0
 36
1.0
 17
0.0
 27
0.0
 37
0.0
 40
9.158369
 41
0.688564
 42
50.0
 43
0.0
 44
0.0
 50
0.0
 51
0.0
 71
     0
 72
   100
 73
     1
 74
     1
 75
     0
 76
     0
 77
     0
 78
     0
281
     0
 65
     0
110
0.0
120
0.0
130
0.0
111
1.0
121
0.0
131
0.0
112
0.0
122
1.0
132
0.0
345
0
346
0
 79
     0
146
0.0
  0
ENDTAB
  0
TABLE
  2
LTYPE
  5
4
100
AcDbSymbolTable
 70
     5
  0
LTYPE
  5
11
100
AcDbSymbolTableRecord
100
AcDbLinetypeTableRecord
  2
ByBlock
 70
    64
  3

 72
    65
 73
     0
 40
0.0
  0
LTYPE
  5
12
100
AcDbSymbolTableRecord
100
AcDbLinetypeTableRecord
  2
ByLayer
 70
    64
  3

 72
    65
 73
     0
 40
0.0
  0
LTYPE
  5
13
100
AcDbSymbolTableRecord
100
AcDbLinetypeTableRecord
  2
Continuous
 70
    64
  3
Solid line
 72
    65
 73
     0
 40
0.0
  0
LTYPE
  5
2D
100
AcDbSymbolTableRecord
100
AcDbLinetypeTableRecord
  2
DOT
 70
    64
  3
..............................................
 72
    65
 73
     2
 40
0.5
 49
0.25
 74
     0
 49
-0.25
 74
     0
  0
LTYPE
  5
3C
100
AcDbSymbolTableRecord
100
AcDbLinetypeTableRecord
  2
CENTER
 70
    64
  3
____ _ ____ _ ____ _ ____ _ ____ _ ____ _ ____
 72
    65
 73
     4
 40
2.0
 49
1.25
 74
     0
 49
-0.25
 74
     0
 49
0.25
 74
     0
 49
-0.25
 74
     0
  0
ENDTAB
  0
TABLE
  2
LAYER
  5
2
100
AcDbSymbolTable
 70
     1
  0
LAYER
  5
14
100
AcDbSymbolTableRecord
100
AcDbLayerTableRecord
  2
0
 70
     0
 62
     7
  6
Continuous
290
     1
370
    -3
390
1D
  0
ENDTAB
  0
TABLE
  2
STYLE
  5
3
100
AcDbSymbolTable
 70
     1
  0
STYLE
  5
17
100
AcDbSymbolTableRecord
100
AcDbTextStyleTableRecord
  2
Standard
 70
     0
 40
0.0
 41
1.0
 50
0.0
 71
     0
 42
0.0
  3
ＭＳ Ｐゴシック
  4

1001
ACAD
1000
ＭＳ Ｐゴシック
1071
        1
  0
ENDTAB
  0
TABLE
  2
VIEW
  5
5
100
AcDbSymbolTable
 70
     0
  0
ENDTAB
  0
TABLE
  2
UCS
  5
6
100
AcDbSymbolTable
 70
     0
  0
ENDTAB
  0
TABLE
  2
APPID
  5
8
100
AcDbSymbolTable
 70
     2
  0
APPID
  5
16
100
AcDbSymbolTableRecord
100
AcDbRegAppTableRecord
  2
ACAD
 70
     0
  0
APPID
  5
26
100
AcDbSymbolTableRecord
100
AcDbRegAppTableRecord
  2
TOPsolid_Draft
 70
     0
  0
ENDTAB
  0
TABLE
  2
DIMSTYLE
  5
9
100
AcDbSymbolTable
 70
     1
100
AcDbDimStyleTable
 71
     0
  0
DIMSTYLE
105
18
100
AcDbSymbolTableRecord
100
AcDbDimStyleTableRecord
  2
Standard
 70
     0
  3

  4

 40
1.0
 41
1.05
 42
1.05
 43
0.38
 44
1.05
 45
0.0
 46
0.0
 47
0.0
 48
0.0
 71
     0
 72
     0
 73
     0
 74
     0
 75
     0
 76
     0
 77
     1
 78
     0
 79
     0
140
3.5
141
0.09
142
0.0
143
25.4
144
1.0
145
0.0
146
0.5
147
1.75
148
0.0
170
     0
171
     2
172
     0
173
     0
174
     0
175
     0
176
     7
177
     7
178
     7
179
     0
271
     1
272
     4
273
     2
274
     2
275
     0
276
     0
277
     2
278
    46
279
     0
280
     0
281
     0
282
     0
283
     1
284
     0
285
     0
286
     0
288
     0
289
     3
340
17
341
0
342
0
343
0
344
0
371
    -2
372
    -2
  0
ENDTAB
  0
TABLE
  2
BLOCK_RECORD
  5
1
100
AcDbSymbolTable
 70
    13
  0
BLOCK_RECORD
  5
A
100
AcDbSymbolTableRecord
100
AcDbBlockTableRecord
  2
*MODEL_SPACE
340
20
  0
BLOCK_RECORD
  5
B
100
AcDbSymbolTableRecord
100
AcDbBlockTableRecord
  2
*PAPER_SPACE
340
21
  0
BLOCK_RECORD
  5
3E
100
AcDbSymbolTableRecord
100
AcDbBlockTableRecord
  2
AID45
340
0
102
{BLKREFS
331
52
102
}
  0
BLOCK_RECORD
  5
C7
100
AcDbSymbolTableRecord
100
AcDbBlockTableRecord
  2
AID281
340
0
102
{BLKREFS
331
CB
102
}
  0
BLOCK_RECORD
  5
CD
100
AcDbSymbolTableRecord
100
AcDbBlockTableRecord
  2
*D2
340
0
  0
BLOCK_RECORD
  5
DA
100
AcDbSymbolTableRecord
100
AcDbBlockTableRecord
  2
*D3
340
0
  0
BLOCK_RECORD
  5
EE
100
AcDbSymbolTableRecord
100
AcDbBlockTableRecord
  2
*D4
340
0
  0
BLOCK_RECORD
  5
101
100
AcDbSymbolTableRecord
100
AcDbBlockTableRecord
  2
*D5
340
0
  0
BLOCK_RECORD
  5
113
100
AcDbSymbolTableRecord
100
AcDbBlockTableRecord
  2
*D6
340
0
  0
BLOCK_RECORD
  5
127
100
AcDbSymbolTableRecord
100
AcDbBlockTableRecord
  2
*D7
340
0
  0
BLOCK_RECORD
  5
139
100
AcDbSymbolTableRecord
100
AcDbBlockTableRecord
  2
*D8
340
0
  0
BLOCK_RECORD
  5
14B
100
AcDbSymbolTableRecord
100
AcDbBlockTableRecord
  2
*D9
340
0
  0
BLOCK_RECORD
  5
15D
100
AcDbSymbolTableRecord
100
AcDbBlockTableRecord
  2
*D10
340
0
  0
BLOCK_RECORD
  5
16F
100
AcDbSymbolTableRecord
100
AcDbBlockTableRecord
  2
*D11
340
0
  0
BLOCK_RECORD
  5
181
100
AcDbSymbolTableRecord
100
AcDbBlockTableRecord
  2
*D12
340
0
  0
ENDTAB
  0
ENDSEC
  0
SECTION
  2
BLOCKS
  0
BLOCK
  5
D
100
AcDbEntity
  8
0
390
0
100
AcDbBlockBegin
  2
*MODEL_SPACE
 70
     0
 10
0.0
 20
0.0
 30
0.0
  3
*MODEL_SPACE
  1

  0
ENDBLK
  5
E
100
AcDbEntity
  8
0
390
0
100
AcDbBlockEnd
  0
BLOCK
  5
F
100
AcDbEntity
 67
     1
  8
0
390
0
100
AcDbBlockBegin
  2
*PAPER_SPACE
 70
     0
 10
0.0
 20
0.0
 30
0.0
  3
*PAPER_SPACE
  1

  0
ENDBLK
  5
10
100
AcDbEntity
 67
     1
  8
0
390
0
100
AcDbBlockEnd
  0
BLOCK
  5
3F
100
AcDbEntity
  8
0
390
0
100
AcDbBlockBegin
  2
AID45
 70
     0
 10
0.0
 20
0.0
 30
0.0
  3
#driven cutting polygon
  1

  0
LINE
  5
40
100
AcDbEntity
  8
0
390
0
  6
CENTER
 62
     1
100
AcDbLine
 10
77.250892
 20
71.656581
 30
0.0
 11
77.250892
 21
171.656581
 31
0.0
  0
LINE
  5
41
100
AcDbEntity
  8
0
390
0
  6
Continuous
 62
     7
100
AcDbLine
 10
77.250892
 20
71.656581
 30
0.0
 11
77.250892
 21
66.656581
 31
0.0
  0
LINE
  5
42
100
AcDbEntity
  8
0
390
0
  6
Continuous
 62
     7
100
AcDbLine
 10
87.250892
 20
69.156581
 30
0.0
 11
77.250892
 21
69.156581
 31
0.0
  0
POLYLINE
  5
43
100
AcDbEntity
  8
0
390
0
  6
Continuous
 62
     7
100
AcDb2dPolyline
 66
     1
 10
0.0
 20
0.0
 30
0.0
 40
0.1
 41
0.1
  0
VERTEX
  5
44
100
AcDbEntity
  8
0
390
0
 62
     7
100
AcDbVertex
100
AcDb2dVertex
 10
81.250892
 20
70.406581
 30
0.0
  0
VERTEX
  5
45
100
AcDbEntity
  8
0
390
0
 62
     7
100
AcDbVertex
100
AcDb2dVertex
 10
77.250892
 20
69.156581
 30
0.0
  0
VERTEX
  5
46
100
AcDbEntity
  8
0
390
0
 62
     7
100
AcDbVertex
100
AcDb2dVertex
 10
81.250892
 20
67.906581
 30
0.0
  0
SEQEND
  5
47
100
AcDbEntity
  8
0
390
0
  0
MTEXT
  5
48
100
AcDbEntity
  8
0
390
0
 62
     7
100
AcDbMText
 10
82.500892
 20
71.656581
 30
0.0
 40
5.0
 41
7.090909
 71
     7
 72
     1
  1
A
210
0.0
220
0.0
230
1.0
 73
     1
 44
1.0
  0
LINE
  5
49
100
AcDbEntity
  8
0
390
0
  6
Continuous
 62
     7
100
AcDbLine
 10
77.250892
 20
171.656581
 30
0.0
 11
77.250892
 21
176.656581
 31
0.0
  0
LINE
  5
4A
100
AcDbEntity
  8
0
390
0
  6
Continuous
 62
     7
100
AcDbLine
 10
87.250892
 20
174.156581
 30
0.0
 11
77.250892
 21
174.156581
 31
0.0
  0
POLYLINE
  5
4B
100
AcDbEntity
  8
0
390
0
  6
Continuous
 62
     7
100
AcDb2dPolyline
 66
     1
 10
0.0
 20
0.0
 30
0.0
 40
0.1
 41
0.1
  0
VERTEX
  5
4C
100
AcDbEntity
  8
0
390
0
 62
     7
100
AcDbVertex
100
AcDb2dVertex
 10
81.250892
 20
172.906581
 30
0.0
  0
VERTEX
  5
4D
100
AcDbEntity
  8
0
390
0
 62
     7
100
AcDbVertex
100
AcDb2dVertex
 10
77.250892
 20
174.156581
 30
0.0
  0
VERTEX
  5
4E
100
AcDbEntity
  8
0
390
0
 62
     7
100
AcDbVertex
100
AcDb2dVertex
 10
81.250892
 20
175.406581
 30
0.0
  0
SEQEND
  5
4F
100
AcDbEntity
  8
0
390
0
  0
MTEXT
  5
50
100
AcDbEntity
  8
0
390
0
 62
     7
100
AcDbMText
 10
82.500892
 20
176.656581
 30
0.0
 40
5.0
 41
7.090909
 71
     7
 72
     1
  1
A
210
0.0
220
0.0
230
1.0
 73
     1
 44
1.0
  0
ENDBLK
  5
51
100
AcDbEntity
  8
0
390
0
100
AcDbBlockEnd
  0
BLOCK
  5
C8
100
AcDbEntity
  8
0
390
0
100
AcDbBlockBegin
  2
AID281
 70
     0
 10
0.0
 20
0.0
 30
0.0
  3
#draft cross section view
  1

  0
MTEXT
  5
C9
100
AcDbEntity
  8
0
390
0
 62
     7
100
AcDbMText
 10
186.629979
 20
78.156581
 30
0.0
 40
3.0
 41
29.209091
 71
     5
 72
     1
  1
ＳＥＣ A-A
210
0.0
220
0.0
230
1.0
 73
     1
 44
1.0
  0
ENDBLK
  5
CA
100
AcDbEntity
  8
0
390
0
100
AcDbBlockEnd
  0
BLOCK
  5
CE
100
AcDbEntity
  8
0
390
0
100
AcDbBlockBegin
  2
*D2
 70
     1
 10
0.0
 20
0.0
 30
0.0
  3
DI2
  1

  0
MTEXT
  5
CF
100
AcDbEntity
  8
0
390
0
 62
     7
100
AcDbMText
 10
119.636034
 20
88.573558
 30
0.0
 40
3.5
 41
90.840909
 71
     7
 72
     1
  1
\A1;%%c15.0H8\S+0.027^   0;
210
0.0
220
0.0
230
1.0
 73
     1
 44
1.0
  0
MTEXT
  5
D0
100
AcDbEntity
  8
0
390
0
 62
     7
100
AcDbMText
 10
127.304216
 20
88.573558
 30
0.0
 40
3.5
 41
8.336364
 71
     7
 72
     1
  1
H8
210
0.0
220
0.0
230
1.0
 73
     1
 44
1.0
  0
POLYLINE
  5
D1
100
AcDbEntity
  8
0
390
0
  6
Continuous
 62
     7
100
AcDb2dPolyline
 66
     1
 10
0.0
 20
0.0
 30
0.0
 40
0.1
 41
0.1
  0
VERTEX
  5
D2
100
AcDbEntity
  8
0
390
0
 62
     7
100
AcDbVertex
100
AcDb2dVertex
 10
84.850671
 20
114.945798
 30
0.0
  0
VERTEX
  5
D3
100
AcDbEntity
  8
0
390
0
 62
     7
100
AcDbVertex
100
AcDb2dVertex
 10
82.608201
 20
116.407844
 30
0.0
  0
VERTEX
  5
D4
100
AcDbEntity
  8
0
390
0
 62
     7
100
AcDbVertex
100
AcDb2dVertex
 10
84.115848
 20
114.195774
 30
0.0
  0
SEQEND
  5
D5
100
AcDbEntity
  8
0
390
0
  0
LINE
  5
D6
100
AcDbEntity
  8
0
390
0
  6
Continuous
 62
     7
100
AcDbLine
 10
82.608201
 20
116.407844
 30
0.0
 11
113.129216
 21
86.505376
 31
0.0
  0
LINE
  5
D7
100
AcDbEntity
  8
0
390
0
  6
Continuous
 62
     7
100
AcDbLine
 10
113.129216
 20
86.505376
 30
0.0
 11
141.081489
 21
86.505376
 31
0.0
  0
ENDBLK
  5
D8
100
AcDbEntity
  8
0
390
0
100
AcDbBlockEnd
  0
BLOCK
  5
DB
100
AcDbEntity
  8
0
390
0
100
AcDbBlockBegin
  2
*D3
 70
     1
 10
0.0
 20
0.0
 30
0.0
  3
DI3
  1

  0
MTEXT
  5
DC
100
AcDbEntity
  8
0
390
0
 62
     7
100
AcDbMText
 10
84.794074
 20
167.922712
 30
0.0
 40
3.5
 41
61.186364
 71
     7
 72
     1
  1
\A1;5.0\S+0.1^   0;
210
0.0
220
0.0
230
1.0
 73
     1
 44
1.0
  0
LINE
  5
DD
100
AcDbEntity
  8
0
390
0
  6
Continuous
 62
     7
100
AcDbLine
 10
69.500892
 20
166.188622
 30
0.0
 11
94.387255
 21
166.188622
 31
0.0
  0
LINE
  5
DE
100
AcDbEntity
  8
0
390
0
  6
Continuous
 62
     7
100
AcDbLine
 10
74.750892
 20
132.506581
 30
0.0
 11
74.750892
 21
167.238622
 31
0.0
  0
LINE
  5
DF
100
AcDbEntity
  8
0
390
0
  6
Continuous
 62
     7
100
AcDbLine
 10
79.750892
 20
132.506581
 30
0.0
 11
79.750892
 21
167.238622
 31
0.0
  0
POLYLINE
  5
E0
100
AcDbEntity
  8
0
390
0
  6
Continuous
 62
     7
100
AcDb2dPolyline
 66
     1
 10
0.0
 20
0.0
 30
0.0
 40
0.1
 41
0.1
  0
VERTEX
  5
E1
100
AcDbEntity
  8
0
390
0
 62
     7
100
AcDbVertex
100
AcDb2dVertex
 10
72.125892
 20
165.663622
 30
0.0
  0
VERTEX
  5
E2
100
AcDbEntity
  8
0
390
0
 62
     7
100
AcDbVertex
100
AcDb2dVertex
 10
74.750892
 20
166.188622
 30
0.0
  0
VERTEX
  5
E3
100
AcDbEntity
  8
0
390
0
 62
     7
100
AcDbVertex
100
AcDb2dVertex
 10
72.125892
 20
166.713622
 30
0.0
  0
SEQEND
  5
E4
100
AcDbEntity
  8
0
390
0
  0
POLYLINE
  5
E5
100
AcDbEntity
  8
0
390
0
  6
Continuous
 62
     7
100
AcDb2dPolyline
 66
     1
 10
0.0
 20
0.0
 30
0.0
 40
0.1
 41
0.1
  0
VERTEX
  5
E6
100
AcDbEntity
  8
0
390
0
 62
     7
100
AcDbVertex
100
AcDb2dVertex
 10
82.375892
 20
166.713622
 30
0.0
  0
VERTEX
  5
E7
100
AcDbEntity
  8
0
390
0
 62
     7
100
AcDbVertex
100
AcDb2dVertex
 10
79.750892
 20
166.188622
 30
0.0
  0
VERTEX
  5
E8
100
AcDbEntity
  8
0
390
0
 62
     7
100
AcDbVertex
100
AcDb2dVertex
 10
82.375892
 20
165.663622
 30
0.0
  0
SEQEND
  5
E9
100
AcDbEntity
  8
0
390
0
  0
ENDBLK
  5
EA
100
AcDbEntity
  8
0
390
0
100
AcDbBlockEnd
  0
BLOCK
  5
EF
100
AcDbEntity
  8
0
390
0
100
AcDbBlockBegin
  2
*D4
 70
     1
 10
0.0
 20
0.0
 30
0.0
  3
DI4
  1

  0
MTEXT
  5
F0
100
AcDbEntity
  8
0
390
0
 62
     7
100
AcDbMText
 10
125.552662
 20
136.499762
 30
0.0
 40
3.5
 41
61.186364
 71
     7
 72
     1
  1
\A1;2.3\S+0.2^   0;
210
0.0
220
0.0
230
0.9999999999999999
 11
0.0
 21
1.0
 31
0.0
 73
     1
 44
1.0
  0
LINE
  5
F1
100
AcDbEntity
  8
0
390
0
  6
Continuous
 62
     7
100
AcDbLine
 10
127.286753
 20
123.906581
 30
0.0
 11
127.286753
 21
146.307717
 31
0.0
  0
LINE
  5
F2
100
AcDbEntity
  8
0
390
0
  6
Continuous
 62
     7
100
AcDbLine
 10
78.300892
 20
129.156581
 30
0.0
 11
128.336753
 21
129.156581
 31
0.0
  0
LINE
  5
F3
100
AcDbEntity
  8
0
390
0
  6
Continuous
 62
     7
100
AcDbLine
 10
78.300892
 20
131.456581
 30
0.0
 11
128.336753
 21
131.456581
 31
0.0
  0
POLYLINE
  5
F4
100
AcDbEntity
  8
0
390
0
  6
Continuous
 62
     7
100
AcDb2dPolyline
 66
     1
 10
0.0
 20
0.0
 30
0.0
 40
0.1
 41
0.1
  0
VERTEX
  5
F5
100
AcDbEntity
  8
0
390
0
 62
     7
100
AcDbVertex
100
AcDb2dVertex
 10
127.811753
 20
126.531581
 30
0.0
  0
VERTEX
  5
F6
100
AcDbEntity
  8
0
390
0
 62
     7
100
AcDbVertex
100
AcDb2dVertex
 10
127.286753
 20
129.156581
 30
0.0
  0
VERTEX
  5
F7
100
AcDbEntity
  8
0
390
0
 62
     7
100
AcDbVertex
100
AcDb2dVertex
 10
126.761753
 20
126.531581
 30
0.0
  0
SEQEND
  5
F8
100
AcDbEntity
  8
0
390
0
  0
POLYLINE
  5
F9
100
AcDbEntity
  8
0
390
0
  6
Continuous
 62
     7
100
AcDb2dPolyline
 66
     1
 10
0.0
 20
0.0
 30
0.0
 40
0.1
 41
0.1
  0
VERTEX
  5
FA
100
AcDbEntity
  8
0
390
0
 62
     7
100
AcDbVertex
100
AcDb2dVertex
 10
126.761753
 20
134.081581
 30
0.0
  0
VERTEX
  5
FB
100
AcDbEntity
  8
0
390
0
 62
     7
100
AcDbVertex
100
AcDb2dVertex
 10
127.286753
 20
131.456581
 30
0.0
  0
VERTEX
  5
FC
100
AcDbEntity
  8
0
390
0
 62
     7
100
AcDbVertex
100
AcDb2dVertex
 10
127.811753
 20
134.081581
 30
0.0
  0
SEQEND
  5
FD
100
AcDbEntity
  8
0
390
0
  0
ENDBLK
  5
FE
100
AcDbEntity
  8
0
390
0
100
AcDbBlockEnd
  0
BLOCK
  5
102
100
AcDbEntity
  8
0
390
0
100
AcDbBlockBegin
  2
*D5
 70
     1
 10
0.0
 20
0.0
 30
0.0
  3
DI5
  1

  0
MTEXT
  5
103
100
AcDbEntity
  8
0
390
0
 62
     7
100
AcDbMText
 10
237.449557
 20
120.200899
 30
0.0
 40
3.5
 41
36.622727
 71
     7
 72
     1
  1
\A1;%%c75.0
210
0.0
220
0.0
230
1.0
 11
0.0
 21
1.0
 31
0.0
 73
     1
 44
1.0
  0
LINE
  5
104
100
AcDbEntity
  8
0
390
0
  6
Continuous
 62
     7
100
AcDbLine
 10
239.183648
 20
159.156581
 30
0.0
 11
239.183648
 21
84.156581
 31
0.0
  0
LINE
  5
105
100
AcDbEntity
  8
0
390
0
  6
Continuous
 62
     7
100
AcDbLine
 10
206.679979
 20
159.156581
 30
0.0
 11
240.233648
 21
159.156581
 31
0.0
  0
LINE
  5
106
100
AcDbEntity
  8
0
390
0
  6
Continuous
 62
     7
100
AcDbLine
 10
206.679979
 20
84.156581
 30
0.0
 11
240.233648
 21
84.156581
 31
0.0
  0
POLYLINE
  5
107
100
AcDbEntity
  8
0
390
0
  6
Continuous
 62
     7
100
AcDb2dPolyline
 66
     1
 10
0.0
 20
0.0
 30
0.0
 40
0.1
 41
0.1
  0
VERTEX
  5
108
100
AcDbEntity
  8
0
390
0
 62
     7
100
AcDbVertex
100
AcDb2dVertex
 10
238.658648
 20
156.531581
 30
0.0
  0
VERTEX
  5
109
100
AcDbEntity
  8
0
390
0
 62
     7
100
AcDbVertex
100
AcDb2dVertex
 10
239.183648
 20
159.156581
 30
0.0
  0
VERTEX
  5
10A
100
AcDbEntity
  8
0
390
0
 62
     7
100
AcDbVertex
100
AcDb2dVertex
 10
239.708648
 20
156.531581
 30
0.0
  0
SEQEND
  5
10B
100
AcDbEntity
  8
0
390
0
  0
POLYLINE
  5
10C
100
AcDbEntity
  8
0
390
0
  6
Continuous
 62
     7
100
AcDb2dPolyline
 66
     1
 10
0.0
 20
0.0
 30
0.0
 40
0.1
 41
0.1
  0
VERTEX
  5
10D
100
AcDbEntity
  8
0
390
0
 62
     7
100
AcDbVertex
100
AcDb2dVertex
 10
239.708648
 20
86.781581
 30
0.0
  0
VERTEX
  5
10E
100
AcDbEntity
  8
0
390
0
 62
     7
100
AcDbVertex
100
AcDb2dVertex
 10
239.183648
 20
84.156581
 30
0.0
  0
VERTEX
  5
10F
100
AcDbEntity
  8
0
390
0
 62
     7
100
AcDbVertex
100
AcDb2dVertex
 10
238.658648
 20
86.781581
 30
0.0
  0
SEQEND
  5
110
100
AcDbEntity
  8
0
390
0
  0
ENDBLK
  5
111
100
AcDbEntity
  8
0
390
0
100
AcDbBlockEnd
  0
BLOCK
  5
114
100
AcDbEntity
  8
0
390
0
100
AcDbBlockBegin
  2
*D6
 70
     1
 10
0.0
 20
0.0
 30
0.0
  3
DI6
  1

  0
MTEXT
  5
115
100
AcDbEntity
  8
0
390
0
 62
     7
100
AcDbMText
 10
229.704309
 20
120.200899
 30
0.0
 40
3.5
 41
36.622727
 71
     7
 72
     1
  1
\A1;%%c40.0
210
0.0
220
0.0
230
1.0
 11
0.0
 21
1.0
 31
0.0
 73
     1
 44
1.0
  0
LINE
  5
116
100
AcDbEntity
  8
0
390
0
  6
Continuous
 62
     7
100
AcDbLine
 10
231.422491
 20
101.656581
 30
0.0
 11
231.422491
 21
141.656581
 31
0.0
  0
LINE
  5
117
100
AcDbEntity
  8
0
390
0
  6
Continuous
 62
     7
100
AcDbLine
 10
221.679979
 20
101.656581
 30
0.0
 11
232.472491
 21
101.656581
 31
0.0
  0
LINE
  5
118
100
AcDbEntity
  8
0
390
0
  6
Continuous
 62
     7
100
AcDbLine
 10
221.679979
 20
141.656581
 30
0.0
 11
232.472491
 21
141.656581
 31
0.0
  0
POLYLINE
  5
119
100
AcDbEntity
  8
0
390
0
  6
Continuous
 62
     7
100
AcDb2dPolyline
 66
     1
 10
0.0
 20
0.0
 30
0.0
 40
0.1
 41
0.1
  0
VERTEX
  5
11A
100
AcDbEntity
  8
0
390
0
 62
     7
100
AcDbVertex
100
AcDb2dVertex
 10
231.947491
 20
104.281581
 30
0.0
  0
VERTEX
  5
11B
100
AcDbEntity
  8
0
390
0
 62
     7
100
AcDbVertex
100
AcDb2dVertex
 10
231.422491
 20
101.656581
 30
0.0
  0
VERTEX
  5
11C
100
AcDbEntity
  8
0
390
0
 62
     7
100
AcDbVertex
100
AcDb2dVertex
 10
230.897491
 20
104.281581
 30
0.0
  0
SEQEND
  5
11D
100
AcDbEntity
  8
0
390
0
  0
POLYLINE
  5
11E
100
AcDbEntity
  8
0
390
0
  6
Continuous
 62
     7
100
AcDb2dPolyline
 66
     1
 10
0.0
 20
0.0
 30
0.0
 40
0.1
 41
0.1
  0
VERTEX
  5
11F
100
AcDbEntity
  8
0
390
0
 62
     7
100
AcDbVertex
100
AcDb2dVertex
 10
230.897491
 20
139.031581
 30
0.0
  0
VERTEX
  5
120
100
AcDbEntity
  8
0
390
0
 62
     7
100
AcDbVertex
100
AcDb2dVertex
 10
231.422491
 20
141.656581
 30
0.0
  0
VERTEX
  5
121
100
AcDbEntity
  8
0
390
0
 62
     7
100
AcDbVertex
100
AcDb2dVertex
 10
231.947491
 20
139.031581
 30
0.0
  0
SEQEND
  5
122
100
AcDbEntity
  8
0
390
0
  0
ENDBLK
  5
123
100
AcDbEntity
  8
0
390
0
100
AcDbBlockEnd
  0
BLOCK
  5
128
100
AcDbEntity
  8
0
390
0
100
AcDbBlockBegin
  2
*D7
 70
     1
 10
0.0
 20
0.0
 30
0.0
  3
DI7
  1

  0
MTEXT
  5
129
100
AcDbEntity
  8
0
390
0
 62
     7
100
AcDbMText
 10
197.372024
 20
193.33443
 30
0.0
 40
3.5
 41
46.295455
 71
     7
 72
     1
  1
\A1;29.0%%p0.3
210
0.0
220
0.0
230
1.0
 73
     1
 44
1.0
  0
LINE
  5
12A
100
AcDbEntity
  8
0
390
0
  6
Continuous
 62
     7
100
AcDbLine
 10
191.629979
 20
191.600339
 30
0.0
 11
220.629979
 21
191.600339
 31
0.0
  0
LINE
  5
12B
100
AcDbEntity
  8
0
390
0
  6
Continuous
 62
     7
100
AcDbLine
 10
191.629979
 20
160.206581
 30
0.0
 11
191.629979
 21
192.650339
 31
0.0
  0
LINE
  5
12C
100
AcDbEntity
  8
0
390
0
  6
Continuous
 62
     7
100
AcDbLine
 10
220.629979
 20
142.706581
 30
0.0
 11
220.629979
 21
192.650339
 31
0.0
  0
POLYLINE
  5
12D
100
AcDbEntity
  8
0
390
0
  6
Continuous
 62
     7
100
AcDb2dPolyline
 66
     1
 10
0.0
 20
0.0
 30
0.0
 40
0.1
 41
0.1
  0
VERTEX
  5
12E
100
AcDbEntity
  8
0
390
0
 62
     7
100
AcDbVertex
100
AcDb2dVertex
 10
194.254979
 20
191.075339
 30
0.0
  0
VERTEX
  5
12F
100
AcDbEntity
  8
0
390
0
 62
     7
100
AcDbVertex
100
AcDb2dVertex
 10
191.629979
 20
191.600339
 30
0.0
  0
VERTEX
  5
130
100
AcDbEntity
  8
0
390
0
 62
     7
100
AcDbVertex
100
AcDb2dVertex
 10
194.254979
 20
192.125339
 30
0.0
  0
SEQEND
  5
131
100
AcDbEntity
  8
0
390
0
  0
POLYLINE
  5
132
100
AcDbEntity
  8
0
390
0
  6
Continuous
 62
     7
100
AcDb2dPolyline
 66
     1
 10
0.0
 20
0.0
 30
0.0
 40
0.1
 41
0.1
  0
VERTEX
  5
133
100
AcDbEntity
  8
0
390
0
 62
     7
100
AcDbVertex
100
AcDb2dVertex
 10
218.004979
 20
192.125339
 30
0.0
  0
VERTEX
  5
134
100
AcDbEntity
  8
0
390
0
 62
     7
100
AcDbVertex
100
AcDb2dVertex
 10
220.629979
 20
191.600339
 30
0.0
  0
VERTEX
  5
135
100
AcDbEntity
  8
0
390
0
 62
     7
100
AcDbVertex
100
AcDb2dVertex
 10
218.004979
 20
191.075339
 30
0.0
  0
SEQEND
  5
136
100
AcDbEntity
  8
0
390
0
  0
ENDBLK
  5
137
100
AcDbEntity
  8
0
390
0
100
AcDbBlockEnd
  0
BLOCK
  5
13A
100
AcDbEntity
  8
0
390
0
100
AcDbBlockBegin
  2
*D8
 70
     1
 10
0.0
 20
0.0
 30
0.0
  3
DI8
  1

  0
MTEXT
  5
13B
100
AcDbEntity
  8
0
390
0
 62
     7
100
AcDbMText
 10
184.052706
 20
169.288537
 30
0.0
 40
3.5
 41
25.104545
 71
     7
 72
     1
  1
\A1;AG
210
0.0
220
0.0
230
1.0
 73
     1
 44
1.0
  0
LINE
  5
13C
100
AcDbEntity
  8
0
390
0
  6
Continuous
 62
     7
100
AcDbLine
 10
191.629979
 20
167.554446
 30
0.0
 11
181.629979
 21
167.554446
 31
0.0
  0
LINE
  5
13D
100
AcDbEntity
  8
0
390
0
  6
Continuous
 62
     7
100
AcDbLine
 10
191.629979
 20
160.206581
 30
0.0
 11
191.629979
 21
168.604446
 31
0.0
  0
LINE
  5
13E
100
AcDbEntity
  8
0
390
0
  6
Continuous
 62
     7
100
AcDbLine
 10
181.629979
 20
160.206581
 30
0.0
 11
181.629979
 21
168.604446
 31
0.0
  0
POLYLINE
  5
13F
100
AcDbEntity
  8
0
390
0
  6
Continuous
 62
     7
100
AcDb2dPolyline
 66
     1
 10
0.0
 20
0.0
 30
0.0
 40
0.1
 41
0.1
  0
VERTEX
  5
140
100
AcDbEntity
  8
0
390
0
 62
     7
100
AcDbVertex
100
AcDb2dVertex
 10
189.004979
 20
168.079446
 30
0.0
  0
VERTEX
  5
141
100
AcDbEntity
  8
0
390
0
 62
     7
100
AcDbVertex
100
AcDb2dVertex
 10
191.629979
 20
167.554446
 30
0.0
  0
VERTEX
  5
142
100
AcDbEntity
  8
0
390
0
 62
     7
100
AcDbVertex
100
AcDb2dVertex
 10
189.004979
 20
167.029446
 30
0.0
  0
SEQEND
  5
143
100
AcDbEntity
  8
0
390
0
  0
POLYLINE
  5
144
100
AcDbEntity
  8
0
390
0
  6
Continuous
 62
     7
100
AcDb2dPolyline
 66
     1
 10
0.0
 20
0.0
 30
0.0
 40
0.1
 41
0.1
  0
VERTEX
  5
145
100
AcDbEntity
  8
0
390
0
 62
     7
100
AcDbVertex
100
AcDb2dVertex
 10
184.254979
 20
167.029446
 30
0.0
  0
VERTEX
  5
146
100
AcDbEntity
  8
0
390
0
 62
     7
100
AcDbVertex
100
AcDb2dVertex
 10
181.629979
 20
167.554446
 30
0.0
  0
VERTEX
  5
147
100
AcDbEntity
  8
0
390
0
 62
     7
100
AcDbVertex
100
AcDb2dVertex
 10
184.254979
 20
168.079446
 30
0.0
  0
SEQEND
  5
148
100
AcDbEntity
  8
0
390
0
  0
ENDBLK
  5
149
100
AcDbEntity
  8
0
390
0
100
AcDbBlockEnd
  0
BLOCK
  5
14C
100
AcDbEntity
  8
0
390
0
100
AcDbBlockBegin
  2
*D9
 70
     1
 10
0.0
 20
0.0
 30
0.0
  3
DI9
  1

  0
MTEXT
  5
14D
100
AcDbEntity
  8
0
390
0
 62
     7
100
AcDbMText
 10
195.018615
 20
178.084427
 30
0.0
 40
3.5
 41
28.477273
 71
     7
 72
     1
  1
\A1;14.0
210
0.0
220
0.0
230
0.9999999999999999
 11
1.0
 21
0.0
 31
0.0
 73
     1
 44
1.0
  0
LINE
  5
14E
100
AcDbEntity
  8
0
390
0
  6
Continuous
 62
     7
100
AcDbLine
 10
191.629979
 20
176.366245
 30
0.0
 11
205.629979
 21
176.366245
 31
0.0
  0
LINE
  5
14F
100
AcDbEntity
  8
0
390
0
  6
Continuous
 62
     7
100
AcDbLine
 10
191.629979
 20
160.206581
 30
0.0
 11
191.629979
 21
177.416245
 31
0.0
  0
LINE
  5
150
100
AcDbEntity
  8
0
390
0
  6
Continuous
 62
     7
100
AcDbLine
 10
205.629979
 20
160.206581
 30
0.0
 11
205.629979
 21
177.416245
 31
0.0
  0
POLYLINE
  5
151
100
AcDbEntity
  8
0
390
0
  6
Continuous
 62
     7
100
AcDb2dPolyline
 66
     1
 10
0.0
 20
0.0
 30
0.0
 40
0.1
 41
0.1
  0
VERTEX
  5
152
100
AcDbEntity
  8
0
390
0
 62
     7
100
AcDbVertex
100
AcDb2dVertex
 10
194.254979
 20
175.841245
 30
0.0
  0
VERTEX
  5
153
100
AcDbEntity
  8
0
390
0
 62
     7
100
AcDbVertex
100
AcDb2dVertex
 10
191.629979
 20
176.366245
 30
0.0
  0
VERTEX
  5
154
100
AcDbEntity
  8
0
390
0
 62
     7
100
AcDbVertex
100
AcDb2dVertex
 10
194.254979
 20
176.891245
 30
0.0
  0
SEQEND
  5
155
100
AcDbEntity
  8
0
390
0
  0
POLYLINE
  5
156
100
AcDbEntity
  8
0
390
0
  6
Continuous
 62
     7
100
AcDb2dPolyline
 66
     1
 10
0.0
 20
0.0
 30
0.0
 40
0.1
 41
0.1
  0
VERTEX
  5
157
100
AcDbEntity
  8
0
390
0
 62
     7
100
AcDbVertex
100
AcDb2dVertex
 10
203.004979
 20
176.891245
 30
0.0
  0
VERTEX
  5
158
100
AcDbEntity
  8
0
390
0
 62
     7
100
AcDbVertex
100
AcDb2dVertex
 10
205.629979
 20
176.366245
 30
0.0
  0
VERTEX
  5
159
100
AcDbEntity
  8
0
390
0
 62
     7
100
AcDbVertex
100
AcDb2dVertex
 10
203.004979
 20
175.841245
 30
0.0
  0
SEQEND
  5
15A
100
AcDbEntity
  8
0
390
0
  0
ENDBLK
  5
15B
100
AcDbEntity
  8
0
390
0
100
AcDbBlockEnd
  0
BLOCK
  5
15E
100
AcDbEntity
  8
0
390
0
100
AcDbBlockBegin
  2
*D10
 70
     1
 10
0.0
 20
0.0
 30
0.0
  3
DI10
  1

  0
MTEXT
  5
15F
100
AcDbEntity
  8
0
390
0
 62
     7
100
AcDbMText
 10
198.911797
 20
186.008958
 30
0.0
 40
3.5
 41
28.35
 71
     7
 72
     1
  1
\A1;21.5
210
0.0
220
0.0
230
1.0
 73
     1
 44
1.0
  0
LINE
  5
160
100
AcDbEntity
  8
0
390
0
  6
Continuous
 62
     7
100
AcDbLine
 10
213.129979
 20
184.274867
 30
0.0
 11
191.629979
 21
184.274867
 31
0.0
  0
LINE
  5
161
100
AcDbEntity
  8
0
390
0
  6
Continuous
 62
     7
100
AcDbLine
 10
213.129979
 20
144.70658
 30
0.0
 11
213.129979
 21
185.324867
 31
0.0
  0
LINE
  5
162
100
AcDbEntity
  8
0
390
0
  6
Continuous
 62
     7
100
AcDbLine
 10
191.629979
 20
160.206581
 30
0.0
 11
191.629979
 21
185.324867
 31
0.0
  0
POLYLINE
  5
163
100
AcDbEntity
  8
0
390
0
  6
Continuous
 62
     7
100
AcDb2dPolyline
 66
     1
 10
0.0
 20
0.0
 30
0.0
 40
0.1
 41
0.1
  0
VERTEX
  5
164
100
AcDbEntity
  8
0
390
0
 62
     7
100
AcDbVertex
100
AcDb2dVertex
 10
210.504979
 20
184.799867
 30
0.0
  0
VERTEX
  5
165
100
AcDbEntity
  8
0
390
0
 62
     7
100
AcDbVertex
100
AcDb2dVertex
 10
213.129979
 20
184.274867
 30
0.0
  0
VERTEX
  5
166
100
AcDbEntity
  8
0
390
0
 62
     7
100
AcDbVertex
100
AcDb2dVertex
 10
210.504979
 20
183.749867
 30
0.0
  0
SEQEND
  5
167
100
AcDbEntity
  8
0
390
0
  0
POLYLINE
  5
168
100
AcDbEntity
  8
0
390
0
  6
Continuous
 62
     7
100
AcDb2dPolyline
 66
     1
 10
0.0
 20
0.0
 30
0.0
 40
0.1
 41
0.1
  0
VERTEX
  5
169
100
AcDbEntity
  8
0
390
0
 62
     7
100
AcDbVertex
100
AcDb2dVertex
 10
194.254979
 20
183.749867
 30
0.0
  0
VERTEX
  5
16A
100
AcDbEntity
  8
0
390
0
 62
     7
100
AcDbVertex
100
AcDb2dVertex
 10
191.629979
 20
184.274867
 30
0.0
  0
VERTEX
  5
16B
100
AcDbEntity
  8
0
390
0
 62
     7
100
AcDbVertex
100
AcDb2dVertex
 10
194.254979
 20
184.799867
 30
0.0
  0
SEQEND
  5
16C
100
AcDbEntity
  8
0
390
0
  0
ENDBLK
  5
16D
100
AcDbEntity
  8
0
390
0
100
AcDbBlockEnd
  0
BLOCK
  5
170
100
AcDbEntity
  8
0
390
0
100
AcDbBlockBegin
  2
*D11
 70
     1
 10
0.0
 20
0.0
 30
0.0
  3
DI11
  1

  0
MTEXT
  5
171
100
AcDbEntity
  8
0
390
0
 62
     7
100
AcDbMText
 10
186.68135
 20
120.200899
 30
0.0
 40
3.5
 41
36.622727
 71
     7
 72
     1
  1
\A1;%%c26.0
210
0.0
220
0.0
230
0.9999999999999999
 11
0.0
 21
1.0
 31
0.0
 73
     1
 44
1.0
  0
LINE
  5
172
100
AcDbEntity
  8
0
390
0
  6
Continuous
 62
     7
100
AcDbLine
 10
188.415441
 20
134.656581
 30
0.0
 11
188.415441
 21
108.656581
 31
0.0
  0
LINE
  5
173
100
AcDbEntity
  8
0
390
0
  6
Continuous
 62
     7
100
AcDbLine
 10
190.579979
 20
134.656581
 30
0.0
 11
187.365441
 21
134.656581
 31
0.0
  0
LINE
  5
174
100
AcDbEntity
  8
0
390
0
  6
Continuous
 62
     7
100
AcDbLine
 10
190.579979
 20
108.656581
 30
0.0
 11
187.365441
 21
108.656581
 31
0.0
  0
POLYLINE
  5
175
100
AcDbEntity
  8
0
390
0
  6
Continuous
 62
     7
100
AcDb2dPolyline
 66
     1
 10
0.0
 20
0.0
 30
0.0
 40
0.1
 41
0.1
  0
VERTEX
  5
176
100
AcDbEntity
  8
0
390
0
 62
     7
100
AcDbVertex
100
AcDb2dVertex
 10
187.890441
 20
132.031581
 30
0.0
  0
VERTEX
  5
177
100
AcDbEntity
  8
0
390
0
 62
     7
100
AcDbVertex
100
AcDb2dVertex
 10
188.415441
 20
134.656581
 30
0.0
  0
VERTEX
  5
178
100
AcDbEntity
  8
0
390
0
 62
     7
100
AcDbVertex
100
AcDb2dVertex
 10
188.940441
 20
132.031581
 30
0.0
  0
SEQEND
  5
179
100
AcDbEntity
  8
0
390
0
  0
POLYLINE
  5
17A
100
AcDbEntity
  8
0
390
0
  6
Continuous
 62
     7
100
AcDb2dPolyline
 66
     1
 10
0.0
 20
0.0
 30
0.0
 40
0.1
 41
0.1
  0
VERTEX
  5
17B
100
AcDbEntity
  8
0
390
0
 62
     7
100
AcDbVertex
100
AcDb2dVertex
 10
188.940441
 20
111.281581
 30
0.0
  0
VERTEX
  5
17C
100
AcDbEntity
  8
0
390
0
 62
     7
100
AcDbVertex
100
AcDb2dVertex
 10
188.415441
 20
108.656581
 30
0.0
  0
VERTEX
  5
17D
100
AcDbEntity
  8
0
390
0
 62
     7
100
AcDbVertex
100
AcDb2dVertex
 10
187.890441
 20
111.281581
 30
0.0
  0
SEQEND
  5
17E
100
AcDbEntity
  8
0
390
0
  0
ENDBLK
  5
17F
100
AcDbEntity
  8
0
390
0
100
AcDbBlockEnd
  0
BLOCK
  5
182
100
AcDbEntity
  8
0
390
0
100
AcDbBlockBegin
  2
*D12
 70
     1
 10
0.0
 20
0.0
 30
0.0
  3
DI12
  1

  0
MTEXT
  5
183
100
AcDbEntity
  8
0
390
0
 62
     7
100
AcDbMText
 10
193.640206
 20
169.288537
 30
0.0
 40
3.5
 41
24.404545
 71
     7
 72
     1
  1
\A1;9.0
210
0.0
220
0.0
230
1.0
 73
     1
 44
1.0
  0
LINE
  5
184
100
AcDbEntity
  8
0
390
0
  6
Continuous
 62
     7
100
AcDbLine
 10
191.629979
 20
167.554446
 30
0.0
 11
200.629979
 21
167.554446
 31
0.0
  0
LINE
  5
185
100
AcDbEntity
  8
0
390
0
  6
Continuous
 62
     7
100
AcDbLine
 10
191.629979
 20
160.206581
 30
0.0
 11
191.629979
 21
168.604446
 31
0.0
  0
LINE
  5
186
100
AcDbEntity
  8
0
390
0
  6
Continuous
 62
     7
100
AcDbLine
 10
200.629979
 20
135.706581
 30
0.0
 11
200.629979
 21
168.604446
 31
0.0
  0
POLYLINE
  5
187
100
AcDbEntity
  8
0
390
0
  6
Continuous
 62
     7
100
AcDb2dPolyline
 66
     1
 10
0.0
 20
0.0
 30
0.0
 40
0.1
 41
0.1
  0
VERTEX
  5
188
100
AcDbEntity
  8
0
390
0
 62
     7
100
AcDbVertex
100
AcDb2dVertex
 10
194.254979
 20
167.029446
 30
0.0
  0
VERTEX
  5
189
100
AcDbEntity
  8
0
390
0
 62
     7
100
AcDbVertex
100
AcDb2dVertex
 10
191.629979
 20
167.554446
 30
0.0
  0
VERTEX
  5
18A
100
AcDbEntity
  8
0
390
0
 62
     7
100
AcDbVertex
100
AcDb2dVertex
 10
194.254979
 20
168.079446
 30
0.0
  0
SEQEND
  5
18B
100
AcDbEntity
  8
0
390
0
  0
POLYLINE
  5
18C
100
AcDbEntity
  8
0
390
0
  6
Continuous
 62
     7
100
AcDb2dPolyline
 66
     1
 10
0.0
 20
0.0
 30
0.0
 40
0.1
 41
0.1
  0
VERTEX
  5
18D
100
AcDbEntity
  8
0
390
0
 62
     7
100
AcDbVertex
100
AcDb2dVertex
 10
198.004979
 20
168.079446
 30
0.0
  0
VERTEX
  5
18E
100
AcDbEntity
  8
0
390
0
 62
     7
100
AcDbVertex
100
AcDb2dVertex
 10
200.629979
 20
167.554446
 30
0.0
  0
VERTEX
  5
18F
100
AcDbEntity
  8
0
390
0
 62
     7
100
AcDbVertex
100
AcDb2dVertex
 10
198.004979
 20
167.029446
 30
0.0
  0
SEQEND
  5
190
100
AcDbEntity
  8
0
390
0
  0
ENDBLK
  5
191
100
AcDbEntity
  8
0
390
0
100
AcDbBlockEnd
  0
ENDSEC
  0
SECTION
  2
ENTITIES
  0
ARC
  5
27
100
AcDbEntity
  8
0
390
0
  6
Continuous
 62
     7
100
AcDbCircle
 10
77.250892
 20
121.656581
 30
0.0
 40
7.5
210
0.0
220
0.0
230
1.0
100
AcDbArc
 50
109.471221
 51
70.528779
  0
LINE
  5
28
100
AcDbEntity
  8
0
390
0
  6
Continuous
 62
     7
100
AcDbLine
 10
74.750892
 20
128.727648
 30
0.0
 11
74.750892
 21
131.456581
 31
0.0
  0
CIRCLE
  5
29
100
AcDbEntity
  8
0
390
0
  6
Continuous
 62
     7
100
AcDbCircle
 10
77.250892
 20
121.656581
 30
0.0
 40
20.0
210
0.0
220
0.0
230
1.0
  0
LINE
  5
2A
100
AcDbEntity
  8
0
390
0
  6
Continuous
 62
     7
100
AcDbLine
 10
79.750892
 20
131.456581
 30
0.0
 11
79.750892
 21
128.727648
 31
0.0
  0
ARC
  5
2B
100
AcDbEntity
  8
0
390
0
  6
Continuous
 62
     7
100
AcDbCircle
 10
77.250892
 20
131.456581
 30
0.0
 40
2.5
210
0.0
220
0.0
230
1.0
100
AcDbArc
 50
0.0
 51
180.0
  0
CIRCLE
  5
2C
100
AcDbEntity
  8
0
390
0
  6
Continuous
 62
     7
100
AcDbCircle
 10
77.250892
 20
121.656581
 30
0.0
 40
37.5
210
0.0
220
0.0
230
1.0
  0
CIRCLE
  5
2E
100
AcDbEntity
  8
0
390
0
  6
DOT
 62
     2
100
AcDbCircle
 10
77.250892
 20
121.656581
 30
0.0
 40
13.0
210
0.0
220
0.0
230
1.0
  0
LINE
  5
2F
100
AcDbEntity
  8
0
390
0
  6
Continuous
 62
     2
100
AcDbLine
 10
74.750897
 20
141.499848
 30
0.0
 11
74.750897
 21
141.499716
 31
0.0
  0
LINE
  5
30
100
AcDbEntity
  8
0
390
0
  6
DOT
 62
     2
100
AcDbLine
 10
74.750897
 20
141.499716
 30
0.0
 11
74.750896
 21
139.81472
 31
0.0
  0
LINE
  5
31
100
AcDbEntity
  8
0
390
0
  6
DOT
 62
     2
100
AcDbLine
 10
74.750896
 20
139.81472
 30
0.0
 11
74.750895
 21
135.689714
 31
0.0
  0
LINE
  5
32
100
AcDbEntity
  8
0
390
0
  6
DOT
 62
     2
100
AcDbLine
 10
74.750895
 20
135.689714
 30
0.0
 11
74.750894
 21
131.456581
 31
0.0
  0
LINE
  5
33
100
AcDbEntity
  8
0
390
0
  6
DOT
 62
     2
100
AcDbLine
 10
79.750889
 20
131.456581
 30
0.0
 11
79.750888
 21
135.689714
 31
0.0
  0
LINE
  5
34
100
AcDbEntity
  8
0
390
0
  6
DOT
 62
     2
100
AcDbLine
 10
79.750888
 20
135.689714
 30
0.0
 11
79.750887
 21
139.81472
 31
0.0
  0
LINE
  5
35
100
AcDbEntity
  8
0
390
0
  6
DOT
 62
     2
100
AcDbLine
 10
79.750887
 20
139.81472
 30
0.0
 11
79.750887
 21
141.499716
 31
0.0
  0
LINE
  5
36
100
AcDbEntity
  8
0
390
0
  6
DOT
 62
     2
100
AcDbLine
 10
75.150892
 20
141.546025
 30
0.0
 11
75.150892
 21
140.014718
 31
0.0
  0
LINE
  5
37
100
AcDbEntity
  8
0
390
0
  6
DOT
 62
     2
100
AcDbLine
 10
75.150892
 20
140.014718
 30
0.0
 11
75.150892
 21
139.814738
 31
0.0
  0
LINE
  5
38
100
AcDbEntity
  8
0
390
0
  6
DOT
 62
     2
100
AcDbLine
 10
75.150892
 20
135.289698
 30
0.0
 11
75.150892
 21
132.813047
 31
0.0
  0
LINE
  5
39
100
AcDbEntity
  8
0
390
0
  6
DOT
 62
     2
100
AcDbLine
 10
79.350892
 20
132.813334
 30
0.0
 11
79.350892
 21
135.289698
 31
0.0
  0
LINE
  5
3A
100
AcDbEntity
  8
0
390
0
  6
DOT
 62
     2
100
AcDbLine
 10
79.350892
 20
139.814738
 30
0.0
 11
79.350892
 21
140.014718
 31
0.0
  0
LINE
  5
3B
100
AcDbEntity
  8
0
390
0
  6
DOT
 62
     2
100
AcDbLine
 10
79.350892
 20
140.014718
 30
0.0
 11
79.350892
 21
141.546113
 31
0.0
  0
LINE
  5
3D
100
AcDbEntity
  8
0
390
0
  6
CENTER
 62
     1
100
AcDbLine
 10
37.750892
 20
121.656581
 30
0.0
 11
116.750892
 21
121.656581
 31
0.0
  0
INSERT
  5
52
100
AcDbEntity
  8
0
390
0
100
AcDbBlockReference
  2
AID45
 10
0.0
 20
0.0
 30
0.0
  0
LINE
  5
53
100
AcDbEntity
  8
0
390
0
  6
Continuous
 62
     7
100
AcDbLine
 10
191.629979
 20
108.656581
 30
0.0
 11
195.629979
 21
108.656581
 31
0.0
  0
LINE
  5
54
100
AcDbEntity
  8
0
390
0
  6
Continuous
 62
     7
100
AcDbLine
 10
191.629979
 20
108.656581
 30
0.0
 11
191.629979
 21
134.656581
 31
0.0
  0
LINE
  5
55
100
AcDbEntity
  8
0
390
0
  6
Continuous
 62
     7
100
AcDbLine
 10
195.629979
 20
134.656581
 30
0.0
 11
191.629979
 21
134.656581
 31
0.0
  0
LINE
  5
56
100
AcDbEntity
  8
0
390
0
  6
Continuous
 62
     7
100
AcDbLine
 10
195.629979
 20
134.656581
 30
0.0
 11
195.629979
 21
108.656581
 31
0.0
  0
LINE
  5
57
100
AcDbEntity
  8
0
390
0
  6
Continuous
 62
     7
100
AcDbLine
 10
195.629979
 20
108.656581
 30
0.0
 11
195.629979
 21
84.156581
 31
0.0
  0
LINE
  5
58
100
AcDbEntity
  8
0
390
0
  6
Continuous
 62
     7
100
AcDbLine
 10
191.629979
 20
84.156581
 30
0.0
 11
195.629979
 21
84.156581
 31
0.0
  0
LINE
  5
59
100
AcDbEntity
  8
0
390
0
  6
Continuous
 62
     7
100
AcDbLine
 10
191.629979
 20
108.656581
 30
0.0
 11
191.629979
 21
84.156581
 31
0.0
  0
LINE
  5
5A
100
AcDbEntity
  8
0
390
0
  6
Continuous
 62
     7
100
AcDbLine
 10
195.629979
 20
159.156581
 30
0.0
 11
195.629979
 21
134.656581
 31
0.0
  0
LINE
  5
5B
100
AcDbEntity
  8
0
390
0
  6
Continuous
 62
     7
100
AcDbLine
 10
191.629979
 20
159.156581
 30
0.0
 11
191.629979
 21
134.656581
 31
0.0
  0
LINE
  5
5C
100
AcDbEntity
  8
0
390
0
  6
Continuous
 62
     7
100
AcDbLine
 10
195.629979
 20
159.156581
 30
0.0
 11
191.629979
 21
159.156581
 31
0.0
  0
LINE
  5
5D
100
AcDbEntity
  8
0
390
0
  6
Continuous
 62
     2
100
AcDbLine
 10
210.629981
 20
133.956578
 30
0.0
 11
210.629982
 21
135.30574
 31
0.0
  0
LINE
  5
5E
100
AcDbEntity
  8
0
390
0
  6
Continuous
 62
     2
100
AcDbLine
 10
210.629982
 20
135.30574
 30
0.0
 11
210.629983
 21
139.430745
 31
0.0
  0
LINE
  5
5F
100
AcDbEntity
  8
0
390
0
  6
Continuous
 62
     2
100
AcDbLine
 10
210.629983
 20
139.430745
 30
0.0
 11
210.629984
 21
141.656581
 31
0.0
  0
LINE
  5
60
100
AcDbEntity
  8
0
390
0
  6
Continuous
 62
     2
100
AcDbLine
 10
210.629981
 20
133.956578
 30
0.0
 11
213.129979
 21
131.456581
 31
0.0
  0
LINE
  5
61
100
AcDbEntity
  8
0
390
0
  6
Continuous
 62
     2
100
AcDbLine
 10
213.129979
 20
131.456581
 30
0.0
 11
215.629976
 21
133.956578
 31
0.0
  0
LINE
  5
62
100
AcDbEntity
  8
0
390
0
  6
Continuous
 62
     2
100
AcDbLine
 10
215.629974
 20
141.656581
 30
0.0
 11
215.629974
 21
139.430745
 31
0.0
  0
LINE
  5
63
100
AcDbEntity
  8
0
390
0
  6
Continuous
 62
     2
100
AcDbLine
 10
215.629974
 20
139.430745
 30
0.0
 11
215.629976
 21
135.30574
 31
0.0
  0
LINE
  5
64
100
AcDbEntity
  8
0
390
0
  6
Continuous
 62
     2
100
AcDbLine
 10
215.629976
 20
135.30574
 30
0.0
 11
215.629976
 21
133.956578
 31
0.0
  0
LINE
  5
65
100
AcDbEntity
  8
0
390
0
  6
Continuous
 62
     9
100
AcDbLine
 10
200.629979
 20
131.456581
 30
0.0
 11
213.129979
 21
131.456581
 31
0.0
  0
LINE
  5
66
100
AcDbEntity
  8
0
390
0
  6
Continuous
 62
     9
100
AcDbLine
 10
213.129979
 20
131.456581
 30
0.0
 11
220.629979
 21
131.456581
 31
0.0
  0
LINE
  5
67
100
AcDbEntity
  8
0
390
0
  6
Continuous
 62
     7
100
AcDbLine
 10
200.629979
 20
133.956581
 30
0.0
 11
200.629979
 21
131.456581
 31
0.0
  0
LINE
  5
68
100
AcDbEntity
  8
0
390
0
  6
Continuous
 62
     7
100
AcDbLine
 10
211.029979
 20
133.956581
 30
0.0
 11
210.629981
 21
133.956581
 31
0.0
  0
LINE
  5
69
100
AcDbEntity
  8
0
390
0
  6
Continuous
 62
     7
100
AcDbLine
 10
210.629981
 20
133.956581
 30
0.0
 11
200.629979
 21
133.956581
 31
0.0
  0
POLYLINE
  5
6A
100
AcDbEntity
  8
0
390
0
  6
Continuous
 62
     7
100
AcDb2dPolyline
 66
     1
 10
0.0
 20
0.0
 30
0.0
 40
0.1
 41
0.1
  0
VERTEX
  5
6B
100
AcDbEntity
  8
0
390
0
 62
     7
100
AcDbVertex
100
AcDb2dVertex
 10
215.229979
 20
133.956581
 30
0.0
 42
-0.151245
  0
VERTEX
  5
6C
100
AcDbEntity
  8
0
390
0
 62
     7
100
AcDbVertex
100
AcDb2dVertex
 10
213.165625
 20
132.813515
 30
0.0
 42
-0.162899
  0
VERTEX
  5
6D
100
AcDbEntity
  8
0
390
0
 62
     7
100
AcDbVertex
100
AcDb2dVertex
 10
211.029979
 20
133.956581
 30
0.0
  0
SEQEND
  5
6E
100
AcDbEntity
  8
0
390
0
  0
LINE
  5
6F
100
AcDbEntity
  8
0
390
0
  6
Continuous
 62
     7
100
AcDbLine
 10
220.629979
 20
133.956581
 30
0.0
 11
215.629976
 21
133.956581
 31
0.0
  0
LINE
  5
70
100
AcDbEntity
  8
0
390
0
  6
Continuous
 62
     7
100
AcDbLine
 10
215.629976
 20
133.956581
 30
0.0
 11
215.229979
 21
133.956581
 31
0.0
  0
LINE
  5
71
100
AcDbEntity
  8
0
390
0
  6
Continuous
 62
     7
100
AcDbLine
 10
220.629979
 20
133.956581
 30
0.0
 11
220.629979
 21
131.456581
 31
0.0
  0
ARC
  5
72
100
AcDbEntity
  8
0
390
0
  6
Continuous
 62
     7
100
AcDbCircle
 10
213.129979
 20
161.546025
 30
0.0
 40
20.0
210
0.0
220
0.0
230
1.0
100
AcDbArc
 50
263.972833
 51
276.027167
  0
LINE
  5
73
100
AcDbEntity
  8
0
390
0
  6
Continuous
 62
     7
100
AcDbLine
 10
211.029979
 20
141.656581
 30
0.0
 11
210.629984
 21
141.656581
 31
0.0
  0
LINE
  5
74
100
AcDbEntity
  8
0
390
0
  6
Continuous
 62
     7
100
AcDbLine
 10
210.629984
 20
141.656581
 30
0.0
 11
205.629979
 21
141.656581
 31
0.0
  0
LINE
  5
75
100
AcDbEntity
  8
0
390
0
  6
Continuous
 62
     7
100
AcDbLine
 10
205.629979
 20
101.656581
 30
0.0
 11
220.629979
 21
101.656581
 31
0.0
  0
LINE
  5
76
100
AcDbEntity
  8
0
390
0
  6
Continuous
 62
     7
100
AcDbLine
 10
220.629979
 20
141.656581
 30
0.0
 11
215.629974
 21
141.656581
 31
0.0
  0
LINE
  5
77
100
AcDbEntity
  8
0
390
0
  6
Continuous
 62
     7
100
AcDbLine
 10
215.629974
 20
141.656581
 30
0.0
 11
215.229979
 21
141.656581
 31
0.0
  0
LINE
  5
78
100
AcDbEntity
  8
0
390
0
  6
Continuous
 62
     7
100
AcDbLine
 10
195.629979
 20
108.656581
 30
0.0
 11
200.629979
 21
108.656581
 31
0.0
  0
LINE
  5
79
100
AcDbEntity
  8
0
390
0
  6
Continuous
 62
     7
100
AcDbLine
 10
195.629979
 20
134.656581
 30
0.0
 11
195.629979
 21
108.656581
 31
0.0
  0
LINE
  5
7A
100
AcDbEntity
  8
0
390
0
  6
Continuous
 62
     7
100
AcDbLine
 10
200.629979
 20
134.656581
 30
0.0
 11
195.629979
 21
134.656581
 31
0.0
  0
LINE
  5
7B
100
AcDbEntity
  8
0
390
0
  6
Continuous
 62
     7
100
AcDbLine
 10
200.629979
 20
134.656581
 30
0.0
 11
200.629979
 21
133.956581
 31
0.0
  0
LINE
  5
7C
100
AcDbEntity
  8
0
390
0
  6
Continuous
 62
     7
100
AcDbLine
 10
195.629979
 20
159.156581
 30
0.0
 11
195.629979
 21
134.656581
 31
0.0
  0
LINE
  5
7D
100
AcDbEntity
  8
0
390
0
  6
Continuous
 62
     7
100
AcDbLine
 10
205.629979
 20
159.156581
 30
0.0
 11
195.629979
 21
159.156581
 31
0.0
  0
LINE
  5
7E
100
AcDbEntity
  8
0
390
0
  6
Continuous
 62
     7
100
AcDbLine
 10
205.629979
 20
159.156581
 30
0.0
 11
205.629979
 21
141.656581
 31
0.0
  0
LINE
  5
7F
100
AcDbEntity
  8
0
390
0
  6
Continuous
 62
     7
100
AcDbLine
 10
195.629979
 20
84.156581
 30
0.0
 11
205.629979
 21
84.156581
 31
0.0
  0
LINE
  5
80
100
AcDbEntity
  8
0
390
0
  6
Continuous
 62
     7
100
AcDbLine
 10
200.629979
 20
114.156581
 30
0.0
 11
200.629979
 21
108.656581
 31
0.0
  0
LINE
  5
81
100
AcDbEntity
  8
0
390
0
  6
Continuous
 62
     7
100
AcDbLine
 10
200.629979
 20
114.156581
 30
0.0
 11
220.629979
 21
114.156581
 31
0.0
  0
LINE
  5
82
100
AcDbEntity
  8
0
390
0
  6
Continuous
 62
     7
100
AcDbLine
 10
220.629979
 20
114.156581
 30
0.0
 11
220.629979
 21
101.656581
 31
0.0
  0
LINE
  5
83
100
AcDbEntity
  8
0
390
0
  6
Continuous
 62
     7
100
AcDbLine
 10
205.629979
 20
101.656581
 30
0.0
 11
205.629979
 21
84.156581
 31
0.0
  0
LINE
  5
84
100
AcDbEntity
  8
0
390
0
  6
Continuous
 62
     7
100
AcDbLine
 10
195.629979
 20
108.656581
 30
0.0
 11
195.629979
 21
84.156581
 31
0.0
  0
LINE
  5
85
100
AcDbEntity
  8
0
390
0
  6
Continuous
 62
     7
100
AcDbLine
 10
200.629979
 20
128.727648
 30
0.0
 11
220.629979
 21
128.727648
 31
0.0
  0
LINE
  5
86
100
AcDbEntity
  8
0
390
0
  6
Continuous
 62
     7
100
AcDbLine
 10
220.629979
 20
128.727648
 30
0.0
 11
220.629979
 21
114.156581
 31
0.0
  0
LINE
  5
87
100
AcDbEntity
  8
0
390
0
  6
Continuous
 62
     7
100
AcDbLine
 10
200.629979
 20
128.727648
 30
0.0
 11
200.629979
 21
114.156581
 31
0.0
  0
LINE
  5
88
100
AcDbEntity
  8
0
390
0
  6
Continuous
 62
     7
100
AcDbLine
 10
220.629979
 20
141.656581
 30
0.0
 11
220.629979
 21
133.956581
 31
0.0
  0
LINE
  5
89
100
AcDbEntity
  8
0
390
0
  6
Continuous
 62
     7
100
AcDbLine
 10
220.629979
 20
128.727648
 30
0.0
 11
220.629979
 21
131.456581
 31
0.0
  0
LINE
  5
8A
100
AcDbEntity
  8
0
390
0
  6
Continuous
 62
     7
100
AcDbLine
 10
200.629979
 20
128.727648
 30
0.0
 11
200.629979
 21
131.456581
 31
0.0
  0
LINE
  5
8B
100
AcDbEntity
  8
0
390
0
  6
Continuous
 62
     2
100
AcDbLine
 10
157.629981
 20
133.956578
 30
0.0
 11
160.129979
 21
131.456581
 31
0.0
  0
LINE
  5
8C
100
AcDbEntity
  8
0
390
0
  6
Continuous
 62
     2
100
AcDbLine
 10
160.129979
 20
131.456581
 30
0.0
 11
162.629976
 21
133.956578
 31
0.0
  0
LINE
  5
8D
100
AcDbEntity
  8
0
390
0
  6
Continuous
 62
     2
100
AcDbLine
 10
157.629981
 20
133.956578
 30
0.0
 11
157.629982
 21
135.689715
 31
0.0
  0
LINE
  5
8E
100
AcDbEntity
  8
0
390
0
  6
Continuous
 62
     2
100
AcDbLine
 10
157.629982
 20
135.689715
 30
0.0
 11
157.629983
 21
139.81472
 31
0.0
  0
LINE
  5
8F
100
AcDbEntity
  8
0
390
0
  6
Continuous
 62
     2
100
AcDbLine
 10
157.629983
 20
139.81472
 30
0.0
 11
157.629984
 21
141.656581
 31
0.0
  0
LINE
  5
90
100
AcDbEntity
  8
0
390
0
  6
Continuous
 62
     2
100
AcDbLine
 10
162.629974
 20
141.656581
 30
0.0
 11
162.629974
 21
139.81472
 31
0.0
  0
LINE
  5
91
100
AcDbEntity
  8
0
390
0
  6
Continuous
 62
     2
100
AcDbLine
 10
162.629974
 20
139.81472
 30
0.0
 11
162.629976
 21
135.689715
 31
0.0
  0
LINE
  5
92
100
AcDbEntity
  8
0
390
0
  6
Continuous
 62
     2
100
AcDbLine
 10
162.629976
 20
135.689715
 30
0.0
 11
162.629976
 21
133.956578
 31
0.0
  0
LINE
  5
93
100
AcDbEntity
  8
0
390
0
  6
Continuous
 62
     9
100
AcDbLine
 10
172.629979
 20
131.456581
 30
0.0
 11
160.129979
 21
131.456581
 31
0.0
  0
LINE
  5
94
100
AcDbEntity
  8
0
390
0
  6
Continuous
 62
     9
100
AcDbLine
 10
160.129979
 20
131.456581
 30
0.0
 11
152.629979
 21
131.456581
 31
0.0
  0
LINE
  5
95
100
AcDbEntity
  8
0
390
0
  6
Continuous
 62
     7
100
AcDbLine
 10
152.629979
 20
133.956581
 30
0.0
 11
152.629979
 21
131.456581
 31
0.0
  0
LINE
  5
96
100
AcDbEntity
  8
0
390
0
  6
Continuous
 62
     7
100
AcDbLine
 10
158.029979
 20
133.956581
 30
0.0
 11
157.629981
 21
133.956581
 31
0.0
  0
LINE
  5
97
100
AcDbEntity
  8
0
390
0
  6
Continuous
 62
     7
100
AcDbLine
 10
157.629981
 20
133.956581
 30
0.0
 11
152.629979
 21
133.956581
 31
0.0
  0
POLYLINE
  5
98
100
AcDbEntity
  8
0
390
0
  6
Continuous
 62
     7
100
AcDb2dPolyline
 66
     1
 10
0.0
 20
0.0
 30
0.0
 40
0.1
 41
0.1
  0
VERTEX
  5
99
100
AcDbEntity
  8
0
390
0
 62
     7
100
AcDbVertex
100
AcDb2dVertex
 10
158.029979
 20
133.956581
 30
0.0
 42
0.151245
  0
VERTEX
  5
9A
100
AcDbEntity
  8
0
390
0
 62
     7
100
AcDbVertex
100
AcDb2dVertex
 10
160.094333
 20
132.813515
 30
0.0
 42
0.162899
  0
VERTEX
  5
9B
100
AcDbEntity
  8
0
390
0
 62
     7
100
AcDbVertex
100
AcDb2dVertex
 10
162.229979
 20
133.956581
 30
0.0
  0
SEQEND
  5
9C
100
AcDbEntity
  8
0
390
0
  0
LINE
  5
9D
100
AcDbEntity
  8
0
390
0
  6
Continuous
 62
     7
100
AcDbLine
 10
172.629979
 20
133.956581
 30
0.0
 11
162.629976
 21
133.956581
 31
0.0
  0
LINE
  5
9E
100
AcDbEntity
  8
0
390
0
  6
Continuous
 62
     7
100
AcDbLine
 10
162.629976
 20
133.956581
 30
0.0
 11
162.229979
 21
133.956581
 31
0.0
  0
LINE
  5
9F
100
AcDbEntity
  8
0
390
0
  6
Continuous
 62
     7
100
AcDbLine
 10
172.629979
 20
133.956581
 30
0.0
 11
172.629979
 21
131.456581
 31
0.0
  0
LINE
  5
A0
100
AcDbEntity
  8
0
390
0
  6
Continuous
 62
     7
100
AcDbLine
 10
167.629979
 20
141.656581
 30
0.0
 11
162.629974
 21
141.656581
 31
0.0
  0
LINE
  5
A1
100
AcDbEntity
  8
0
390
0
  6
Continuous
 62
     7
100
AcDbLine
 10
162.629974
 20
141.656581
 30
0.0
 11
162.229979
 21
141.656581
 31
0.0
  0
ARC
  5
A2
100
AcDbEntity
  8
0
390
0
  6
Continuous
 62
     7
100
AcDbCircle
 10
160.129979
 20
161.546025
 30
0.0
 40
20.0
210
0.0
220
0.0
230
1.0
100
AcDbArc
 50
263.972833
 51
276.027167
  0
LINE
  5
A3
100
AcDbEntity
  8
0
390
0
  6
Continuous
 62
     7
100
AcDbLine
 10
158.029979
 20
141.656581
 30
0.0
 11
157.629984
 21
141.656581
 31
0.0
  0
LINE
  5
A4
100
AcDbEntity
  8
0
390
0
  6
Continuous
 62
     7
100
AcDbLine
 10
157.629984
 20
141.656581
 30
0.0
 11
152.629979
 21
141.656581
 31
0.0
  0
LINE
  5
A5
100
AcDbEntity
  8
0
390
0
  6
Continuous
 62
     7
100
AcDbLine
 10
152.629979
 20
101.656581
 30
0.0
 11
167.629979
 21
101.656581
 31
0.0
  0
LINE
  5
A6
100
AcDbEntity
  8
0
390
0
  6
Continuous
 62
     7
100
AcDbLine
 10
152.629979
 20
133.956581
 30
0.0
 11
152.629979
 21
141.656581
 31
0.0
  0
LINE
  5
A7
100
AcDbEntity
  8
0
390
0
  6
Continuous
 62
     7
100
AcDbLine
 10
172.629979
 20
128.727648
 30
0.0
 11
152.629979
 21
128.727648
 31
0.0
  0
LINE
  5
A8
100
AcDbEntity
  8
0
390
0
  6
Continuous
 62
     7
100
AcDbLine
 10
172.629979
 20
128.727648
 30
0.0
 11
172.629979
 21
114.156581
 31
0.0
  0
LINE
  5
A9
100
AcDbEntity
  8
0
390
0
  6
Continuous
 62
     7
100
AcDbLine
 10
152.629979
 20
114.156581
 30
0.0
 11
172.629979
 21
114.156581
 31
0.0
  0
LINE
  5
AA
100
AcDbEntity
  8
0
390
0
  6
Continuous
 62
     7
100
AcDbLine
 10
152.629979
 20
128.727648
 30
0.0
 11
152.629979
 21
114.156581
 31
0.0
  0
LINE
  5
AB
100
AcDbEntity
  8
0
390
0
  6
Continuous
 62
     7
100
AcDbLine
 10
167.629979
 20
84.156581
 30
0.0
 11
177.629979
 21
84.156581
 31
0.0
  0
LINE
  5
AC
100
AcDbEntity
  8
0
390
0
  6
Continuous
 62
     7
100
AcDbLine
 10
167.629979
 20
84.156581
 30
0.0
 11
167.629979
 21
101.656581
 31
0.0
  0
LINE
  5
AD
100
AcDbEntity
  8
0
390
0
  6
Continuous
 62
     7
100
AcDbLine
 10
172.629979
 20
108.656581
 30
0.0
 11
172.629979
 21
114.156581
 31
0.0
  0
LINE
  5
AE
100
AcDbEntity
  8
0
390
0
  6
Continuous
 62
     7
100
AcDbLine
 10
172.629979
 20
108.656581
 30
0.0
 11
177.629979
 21
108.656581
 31
0.0
  0
LINE
  5
AF
100
AcDbEntity
  8
0
390
0
  6
Continuous
 62
     7
100
AcDbLine
 10
177.629979
 20
84.156581
 30
0.0
 11
177.629979
 21
108.656581
 31
0.0
  0
LINE
  5
B0
100
AcDbEntity
  8
0
390
0
  6
Continuous
 62
     7
100
AcDbLine
 10
152.629979
 20
101.656581
 30
0.0
 11
152.629979
 21
114.156581
 31
0.0
  0
LINE
  5
B1
100
AcDbEntity
  8
0
390
0
  6
Continuous
 62
     7
100
AcDbLine
 10
167.629979
 20
141.656581
 30
0.0
 11
167.629979
 21
159.156581
 31
0.0
  0
LINE
  5
B2
100
AcDbEntity
  8
0
390
0
  6
Continuous
 62
     7
100
AcDbLine
 10
177.629979
 20
159.156581
 30
0.0
 11
167.629979
 21
159.156581
 31
0.0
  0
LINE
  5
B3
100
AcDbEntity
  8
0
390
0
  6
Continuous
 62
     7
100
AcDbLine
 10
177.629979
 20
134.656581
 30
0.0
 11
177.629979
 21
159.156581
 31
0.0
  0
LINE
  5
B4
100
AcDbEntity
  8
0
390
0
  6
Continuous
 62
     7
100
AcDbLine
 10
177.629979
 20
134.656581
 30
0.0
 11
172.629979
 21
134.656581
 31
0.0
  0
LINE
  5
B5
100
AcDbEntity
  8
0
390
0
  6
Continuous
 62
     7
100
AcDbLine
 10
172.629979
 20
133.956581
 30
0.0
 11
172.629979
 21
134.656581
 31
0.0
  0
LINE
  5
B6
100
AcDbEntity
  8
0
390
0
  6
Continuous
 62
     7
100
AcDbLine
 10
177.629979
 20
134.656581
 30
0.0
 11
177.629979
 21
108.656581
 31
0.0
  0
LINE
  5
B7
100
AcDbEntity
  8
0
390
0
  6
Continuous
 62
     7
100
AcDbLine
 10
172.629979
 20
128.727648
 30
0.0
 11
172.629979
 21
131.456581
 31
0.0
  0
LINE
  5
B8
100
AcDbEntity
  8
0
390
0
  6
Continuous
 62
     7
100
AcDbLine
 10
152.629979
 20
128.727648
 30
0.0
 11
152.629979
 21
131.456581
 31
0.0
  0
LINE
  5
B9
100
AcDbEntity
  8
0
390
0
  6
Continuous
 62
     7
100
AcDbLine
 10
181.629979
 20
159.156581
 30
0.0
 11
177.629979
 21
159.156581
 31
0.0
  0
LINE
  5
BA
100
AcDbEntity
  8
0
390
0
  6
Continuous
 62
     7
100
AcDbLine
 10
181.629979
 20
134.656581
 30
0.0
 11
181.629979
 21
159.156581
 31
0.0
  0
LINE
  5
BB
100
AcDbEntity
  8
0
390
0
  6
Continuous
 62
     7
100
AcDbLine
 10
181.629979
 20
134.656581
 30
0.0
 11
177.629979
 21
134.656581
 31
0.0
  0
LINE
  5
BC
100
AcDbEntity
  8
0
390
0
  6
Continuous
 62
     7
100
AcDbLine
 10
177.629979
 20
134.656581
 30
0.0
 11
177.629979
 21
159.156581
 31
0.0
  0
LINE
  5
BD
100
AcDbEntity
  8
0
390
0
  6
Continuous
 62
     7
100
AcDbLine
 10
181.629979
 20
108.656581
 30
0.0
 11
181.629979
 21
134.656581
 31
0.0
  0
LINE
  5
BE
100
AcDbEntity
  8
0
390
0
  6
Continuous
 62
     7
100
AcDbLine
 10
177.629979
 20
108.656581
 30
0.0
 11
181.629979
 21
108.656581
 31
0.0
  0
LINE
  5
BF
100
AcDbEntity
  8
0
390
0
  6
Continuous
 62
     7
100
AcDbLine
 10
177.629979
 20
134.656581
 30
0.0
 11
177.629979
 21
108.656581
 31
0.0
  0
LINE
  5
C0
100
AcDbEntity
  8
0
390
0
  6
Continuous
 62
     7
100
AcDbLine
 10
181.629979
 20
84.156581
 30
0.0
 11
181.629979
 21
108.656581
 31
0.0
  0
LINE
  5
C1
100
AcDbEntity
  8
0
390
0
  6
Continuous
 62
     7
100
AcDbLine
 10
177.629979
 20
84.156581
 30
0.0
 11
181.629979
 21
84.156581
 31
0.0
  0
LINE
  5
C2
100
AcDbEntity
  8
0
390
0
  6
Continuous
 62
     7
100
AcDbLine
 10
177.629979
 20
84.156581
 30
0.0
 11
177.629979
 21
108.656581
 31
0.0
  0
HATCH
  5
C3
100
AcDbEntity
  8
0
390
0
 62
     3
100
AcDbHatch
 10
177.62997874220227
 20
84.156580613361598
 30
0.0
210
0.0
220
0.0
230
1.0
  2
ANSI37
 70
     0
 71
     0
 91
        2
 92
        1
 93
        4
 72
     1
 10
177.62997874220227
 20
84.156580613361598
 11
181.62997874220227
 21
84.156580613361598
 72
     1
 10
181.62997874220227
 20
84.156580613361598
 11
181.62997874220227
 21
108.6565806133616
 72
     1
 10
181.62997874220227
 20
108.6565806133616
 11
177.62997874220227
 21
108.6565806133616
 72
     1
 10
177.62997874220227
 20
108.6565806133616
 11
177.62997874220227
 21
84.156580613361598
 97
        0
 92
        1
 93
        4
 72
     1
 10
177.62997874220227
 20
134.6565806133616
 11
181.62997874220227
 21
134.6565806133616
 72
     1
 10
181.62997874220227
 20
134.6565806133616
 11
181.62997874220227
 21
159.1565806133616
 72
     1
 10
181.62997874220227
 20
159.1565806133616
 11
177.62997874220227
 21
159.1565806133616
 72
     1
 10
177.62997874220227
 20
159.1565806133616
 11
177.62997874220227
 21
134.6565806133616
 97
        0
 75
     0
 76
     1
 52
0.0
 41
19.75
 77
     0
 78
     2
 53
45.0
 43
0.0
 44
0.0
 45
-1.7456698660542893
 46
1.7456698660542895
 79
     0
 53
135.0
 43
0.0
 44
0.0
 45
-1.7456698660542895
 46
-1.7456698660542893
 79
     0
 98
        1
 10
0.0
 20
0.0
  0
HATCH
  5
C4
100
AcDbEntity
  8
0
390
0
 62
     3
100
AcDbHatch
 10
177.62997874220227
 20
84.156580613361598
 30
0.0
210
0.0
220
0.0
230
1.0
  2
ANSI31
 70
     0
 71
     0
 91
        3
 92
        1
 93
        8
 72
     1
 10
177.62997874220227
 20
84.156580613361598
 11
177.62997874220227
 21
108.6565806133616
 72
     1
 10
177.62997874220227
 20
108.6565806133616
 11
172.62997874220227
 21
108.65658061336161
 72
     1
 10
172.62997874220227
 20
108.65658061336161
 11
172.62997874220227
 21
114.1565806133616
 72
     1
 10
172.62997874220227
 20
114.1565806133616
 11
152.62997874220227
 21
114.1565806133616
 72
     1
 10
152.62997874220227
 20
114.1565806133616
 11
152.62997874220227
 21
101.6565806133616
 72
     1
 10
152.62997874220227
 20
101.6565806133616
 11
167.62997874220227
 21
101.6565806133616
 72
     1
 10
167.62997874220227
 20
101.6565806133616
 11
167.62997874220227
 21
84.156580613361598
 72
     1
 10
167.62997874220227
 20
84.156580613361598
 11
177.62997874220227
 21
84.156580613361598
 97
        0
 92
        1
 93
        8
 72
     1
 10
177.62997874220227
 20
134.6565806133616
 11
177.62997874220227
 21
159.1565806133616
 72
     1
 10
177.62997874220227
 20
159.1565806133616
 11
167.62997874220227
 21
159.1565806133616
 72
     1
 10
167.62997874220227
 20
159.1565806133616
 11
167.62997874220227
 21
141.6565806133616
 72
     1
 10
167.62997874220227
 20
141.6565806133616
 11
162.22997874220226
 21
141.6565806133616
 72
     1
 10
162.22997874220226
 20
141.6565806133616
 11
162.22997874220226
 21
133.95658061336161
 72
     1
 10
162.22997874220226
 20
133.95658061336161
 11
172.62997874220227
 21
133.95658061336161
 72
     1
 10
172.62997874220227
 20
133.95658061336161
 11
172.62997874220227
 21
134.6565806133616
 72
     1
 10
172.62997874220227
 20
134.6565806133616
 11
177.62997874220227
 21
134.6565806133616
 97
        0
 92
        1
 93
        4
 72
     1
 10
152.62997874220227
 20
133.95658061336161
 11
158.02997874220225
 21
133.95658061336161
 72
     1
 10
158.02997874220225
 20
133.95658061336161
 11
158.02997874220225
 21
141.6565806133616
 72
     1
 10
158.02997874220225
 20
141.6565806133616
 11
152.62997874220227
 21
141.6565806133616
 72
     1
 10
152.62997874220227
 20
141.6565806133616
 11
152.62997874220227
 21
133.95658061336161
 97
        0
 75
     0
 76
     1
 52
0.0
 41
25.0
 77
     0
 78
     1
 53
45.0
 43
0.0
 44
0.0
 45
-2.2097086912079607
 46
2.2097086912079611
 79
     0
 98
        1
 10
0.0
 20
0.0
  0
HATCH
  5
C5
100
AcDbEntity
  8
0
390
0
 62
     3
100
AcDbHatch
 10
195.62997874220227
 20
108.6565806133616
 30
0.0
210
0.0
220
0.0
230
1.0
  2
ANSI31
 70
     0
 71
     0
 91
        3
 92
        1
 93
        8
 72
     1
 10
195.62997874220227
 20
108.6565806133616
 11
195.62997874220227
 21
84.156580613361598
 72
     1
 10
195.62997874220227
 20
84.156580613361598
 11
205.62997874220227
 21
84.156580613361598
 72
     1
 10
205.62997874220227
 20
84.156580613361598
 11
205.62997874220227
 21
101.6565806133616
 72
     1
 10
205.62997874220227
 20
101.6565806133616
 11
220.62997874220227
 21
101.6565806133616
 72
     1
 10
220.62997874220227
 20
101.6565806133616
 11
220.62997874220227
 21
114.1565806133616
 72
     1
 10
220.62997874220227
 20
114.1565806133616
 11
200.62997874220227
 21
114.1565806133616
 72
     1
 10
200.62997874220227
 20
114.1565806133616
 11
200.62997874220227
 21
108.6565806133616
 72
     1
 10
200.62997874220227
 20
108.6565806133616
 11
195.62997874220227
 21
108.6565806133616
 97
        0
 92
        1
 93
        4
 72
     1
 10
220.62997874220227
 20
141.6565806133616
 11
215.22997874220229
 21
141.6565806133616
 72
     1
 10
215.22997874220229
 20
141.6565806133616
 11
215.22997874220226
 21
133.95658061336161
 72
     1
 10
215.22997874220226
 20
133.95658061336161
 11
220.62997874220227
 21
133.95658061336161
 72
     1
 10
220.62997874220227
 20
133.95658061336161
 11
220.62997874220227
 21
141.6565806133616
 97
        0
 92
        1
 93
        8
 72
     1
 10
200.62997874220227
 20
134.65658061336157
 11
200.62997874220227
 21
133.95658061336161
 72
     1
 10
200.62997874220227
 20
133.95658061336161
 11
211.02997874220227
 21
133.95658061336161
 72
     1
 10
211.02997874220227
 20
133.95658061336161
 11
211.02997874220227
 21
141.6565806133616
 72
     1
 10
211.02997874220227
 20
141.6565806133616
 11
205.62997874220227
 21
141.6565806133616
 72
     1
 10
205.62997874220227
 20
141.6565806133616
 11
205.62997874220227
 21
159.1565806133616
 72
     1
 10
205.62997874220227
 20
159.1565806133616
 11
195.62997874220227
 21
159.1565806133616
 72
     1
 10
195.62997874220227
 20
159.1565806133616
 11
195.62997874220227
 21
134.6565806133616
 72
     1
 10
195.62997874220227
 20
134.6565806133616
 11
200.62997874220227
 21
134.65658061336157
 97
        0
 75
     0
 76
     1
 52
0.0
 41
25.0
 77
     0
 78
     1
 53
45.0
 43
0.0
 44
0.0
 45
-2.2097086912079607
 46
2.2097086912079611
 79
     0
 98
        1
 10
0.0
 20
0.0
  0
HATCH
  5
C6
100
AcDbEntity
  8
0
390
0
 62
     3
100
AcDbHatch
 10
195.62997874220227
 20
159.1565806133616
 30
0.0
210
0.0
220
0.0
230
1.0
  2
ANSI37
 70
     0
 71
     0
 91
        2
 92
        1
 93
        4
 72
     1
 10
195.62997874220227
 20
159.1565806133616
 11
191.62997874220227
 21
159.1565806133616
 72
     1
 10
191.62997874220227
 20
159.1565806133616
 11
191.62997874220227
 21
134.6565806133616
 72
     1
 10
191.62997874220227
 20
134.6565806133616
 11
195.62997874220227
 21
134.6565806133616
 72
     1
 10
195.62997874220227
 20
134.6565806133616
 11
195.62997874220227
 21
159.1565806133616
 97
        0
 92
        1
 93
        4
 72
     1
 10
195.62997874220227
 20
108.6565806133616
 11
191.62997874220227
 21
108.6565806133616
 72
     1
 10
191.62997874220227
 20
108.6565806133616
 11
191.62997874220227
 21
84.156580613361598
 72
     1
 10
191.62997874220227
 20
84.156580613361598
 11
195.62997874220227
 21
84.156580613361598
 72
     1
 10
195.62997874220227
 20
84.156580613361598
 11
195.62997874220227
 21
108.6565806133616
 97
        0
 75
     0
 76
     1
 52
0.0
 41
19.75
 77
     0
 78
     2
 53
45.0
 43
0.0
 44
0.0
 45
-1.7456698660542893
 46
1.7456698660542895
 79
     0
 53
135.0
 43
0.0
 44
0.0
 45
-1.7456698660542895
 46
-1.7456698660542893
 79
     0
 98
        1
 10
0.0
 20
0.0
  0
INSERT
  5
CB
100
AcDbEntity
  8
0
390
0
100
AcDbBlockReference
  2
AID281
 10
0.0
 20
0.0
 30
0.0
  0
DIMENSION
  5
CC
100
AcDbEntity
  8
0
390
0
100
AcDbDimension
  2
*D2
 10
71.893583
 20
126.905317
 30
0.0
 11
127.980353
 21
90.136626
 31
0.0
 70
     3
 71
     5
 72
     1
 41
1.0
 42
0.0
  3
Standard
100
AcDbDiametricDimension
 15
82.608201
 25
116.407844
 35
0.0
 40
0.0
1001
ACAD
1000
DSTYLE
1002
{
1070
    47
1040
0.018
1070
    71
1070
     1
1070
    48
1040
0.0
1070
    71
1070
     1
1070
    73
1070
     1
1070
    74
1070
     1
1070
     3
1000
%%c<>H8
1070
   288
1070
     1
1070
   280
1040
0.0
1070
   271
1070
     1
1070
   179
1070
     1
1002
}
  0
DIMENSION
  5
D9
100
AcDbEntity
  8
0
390
0
100
AcDbDimension
  2
*D3
 10
74.750892
 20
166.188622
 30
0.0
 11
89.256574
 21
169.652826
 31
0.0
 71
     5
 72
     1
 41
1.0
 42
0.0
  3
Standard
100
AcDbAlignedDimension
 13
74.750892
 23
131.456581
 33
0.0
 14
79.750892
 24
131.456581
 34
0.0
100
AcDbRotatedDimension
1001
ACAD
1000
DSTYLE
1002
{
1070
    47
1040
0.1
1070
    71
1070
     1
1070
    48
1040
0.0
1070
    71
1070
     1
1070
   280
1040
0.0
1070
   271
1070
     1
1070
   179
1070
     1
1002
}
  0
POINT
  5
EB
100
AcDbEntity
  8
0
390
0
 62
     2
100
AcDbPoint
 10
77.250892
 20
129.156581
 30
0.0
  0
POINT
  5
EC
100
AcDbEntity
  8
0
390
0
 62
     2
100
AcDbPoint
 10
77.250892
 20
131.456581
 30
0.0
  0
DIMENSION
  5
ED
100
AcDbEntity
  8
0
390
0
100
AcDbDimension
  2
*D4
 10
127.286753
 20
129.156581
 30
0.0
 11
123.822548
 21
141.069649
 31
0.0
 71
     5
 72
     1
 41
1.0
 42
0.0
  3
Standard
100
AcDbAlignedDimension
 13
77.250892
 23
129.156581
 33
0.0
 14
77.250892
 24
131.456581
 34
0.0
 50
90.0
100
AcDbRotatedDimension
1001
ACAD
1000
DSTYLE
1002
{
1070
    47
1040
0.2
1070
    71
1070
     1
1070
    48
1040
0.0
1070
    71
1070
     1
1070
   280
1040
0.0
1070
   271
1070
     1
1070
   179
1070
     1
1002
}
  0
LINE
  5
FF
100
AcDbEntity
  8
0
390
0
  6
CENTER
 62
     1
100
AcDbLine
 10
150.629979
 20
121.656581
 30
0.0
 11
222.629979
 21
121.656581
 31
0.0
  0
DIMENSION
  5
100
100
AcDbEntity
  8
0
390
0
100
AcDbDimension
  2
*D5
 10
239.183648
 20
159.156581
 30
0.0
 11
235.874557
 21
121.656581
 31
0.0
 71
     5
 72
     1
 41
1.0
 42
0.0
  3
Standard
100
AcDbAlignedDimension
 13
205.629979
 23
159.156581
 33
0.0
 14
205.629979
 24
84.156581
 34
0.0
 50
270.0
100
AcDbRotatedDimension
1001
ACAD
1000
DSTYLE
1002
{
1070
     3
1000
%%c<>
1070
   271
1070
     1
1070
   179
1070
     1
1002
}
  0
DIMENSION
  5
112
100
AcDbEntity
  8
0
390
0
100
AcDbDimension
  2
*D6
 10
231.422491
 20
101.656581
 30
0.0
 11
228.121354
 21
121.656581
 31
0.0
 71
     5
 72
     1
 41
1.0
 42
0.0
  3
Standard
100
AcDbAlignedDimension
 13
220.629979
 23
101.656581
 33
0.0
 14
220.629979
 24
141.656581
 34
0.0
 50
90.0
100
AcDbRotatedDimension
1001
ACAD
1000
DSTYLE
1002
{
1070
     3
1000
%%c<>
1070
   271
1070
     1
1070
   179
1070
     1
1002
}
  0
LINE
  5
124
100
AcDbEntity
  8
0
390
0
  6
CENTER
 62
     1
100
AcDbLine
 10
213.129979
 20
131.956578
 30
0.0
 11
213.129979
 21
143.65658
 31
0.0
  0
LINE
  5
125
100
AcDbEntity
  8
0
390
0
  6
CENTER
 62
     1
100
AcDbLine
 10
160.129979
 20
131.956581
 30
0.0
 11
160.129979
 21
143.656581
 31
0.0
  0
DIMENSION
  5
126
100
AcDbEntity
  8
0
390
0
100
AcDbDimension
  2
*D7
 10
191.629979
 20
191.600339
 30
0.0
 11
206.129979
 21
194.750339
 31
0.0
 71
     5
 72
     1
 41
1.0
 42
0.0
  3
Standard
100
AcDbAlignedDimension
 13
191.629979
 23
159.156581
 33
0.0
 14
220.629979
 24
141.656581
 34
0.0
100
AcDbRotatedDimension
1001
ACAD
1000
DSTYLE
1002
{
1070
    47
1040
0.3
1070
    71
1070
     1
1070
    48
1040
0.3
1070
    71
1070
     1
1070
   271
1070
     1
1070
   179
1070
     1
1002
}
  0
DIMENSION
  5
138
100
AcDbEntity
  8
0
390
0
100
AcDbDimension
  2
*D8
 10
191.629979
 20
167.554446
 30
0.0
 11
186.629979
 21
170.696491
 31
0.0
 71
     5
 72
     1
 41
1.0
 42
0.0
  1
AG
  3
Standard
100
AcDbAlignedDimension
 13
191.629979
 23
159.156581
 33
0.0
 14
181.629979
 24
159.156581
 34
0.0
100
AcDbRotatedDimension
1001
ACAD
1000
DSTYLE
1002
{
1070
   271
1070
     1
1070
   179
1070
     1
1002
}
  0
DIMENSION
  5
14A
100
AcDbEntity
  8
0
390
0
100
AcDbDimension
  2
*D9
 10
191.629979
 20
176.366245
 30
0.0
 11
198.629979
 21
179.508291
 31
0.0
 71
     5
 72
     1
 41
1.0
 42
0.0
  3
Standard
100
AcDbAlignedDimension
 13
191.629979
 23
159.156581
 33
0.0
 14
205.629979
 24
159.156581
 34
0.0
100
AcDbRotatedDimension
1001
ACAD
1000
DSTYLE
1002
{
1070
   271
1070
     1
1070
   179
1070
     1
1002
}
  0
DIMENSION
  5
15C
100
AcDbEntity
  8
0
390
0
100
AcDbDimension
  2
*D10
 10
191.629979
 20
184.274867
 30
0.0
 11
202.379979
 21
187.424867
 31
0.0
 71
     5
 72
     1
 41
1.0
 42
0.0
  3
Standard
100
AcDbAlignedDimension
 13
213.129979
 23
143.65658
 33
0.0
 14
191.629979
 24
159.156581
 34
0.0
100
AcDbRotatedDimension
1001
ACAD
1000
DSTYLE
1002
{
1070
   271
1070
     1
1070
   179
1070
     1
1002
}
  0
DIMENSION
  5
16E
100
AcDbEntity
  8
0
390
0
100
AcDbDimension
  2
*D11
 10
188.415441
 20
134.656581
 30
0.0
 11
185.10635
 21
121.656581
 31
0.0
 71
     5
 72
     1
 41
1.0
 42
0.0
  3
Standard
100
AcDbAlignedDimension
 13
191.629979
 23
134.656581
 33
0.0
 14
191.629979
 24
108.656581
 34
0.0
 50
270.0
100
AcDbRotatedDimension
1001
ACAD
1000
DSTYLE
1002
{
1070
     3
1000
%%c<>
1070
   271
1070
     1
1070
   179
1070
     1
1002
}
  0
DIMENSION
  5
180
100
AcDbEntity
  8
0
390
0
100
AcDbDimension
  2
*D12
 10
191.629979
 20
167.554446
 30
0.0
 11
196.129979
 21
170.704446
 31
0.0
 71
     5
 72
     1
 41
1.0
 42
0.0
  3
Standard
100
AcDbAlignedDimension
 13
191.629979
 23
159.156581
 33
0.0
 14
200.629979
 24
134.656581
 34
0.0
100
AcDbRotatedDimension
1001
ACAD
1000
DSTYLE
1002
{
1070
   271
1070
     1
1070
   179
1070
     1
1002
}
  0
POINT
  5
192
100
AcDbEntity
  8
0
390
0
 62
     2
100
AcDbPoint
 10
201.512075
 20
85.683632
 30
0.0
  0
LINE
  5
193
100
AcDbEntity
  8
0
390
0
  6
DOT
 62
     2
100
AcDbLine
 10
79.750897
 20
139.430742
 30
0.0
 11
74.750887
 21
139.430742
 31
0.0
  0
LINE
  5
194
100
AcDbEntity
  8
0
390
0
  6
DOT
 62
     2
100
AcDbLine
 10
79.750897
 20
139.814718
 30
0.0
 11
74.750887
 21
139.814718
 31
0.0
  0
ARC
  5
195
100
AcDbEntity
  8
0
390
0
  6
DOT
 62
     2
100
AcDbCircle
 10
76.625892
 20
137.983325
 30
0.0
 40
2.072229
210
0.0
220
0.0
230
1.0
100
AcDbArc
 50
72.445814
 51
107.554186
  0
ARC
  5
196
100
AcDbEntity
  8
0
390
0
  6
DOT
 62
     2
100
AcDbCircle
 10
77.875892
 20
137.983325
 30
0.0
 40
2.072229
210
0.0
220
0.0
230
1.0
100
AcDbArc
 50
72.445814
 51
107.554186
  0
LINE
  5
197
100
AcDbEntity
  8
0
390
0
  6
DOT
 62
     2
100
AcDbLine
 10
79.750892
 20
139.430742
 30
0.0
 11
74.750892
 21
139.430742
 31
0.0
  0
LINE
  5
198
100
AcDbEntity
  8
0
390
0
  6
DOT
 62
     2
100
AcDbLine
 10
78.500892
 20
134.055742
 30
0.0
 11
76.000892
 21
134.055742
 31
0.0
  0
LINE
  5
199
100
AcDbEntity
  8
0
390
0
  6
DOT
 62
     2
100
AcDbLine
 10
79.750892
 20
135.305742
 30
0.0
 11
79.366917
 21
135.305742
 31
0.0
  0
LINE
  5
19A
100
AcDbEntity
  8
0
390
0
  6
DOT
 62
     2
100
AcDbLine
 10
79.366917
 20
135.305742
 30
0.0
 11
75.134867
 21
135.305742
 31
0.0
  0
LINE
  5
19B
100
AcDbEntity
  8
0
390
0
  6
DOT
 62
     2
100
AcDbLine
 10
75.134867
 20
135.305742
 30
0.0
 11
74.750892
 21
135.305742
 31
0.0
  0
LINE
  5
19C
100
AcDbEntity
  8
0
390
0
  6
DOT
 62
     2
100
AcDbLine
 10
76.000892
 20
137.055742
 30
0.0
 11
77.250892
 21
137.055742
 31
0.0
  0
LINE
  5
19D
100
AcDbEntity
  8
0
390
0
  6
DOT
 62
     2
100
AcDbLine
 10
77.250892
 20
137.439718
 30
0.0
 11
77.250892
 21
137.055742
 31
0.0
  0
LINE
  5
19E
100
AcDbEntity
  8
0
390
0
  6
DOT
 62
     2
100
AcDbLine
 10
77.250892
 20
137.055742
 30
0.0
 11
78.500892
 21
137.055742
 31
0.0
  0
LINE
  5
19F
100
AcDbEntity
  8
0
390
0
  6
DOT
 62
     2
100
AcDbLine
 10
76.000892
 20
137.439718
 30
0.0
 11
76.000892
 21
137.055742
 31
0.0
  0
LINE
  5
1A0
100
AcDbEntity
  8
0
390
0
  6
DOT
 62
     2
100
AcDbLine
 10
78.500892
 20
137.439718
 30
0.0
 11
78.500892
 21
137.055742
 31
0.0
  0
LINE
  5
1A1
100
AcDbEntity
  8
0
390
0
  6
DOT
 62
     2
100
AcDbLine
 10
78.500892
 20
134.439718
 30
0.0
 11
76.000892
 21
134.439718
 31
0.0
  0
LINE
  5
1A2
100
AcDbEntity
  8
0
390
0
  6
DOT
 62
     2
100
AcDbLine
 10
79.750892
 20
135.689718
 30
0.0
 11
74.750892
 21
135.689718
 31
0.0
  0
LINE
  5
1A3
100
AcDbEntity
  8
0
390
0
  6
DOT
 62
     2
100
AcDbLine
 10
79.750892
 20
139.814718
 30
0.0
 11
74.750892
 21
139.814718
 31
0.0
  0
LINE
  5
1A4
100
AcDbEntity
  8
0
390
0
  6
DOT
 62
     2
100
AcDbLine
 10
78.500892
 20
140.439718
 30
0.0
 11
78.500892
 21
140.34303
 31
0.0
  0
LINE
  5
1A5
100
AcDbEntity
  8
0
390
0
  6
DOT
 62
     2
100
AcDbLine
 10
76.000892
 20
140.34303
 30
0.0
 11
76.000892
 21
140.439718
 31
0.0
  0
ARC
  5
1A6
100
AcDbEntity
  8
0
390
0
  6
DOT
 62
     2
100
AcDbCircle
 10
76.625892
 20
138.3673
 30
0.0
 40
2.072229
210
0.0
220
0.0
230
1.0
100
AcDbArc
 50
72.445814
 51
107.554186
  0
ARC
  5
1A7
100
AcDbEntity
  8
0
390
0
  6
DOT
 62
     2
100
AcDbCircle
 10
77.875892
 20
138.3673
 30
0.0
 40
2.072229
210
0.0
220
0.0
230
1.0
100
AcDbArc
 50
72.445814
 51
107.554186
  0
LINE
  5
1A8
100
AcDbEntity
  8
0
390
0
  6
DOT
 62
     2
100
AcDbLine
 10
77.250892
 20
140.34303
 30
0.0
 11
77.250892
 21
139.814718
 31
0.0
  0
LINE
  5
1A9
100
AcDbEntity
  8
0
390
0
  6
DOT
 62
     2
100
AcDbLine
 10
77.250892
 20
139.814718
 30
0.0
 11
77.250892
 21
137.439718
 31
0.0
  0
LINE
  5
1AA
100
AcDbEntity
  8
0
390
0
  6
DOT
 62
     2
100
AcDbLine
 10
76.000892
 20
137.439718
 30
0.0
 11
77.250892
 21
137.439718
 31
0.0
  0
LINE
  5
1AB
100
AcDbEntity
  8
0
390
0
  6
DOT
 62
     2
100
AcDbLine
 10
77.250892
 20
137.439718
 30
0.0
 11
78.500892
 21
137.439718
 31
0.0
  0
LINE
  5
1AC
100
AcDbEntity
  8
0
390
0
  6
DOT
 62
     2
100
AcDbLine
 10
76.000892
 20
140.34303
 30
0.0
 11
76.000892
 21
139.814718
 31
0.0
  0
LINE
  5
1AD
100
AcDbEntity
  8
0
390
0
  6
DOT
 62
     2
100
AcDbLine
 10
76.000892
 20
139.814718
 30
0.0
 11
76.000892
 21
137.439718
 31
0.0
  0
LINE
  5
1AE
100
AcDbEntity
  8
0
390
0
  6
DOT
 62
     2
100
AcDbLine
 10
78.500892
 20
140.34303
 30
0.0
 11
78.500892
 21
139.814718
 31
0.0
  0
LINE
  5
1AF
100
AcDbEntity
  8
0
390
0
  6
DOT
 62
     2
100
AcDbLine
 10
78.500892
 20
139.814718
 30
0.0
 11
78.500892
 21
137.439718
 31
0.0
  0
LINE
  5
1B0
100
AcDbEntity
  8
0
390
0
  6
DOT
 62
     2
100
AcDbLine
 10
79.350892
 20
135.289718
 30
0.0
 11
79.350892
 21
139.814718
 31
0.0
  0
LINE
  5
1B1
100
AcDbEntity
  8
0
390
0
  6
DOT
 62
     2
100
AcDbLine
 10
75.150892
 20
139.814718
 30
0.0
 11
75.150892
 21
135.289718
 31
0.0
  0
LINE
  5
1B2
100
AcDbEntity
  8
0
390
0
  6
DOT
 62
     2
100
AcDbLine
 10
79.750892
 20
139.430742
 30
0.0
 11
79.350892
 21
139.630742
 31
0.0
  0
LINE
  5
1B3
100
AcDbEntity
  8
0
390
0
  6
DOT
 62
     2
100
AcDbLine
 10
79.350892
 20
139.630742
 30
0.0
 11
78.500892
 21
140.055742
 31
0.0
  0
LINE
  5
1B4
100
AcDbEntity
  8
0
390
0
  6
DOT
 62
     2
100
AcDbLine
 10
76.000892
 20
140.055742
 30
0.0
 11
75.150892
 21
139.630742
 31
0.0
  0
LINE
  5
1B5
100
AcDbEntity
  8
0
390
0
  6
DOT
 62
     2
100
AcDbLine
 10
75.150892
 20
139.630742
 30
0.0
 11
74.750892
 21
139.430742
 31
0.0
  0
LINE
  5
1B6
100
AcDbEntity
  8
0
390
0
  6
DOT
 62
     2
100
AcDbLine
 10
74.750892
 20
135.305742
 30
0.0
 11
75.150892
 21
134.905742
 31
0.0
  0
LINE
  5
1B7
100
AcDbEntity
  8
0
390
0
  6
DOT
 62
     2
100
AcDbLine
 10
75.150892
 20
134.905742
 30
0.0
 11
75.516297
 21
134.540337
 31
0.0
  0
LINE
  5
1B8
100
AcDbEntity
  8
0
390
0
  6
DOT
 62
     2
100
AcDbLine
 10
75.516297
 20
134.540337
 30
0.0
 11
76.000892
 21
134.055742
 31
0.0
  0
LINE
  5
1B9
100
AcDbEntity
  8
0
390
0
  6
DOT
 62
     2
100
AcDbLine
 10
78.500892
 20
134.055742
 30
0.0
 11
78.985486
 21
134.540337
 31
0.0
  0
LINE
  5
1BA
100
AcDbEntity
  8
0
390
0
  6
DOT
 62
     2
100
AcDbLine
 10
78.985486
 20
134.540337
 30
0.0
 11
79.350892
 21
134.905742
 31
0.0
  0
LINE
  5
1BB
100
AcDbEntity
  8
0
390
0
  6
DOT
 62
     2
100
AcDbLine
 10
79.350892
 20
134.905742
 30
0.0
 11
79.750892
 21
135.305742
 31
0.0
  0
LINE
  5
1BC
100
AcDbEntity
  8
0
390
0
  6
DOT
 62
     2
100
AcDbLine
 10
79.750892
 20
135.305742
 30
0.0
 11
79.750892
 21
135.689718
 31
0.0
  0
LINE
  5
1BD
100
AcDbEntity
  8
0
390
0
  6
DOT
 62
     2
100
AcDbLine
 10
74.750892
 20
135.689718
 30
0.0
 11
74.750892
 21
135.305742
 31
0.0
  0
LINE
  5
1BE
100
AcDbEntity
  8
0
390
0
  6
DOT
 62
     2
100
AcDbLine
 10
78.500892
 20
134.055742
 30
0.0
 11
77.250892
 21
134.778286
 31
0.0
  0
LINE
  5
1BF
100
AcDbEntity
  8
0
390
0
  6
DOT
 62
     2
100
AcDbLine
 10
77.250892
 20
134.778286
 30
0.0
 11
76.000892
 21
134.055742
 31
0.0
  0
LINE
  5
1C0
100
AcDbEntity
  8
0
390
0
  6
DOT
 62
     2
100
AcDbLine
 10
74.750892
 20
135.689718
 30
0.0
 11
75.150892
 21
135.289718
 31
0.0
  0
LINE
  5
1C1
100
AcDbEntity
  8
0
390
0
  6
DOT
 62
     2
100
AcDbLine
 10
75.150892
 20
135.289718
 30
0.0
 11
76.000892
 21
134.439718
 31
0.0
  0
LINE
  5
1C2
100
AcDbEntity
  8
0
390
0
  6
DOT
 62
     2
100
AcDbLine
 10
78.500892
 20
134.439718
 30
0.0
 11
79.350892
 21
135.289718
 31
0.0
  0
LINE
  5
1C3
100
AcDbEntity
  8
0
390
0
  6
DOT
 62
     2
100
AcDbLine
 10
79.350892
 20
135.289718
 30
0.0
 11
79.750892
 21
135.689718
 31
0.0
  0
LINE
  5
1C4
100
AcDbEntity
  8
0
390
0
  6
DOT
 62
     2
100
AcDbLine
 10
79.750892
 20
135.689718
 30
0.0
 11
79.750892
 21
139.814718
 31
0.0
  0
LINE
  5
1C5
100
AcDbEntity
  8
0
390
0
  6
DOT
 62
     2
100
AcDbLine
 10
74.750892
 20
139.814718
 30
0.0
 11
74.750892
 21
135.689718
 31
0.0
  0
LINE
  5
1C6
100
AcDbEntity
  8
0
390
0
  6
DOT
 62
     2
100
AcDbLine
 10
79.750892
 20
139.814718
 30
0.0
 11
79.350892
 21
140.014718
 31
0.0
  0
LINE
  5
1C7
100
AcDbEntity
  8
0
390
0
  6
DOT
 62
     2
100
AcDbLine
 10
79.350892
 20
140.014718
 30
0.0
 11
78.500892
 21
140.439718
 31
0.0
  0
LINE
  5
1C8
100
AcDbEntity
  8
0
390
0
  6
DOT
 62
     2
100
AcDbLine
 10
76.000892
 20
140.439718
 30
0.0
 11
75.150892
 21
140.014718
 31
0.0
  0
LINE
  5
1C9
100
AcDbEntity
  8
0
390
0
  6
DOT
 62
     2
100
AcDbLine
 10
75.150892
 20
140.014718
 30
0.0
 11
74.750892
 21
139.814718
 31
0.0
  0
LINE
  5
1CA
100
AcDbEntity
  8
0
390
0
  6
DOT
 62
     2
100
AcDbLine
 10
78.500892
 20
134.439718
 30
0.0
 11
77.250892
 21
135.162261
 31
0.0
  0
LINE
  5
1CB
100
AcDbEntity
  8
0
390
0
  6
DOT
 62
     2
100
AcDbLine
 10
77.250892
 20
135.162261
 30
0.0
 11
76.000892
 21
134.439718
 31
0.0
  0
LINE
  5
1CC
100
AcDbEntity
  8
0
390
0
  6
Continuous
 62
     7
100
AcDbLine
 10
215.629984
 20
139.430742
 30
0.0
 11
213.129979
 21
139.430742
 31
0.0
  0
LINE
  5
1CD
100
AcDbEntity
  8
0
390
0
  6
Continuous
 62
     7
100
AcDbLine
 10
213.129979
 20
139.430742
 30
0.0
 11
210.629974
 21
139.430742
 31
0.0
  0
LINE
  5
1CE
100
AcDbEntity
  8
0
390
0
  6
Continuous
 62
     7
100
AcDbLine
 10
215.629979
 20
139.430742
 30
0.0
 11
213.129979
 21
139.430742
 31
0.0
  0
POLYLINE
  5
1CF
100
AcDbEntity
  8
0
390
0
  6
Continuous
 62
     7
100
AcDb2dPolyline
 66
     1
 10
0.0
 20
0.0
 30
0.0
 40
0.1
 41
0.1
  0
VERTEX
  5
1D0
100
AcDbEntity
  8
0
390
0
 62
     7
100
AcDbVertex
100
AcDb2dVertex
 10
214.573354
 20
139.959055
 30
0.0
  0
VERTEX
  5
1D1
100
AcDbEntity
  8
0
390
0
 62
     7
100
AcDbVertex
100
AcDb2dVertex
 10
214.513798
 20
139.986913
 30
0.0
  0
VERTEX
  5
1D2
100
AcDbEntity
  8
0
390
0
 62
     7
100
AcDbVertex
100
AcDb2dVertex
 10
214.453812
 20
140.010779
 30
0.0
  0
VERTEX
  5
1D3
100
AcDbEntity
  8
0
390
0
 62
     7
100
AcDbVertex
100
AcDb2dVertex
 10
214.393087
 20
140.030174
 30
0.0
  0
VERTEX
  5
1D4
100
AcDbEntity
  8
0
390
0
 62
     7
100
AcDbVertex
100
AcDb2dVertex
 10
214.33201
 20
140.044421
 30
0.0
  0
VERTEX
  5
1D5
100
AcDbEntity
  8
0
390
0
 62
     7
100
AcDbVertex
100
AcDb2dVertex
 10
214.269288
 20
140.053158
 30
0.0
  0
VERTEX
  5
1D6
100
AcDbEntity
  8
0
390
0
 62
     7
100
AcDbVertex
100
AcDb2dVertex
 10
214.206429
 20
140.055713
 30
0.0
  0
VERTEX
  5
1D7
100
AcDbEntity
  8
0
390
0
 62
     7
100
AcDbVertex
100
AcDb2dVertex
 10
214.142962
 20
140.051874
 30
0.0
  0
VERTEX
  5
1D8
100
AcDbEntity
  8
0
390
0
 62
     7
100
AcDbVertex
100
AcDb2dVertex
 10
214.079664
 20
140.04178
 30
0.0
  0
VERTEX
  5
1D9
100
AcDbEntity
  8
0
390
0
 62
     7
100
AcDbVertex
100
AcDb2dVertex
 10
214.022335
 20
140.027449
 30
0.0
  0
VERTEX
  5
1DA
100
AcDbEntity
  8
0
390
0
 62
     7
100
AcDbVertex
100
AcDb2dVertex
 10
213.96524
 20
140.008606
 30
0.0
  0
VERTEX
  5
1DB
100
AcDbEntity
  8
0
390
0
 62
     7
100
AcDbVertex
100
AcDb2dVertex
 10
213.908287
 20
139.985633
 30
0.0
  0
VERTEX
  5
1DC
100
AcDbEntity
  8
0
390
0
 62
     7
100
AcDbVertex
100
AcDb2dVertex
 10
213.851667
 20
139.959055
 30
0.0
  0
SEQEND
  5
1DD
100
AcDbEntity
  8
0
390
0
  0
POLYLINE
  5
1DE
100
AcDbEntity
  8
0
390
0
  6
Continuous
 62
     7
100
AcDb2dPolyline
 66
     1
 10
0.0
 20
0.0
 30
0.0
 40
0.1
 41
0.1
  0
VERTEX
  5
1DF
100
AcDbEntity
  8
0
390
0
 62
     7
100
AcDbVertex
100
AcDb2dVertex
 10
212.408291
 20
139.959055
 30
0.0
  0
VERTEX
  5
1E0
100
AcDbEntity
  8
0
390
0
 62
     7
100
AcDbVertex
100
AcDb2dVertex
 10
212.348734
 20
139.986913
 30
0.0
  0
VERTEX
  5
1E1
100
AcDbEntity
  8
0
390
0
 62
     7
100
AcDbVertex
100
AcDb2dVertex
 10
212.288749
 20
140.010779
 30
0.0
  0
VERTEX
  5
1E2
100
AcDbEntity
  8
0
390
0
 62
     7
100
AcDbVertex
100
AcDb2dVertex
 10
212.228024
 20
140.030174
 30
0.0
  0
VERTEX
  5
1E3
100
AcDbEntity
  8
0
390
0
 62
     7
100
AcDbVertex
100
AcDb2dVertex
 10
212.166946
 20
140.044421
 30
0.0
  0
VERTEX
  5
1E4
100
AcDbEntity
  8
0
390
0
 62
     7
100
AcDbVertex
100
AcDb2dVertex
 10
212.104225
 20
140.053158
 30
0.0
  0
VERTEX
  5
1E5
100
AcDbEntity
  8
0
390
0
 62
     7
100
AcDbVertex
100
AcDb2dVertex
 10
212.041366
 20
140.055713
 30
0.0
  0
VERTEX
  5
1E6
100
AcDbEntity
  8
0
390
0
 62
     7
100
AcDbVertex
100
AcDb2dVertex
 10
211.977899
 20
140.051874
 30
0.0
  0
VERTEX
  5
1E7
100
AcDbEntity
  8
0
390
0
 62
     7
100
AcDbVertex
100
AcDb2dVertex
 10
211.914601
 20
140.04178
 30
0.0
  0
VERTEX
  5
1E8
100
AcDbEntity
  8
0
390
0
 62
     7
100
AcDbVertex
100
AcDb2dVertex
 10
211.857271
 20
140.027449
 30
0.0
  0
VERTEX
  5
1E9
100
AcDbEntity
  8
0
390
0
 62
     7
100
AcDbVertex
100
AcDb2dVertex
 10
211.800176
 20
140.008606
 30
0.0
  0
VERTEX
  5
1EA
100
AcDbEntity
  8
0
390
0
 62
     7
100
AcDbVertex
100
AcDb2dVertex
 10
211.743224
 20
139.985633
 30
0.0
  0
VERTEX
  5
1EB
100
AcDbEntity
  8
0
390
0
 62
     7
100
AcDbVertex
100
AcDb2dVertex
 10
211.686603
 20
139.959055
 30
0.0
  0
SEQEND
  5
1EC
100
AcDbEntity
  8
0
390
0
  0
ARC
  5
1ED
100
AcDbEntity
  8
0
390
0
  6
Continuous
 62
     7
100
AcDbCircle
 10
213.129979
 20
137.307945
 30
0.0
 40
2.747584
210
0.0
220
0.0
230
1.0
100
AcDbArc
 50
74.771882
 51
105.228118
  0
LINE
  5
1EE
100
AcDbEntity
  8
0
390
0
  6
Continuous
 62
     7
100
AcDbLine
 10
213.129979
 20
139.430742
 30
0.0
 11
210.629979
 21
139.430742
 31
0.0
  0
LINE
  5
1EF
100
AcDbEntity
  8
0
390
0
  6
Continuous
 62
     7
100
AcDbLine
 10
215.629979
 20
135.305742
 30
0.0
 11
213.129979
 21
135.305742
 31
0.0
  0
LINE
  5
1F0
100
AcDbEntity
  8
0
390
0
  6
Continuous
 62
     7
100
AcDbLine
 10
213.129979
 20
135.305742
 30
0.0
 11
210.629979
 21
135.305742
 31
0.0
  0
LINE
  5
1F1
100
AcDbEntity
  8
0
390
0
  6
Continuous
 62
     7
100
AcDbLine
 10
214.379979
 20
134.055742
 30
0.0
 11
213.129979
 21
134.055742
 31
0.0
  0
LINE
  5
1F2
100
AcDbEntity
  8
0
390
0
  6
Continuous
 62
     7
100
AcDbLine
 10
213.129979
 20
134.055742
 30
0.0
 11
211.879979
 21
134.055742
 31
0.0
  0
LINE
  5
1F3
100
AcDbEntity
  8
0
390
0
  6
Continuous
 62
     7
100
AcDbLine
 10
162.629984
 20
139.814718
 30
0.0
 11
160.129979
 21
139.814718
 31
0.0
  0
LINE
  5
1F4
100
AcDbEntity
  8
0
390
0
  6
Continuous
 62
     7
100
AcDbLine
 10
160.129979
 20
139.814718
 30
0.0
 11
157.629974
 21
139.814718
 31
0.0
  0
LINE
  5
1F5
100
AcDbEntity
  8
0
390
0
  6
Continuous
 62
     7
100
AcDbLine
 10
162.629979
 20
135.689718
 30
0.0
 11
160.129979
 21
135.689718
 31
0.0
  0
LINE
  5
1F6
100
AcDbEntity
  8
0
390
0
  6
Continuous
 62
     7
100
AcDbLine
 10
162.629979
 20
139.814718
 30
0.0
 11
160.129979
 21
139.814718
 31
0.0
  0
LINE
  5
1F7
100
AcDbEntity
  8
0
390
0
  6
Continuous
 62
     7
100
AcDbLine
 10
160.129979
 20
135.689718
 30
0.0
 11
157.629979
 21
135.689718
 31
0.0
  0
LINE
  5
1F8
100
AcDbEntity
  8
0
390
0
  6
Continuous
 62
     7
100
AcDbLine
 10
160.129979
 20
139.814718
 30
0.0
 11
157.629979
 21
139.814718
 31
0.0
  0
POLYLINE
  5
1F9
100
AcDbEntity
  8
0
390
0
  6
Continuous
 62
     7
100
AcDb2dPolyline
 66
     1
 10
0.0
 20
0.0
 30
0.0
 40
0.1
 41
0.1
  0
VERTEX
  5
1FA
100
AcDbEntity
  8
0
390
0
 62
     7
100
AcDbVertex
100
AcDb2dVertex
 10
161.573354
 20
140.34303
 30
0.0
  0
VERTEX
  5
1FB
100
AcDbEntity
  8
0
390
0
 62
     7
100
AcDbVertex
100
AcDb2dVertex
 10
161.513798
 20
140.370889
 30
0.0
  0
VERTEX
  5
1FC
100
AcDbEntity
  8
0
390
0
 62
     7
100
AcDbVertex
100
AcDb2dVertex
 10
161.453812
 20
140.394754
 30
0.0
  0
VERTEX
  5
1FD
100
AcDbEntity
  8
0
390
0
 62
     7
100
AcDbVertex
100
AcDb2dVertex
 10
161.393087
 20
140.414149
 30
0.0
  0
VERTEX
  5
1FE
100
AcDbEntity
  8
0
390
0
 62
     7
100
AcDbVertex
100
AcDb2dVertex
 10
161.33201
 20
140.428396
 30
0.0
  0
VERTEX
  5
1FF
100
AcDbEntity
  8
0
390
0
 62
     7
100
AcDbVertex
100
AcDb2dVertex
 10
161.269288
 20
140.437133
 30
0.0
  0
VERTEX
  5
200
100
AcDbEntity
  8
0
390
0
 62
     7
100
AcDbVertex
100
AcDb2dVertex
 10
161.206429
 20
140.439688
 30
0.0
  0
VERTEX
  5
201
100
AcDbEntity
  8
0
390
0
 62
     7
100
AcDbVertex
100
AcDb2dVertex
 10
161.142962
 20
140.435849
 30
0.0
  0
VERTEX
  5
202
100
AcDbEntity
  8
0
390
0
 62
     7
100
AcDbVertex
100
AcDb2dVertex
 10
161.079664
 20
140.425755
 30
0.0
  0
VERTEX
  5
203
100
AcDbEntity
  8
0
390
0
 62
     7
100
AcDbVertex
100
AcDb2dVertex
 10
161.022335
 20
140.411425
 30
0.0
  0
VERTEX
  5
204
100
AcDbEntity
  8
0
390
0
 62
     7
100
AcDbVertex
100
AcDb2dVertex
 10
160.96524
 20
140.392581
 30
0.0
  0
VERTEX
  5
205
100
AcDbEntity
  8
0
390
0
 62
     7
100
AcDbVertex
100
AcDb2dVertex
 10
160.908287
 20
140.369609
 30
0.0
  0
VERTEX
  5
206
100
AcDbEntity
  8
0
390
0
 62
     7
100
AcDbVertex
100
AcDb2dVertex
 10
160.851667
 20
140.34303
 30
0.0
  0
SEQEND
  5
207
100
AcDbEntity
  8
0
390
0
  0
POLYLINE
  5
208
100
AcDbEntity
  8
0
390
0
  6
Continuous
 62
     7
100
AcDb2dPolyline
 66
     1
 10
0.0
 20
0.0
 30
0.0
 40
0.1
 41
0.1
  0
VERTEX
  5
209
100
AcDbEntity
  8
0
390
0
 62
     7
100
AcDbVertex
100
AcDb2dVertex
 10
159.408291
 20
140.34303
 30
0.0
  0
VERTEX
  5
20A
100
AcDbEntity
  8
0
390
0
 62
     7
100
AcDbVertex
100
AcDb2dVertex
 10
159.348734
 20
140.370889
 30
0.0
  0
VERTEX
  5
20B
100
AcDbEntity
  8
0
390
0
 62
     7
100
AcDbVertex
100
AcDb2dVertex
 10
159.288749
 20
140.394754
 30
0.0
  0
VERTEX
  5
20C
100
AcDbEntity
  8
0
390
0
 62
     7
100
AcDbVertex
100
AcDb2dVertex
 10
159.228024
 20
140.414149
 30
0.0
  0
VERTEX
  5
20D
100
AcDbEntity
  8
0
390
0
 62
     7
100
AcDbVertex
100
AcDb2dVertex
 10
159.166946
 20
140.428396
 30
0.0
  0
VERTEX
  5
20E
100
AcDbEntity
  8
0
390
0
 62
     7
100
AcDbVertex
100
AcDb2dVertex
 10
159.104225
 20
140.437133
 30
0.0
  0
VERTEX
  5
20F
100
AcDbEntity
  8
0
390
0
 62
     7
100
AcDbVertex
100
AcDb2dVertex
 10
159.041366
 20
140.439688
 30
0.0
  0
VERTEX
  5
210
100
AcDbEntity
  8
0
390
0
 62
     7
100
AcDbVertex
100
AcDb2dVertex
 10
158.977899
 20
140.435849
 30
0.0
  0
VERTEX
  5
211
100
AcDbEntity
  8
0
390
0
 62
     7
100
AcDbVertex
100
AcDb2dVertex
 10
158.914601
 20
140.425755
 30
0.0
  0
VERTEX
  5
212
100
AcDbEntity
  8
0
390
0
 62
     7
100
AcDbVertex
100
AcDb2dVertex
 10
158.857271
 20
140.411425
 30
0.0
  0
VERTEX
  5
213
100
AcDbEntity
  8
0
390
0
 62
     7
100
AcDbVertex
100
AcDb2dVertex
 10
158.800176
 20
140.392581
 30
0.0
  0
VERTEX
  5
214
100
AcDbEntity
  8
0
390
0
 62
     7
100
AcDbVertex
100
AcDb2dVertex
 10
158.743224
 20
140.369609
 30
0.0
  0
VERTEX
  5
215
100
AcDbEntity
  8
0
390
0
 62
     7
100
AcDbVertex
100
AcDb2dVertex
 10
158.686603
 20
140.34303
 30
0.0
  0
SEQEND
  5
216
100
AcDbEntity
  8
0
390
0
  0
ARC
  5
217
100
AcDbEntity
  8
0
390
0
  6
Continuous
 62
     7
100
AcDbCircle
 10
160.129979
 20
137.69192
 30
0.0
 40
2.747584
210
0.0
220
0.0
230
1.0
100
AcDbArc
 50
74.771882
 51
105.228118
  0
LINE
  5
218
100
AcDbEntity
  8
0
390
0
  6
Continuous
 62
     7
100
AcDbLine
 10
161.379979
 20
134.439718
 30
0.0
 11
160.129979
 21
134.439718
 31
0.0
  0
LINE
  5
219
100
AcDbEntity
  8
0
390
0
  6
Continuous
 62
     7
100
AcDbLine
 10
160.129979
 20
134.439718
 30
0.0
 11
158.879979
 21
134.439718
 31
0.0
  0
LINE
  5
21A
100
AcDbEntity
  8
0
390
0
  6
Continuous
 62
     7
100
AcDbLine
 10
211.029979
 20
133.956581
 30
0.0
 11
211.029979
 21
134.905722
 31
0.0
  0
LINE
  5
21B
100
AcDbEntity
  8
0
390
0
  6
Continuous
 62
     7
100
AcDbLine
 10
211.029979
 20
139.630742
 30
0.0
 11
211.029979
 21
141.656581
 31
0.0
  0
LINE
  5
21C
100
AcDbEntity
  8
0
390
0
  6
Continuous
 62
     7
100
AcDbLine
 10
215.229979
 20
141.656581
 30
0.0
 11
215.229979
 21
139.630742
 31
0.0
  0
LINE
  5
21D
100
AcDbEntity
  8
0
390
0
  6
Continuous
 62
     7
100
AcDbLine
 10
215.229979
 20
134.905722
 30
0.0
 11
215.229979
 21
133.956581
 31
0.0
  0
LINE
  5
21E
100
AcDbEntity
  8
0
390
0
  6
Continuous
 62
     7
100
AcDbLine
 10
158.029979
 20
133.956581
 30
0.0
 11
158.029979
 21
135.289698
 31
0.0
  0
LINE
  5
21F
100
AcDbEntity
  8
0
390
0
  6
Continuous
 62
     7
100
AcDbLine
 10
158.029979
 20
140.014718
 30
0.0
 11
158.029979
 21
141.656581
 31
0.0
  0
LINE
  5
220
100
AcDbEntity
  8
0
390
0
  6
Continuous
 62
     7
100
AcDbLine
 10
162.229979
 20
141.656581
 30
0.0
 11
162.229979
 21
140.014718
 31
0.0
  0
LINE
  5
221
100
AcDbEntity
  8
0
390
0
  6
Continuous
 62
     7
100
AcDbLine
 10
162.229979
 20
135.289698
 30
0.0
 11
162.229979
 21
133.956581
 31
0.0
  0
LINE
  5
222
100
AcDbEntity
  8
0
390
0
  6
Continuous
 62
     7
100
AcDbLine
 10
215.629979
 20
139.430742
 30
0.0
 11
214.573354
 21
139.959055
 31
0.0
  0
LINE
  5
223
100
AcDbEntity
  8
0
390
0
  6
Continuous
 62
     7
100
AcDbLine
 10
211.686603
 20
139.959055
 30
0.0
 11
210.629979
 21
139.430742
 31
0.0
  0
LINE
  5
224
100
AcDbEntity
  8
0
390
0
  6
Continuous
 62
     7
100
AcDbLine
 10
215.629979
 20
135.305742
 30
0.0
 11
215.629979
 21
139.430742
 31
0.0
  0
LINE
  5
225
100
AcDbEntity
  8
0
390
0
  6
Continuous
 62
     7
100
AcDbLine
 10
210.629979
 20
139.430742
 30
0.0
 11
210.629979
 21
135.305742
 31
0.0
  0
LINE
  5
226
100
AcDbEntity
  8
0
390
0
  6
Continuous
 62
     7
100
AcDbLine
 10
210.629979
 20
135.305742
 30
0.0
 11
211.029979
 21
134.905742
 31
0.0
  0
LINE
  5
227
100
AcDbEntity
  8
0
390
0
  6
Continuous
 62
     7
100
AcDbLine
 10
211.029979
 20
134.905742
 30
0.0
 11
211.879979
 21
134.055742
 31
0.0
  0
LINE
  5
228
100
AcDbEntity
  8
0
390
0
  6
Continuous
 62
     7
100
AcDbLine
 10
214.379979
 20
134.055742
 30
0.0
 11
215.229979
 21
134.905742
 31
0.0
  0
LINE
  5
229
100
AcDbEntity
  8
0
390
0
  6
Continuous
 62
     7
100
AcDbLine
 10
215.229979
 20
134.905742
 30
0.0
 11
215.629979
 21
135.305742
 31
0.0
  0
LINE
  5
22A
100
AcDbEntity
  8
0
390
0
  6
Continuous
 62
     7
100
AcDbLine
 10
162.629979
 20
135.689718
 30
0.0
 11
162.629979
 21
139.814718
 31
0.0
  0
LINE
  5
22B
100
AcDbEntity
  8
0
390
0
  6
Continuous
 62
     7
100
AcDbLine
 10
157.629979
 20
139.814718
 30
0.0
 11
157.629979
 21
135.689718
 31
0.0
  0
LINE
  5
22C
100
AcDbEntity
  8
0
390
0
  6
Continuous
 62
     7
100
AcDbLine
 10
162.629979
 20
139.814718
 30
0.0
 11
161.573354
 21
140.34303
 31
0.0
  0
LINE
  5
22D
100
AcDbEntity
  8
0
390
0
  6
Continuous
 62
     7
100
AcDbLine
 10
158.686603
 20
140.34303
 30
0.0
 11
157.629979
 21
139.814718
 31
0.0
  0
LINE
  5
22E
100
AcDbEntity
  8
0
390
0
  6
Continuous
 62
     7
100
AcDbLine
 10
157.629979
 20
135.689718
 30
0.0
 11
158.029979
 21
135.289718
 31
0.0
  0
LINE
  5
22F
100
AcDbEntity
  8
0
390
0
  6
Continuous
 62
     7
100
AcDbLine
 10
158.029979
 20
135.289718
 30
0.0
 11
158.879979
 21
134.439718
 31
0.0
  0
LINE
  5
230
100
AcDbEntity
  8
0
390
0
  6
Continuous
 62
     7
100
AcDbLine
 10
161.379979
 20
134.439718
 30
0.0
 11
162.229979
 21
135.289718
 31
0.0
  0
LINE
  5
231
100
AcDbEntity
  8
0
390
0
  6
Continuous
 62
     7
100
AcDbLine
 10
162.229979
 20
135.289718
 30
0.0
 11
162.629979
 21
135.689718
 31
0.0
  0
ENDSEC
  0
SECTION
  2
OBJECTS
  0
DICTIONARY
  5
19
100
AcDbDictionary
280
     0
281
     1
  3
ACAD_GROUP
350
1A
  3
ACAD_MLINESTYLE
350
1B
  3
ACAD_LAYOUT
350
1E
  3
ACAD_PLOTSETTINGS
350
22
  3
ACAD_PLOTSTYLENAME
350
1F
  3
ACAD_WIPEOUT_VARS
350
23
  0
DICTIONARY
  5
1A
102
{ACAD_REACTORS
330
19
102
}
100
AcDbDictionary
280
     0
281
     1
  0
DICTIONARY
  5
1B
102
{ACAD_REACTORS
330
19
102
}
100
AcDbDictionary
280
     0
281
     1
  3
Standard
350
1C
  0
MLINESTYLE
  5
1C
102
{ACAD_REACTORS
330
1B
102
}
100
AcDbMlineStyle
  2
Standard
 70
     0
  3

 62
     0
 51
90.0
 52
90.0
 71
     2
 49
0.5
 62
   256
  6
ByLayer
 49
-0.5
 62
   256
  6
ByLayer
  0
ACDBDICTIONARYWDFLT
  5
1F
102
{ACAD_REACTORS
330
19
102
}
100
AcDbDictionary
281
     1
  3
Normal
350
1D
100
AcDbDictionaryWithDefault
340
1D
  0
ACDBPLACEHOLDER
  5
1D
102
{ACAD_REACTORS
330
1F
102
}
  0
LAYOUT
  5
20
102
{ACAD_REACTORS
330
1E
102
}
100
AcDbPlotSettings
  1

  2

  4

  6

 40
0.0
 41
0.0
 42
0.0
 43
0.0
 44
0.0
 45
0.0
 46
0.0
 47
0.0
 48
0.0
 49
0.0
140
0.0
141
0.0
142
1.0
143
1.0
 70
  1024
 72
     0
 73
     0
 74
     0
  7

 75
     0
147
1.0
148
0.0
149
0.0
100
AcDbLayout
  1
Model
 70
     0
 71
     1
 10
0.0
 20
0.0
 11
0.0
 21
0.0
 12
0.0
 22
0.0
 32
0.0
 14
0.0
 24
0.0
 34
0.0
 15
0.0
 25
0.0
 35
0.0
146
0.0
 13
0.0
 23
0.0
 33
0.0
 16
0.0
 26
0.0
 36
0.0
 17
0.0
 27
0.0
 37
0.0
 76
     0
330
A
331
0
345
0
346
0
  0
LAYOUT
  5
21
102
{ACAD_REACTORS
330
1E
102
}
100
AcDbPlotSettings
  1

  2

  4

  6

 40
0.0
 41
0.0
 42
0.0
 43
0.0
 44
0.0
 45
0.0
 46
0.0
 47
0.0
 48
0.0
 49
0.0
140
0.0
141
0.0
142
1.0
143
1.0
 70
     0
 72
     0
 73
     0
 74
     0
  7

 75
     0
147
1.0
148
0.0
149
0.0
100
AcDbLayout
  1
Layout1
 70
     0
 71
     2
 10
0.0
 20
0.0
 11
0.0
 21
0.0
 12
0.0
 22
0.0
 32
0.0
 14
0.0
 24
0.0
 34
0.0
 15
0.0
 25
0.0
 35
0.0
146
0.0
 13
0.0
 23
0.0
 33
0.0
 16
0.0
 26
0.0
 36
0.0
 17
0.0
 27
0.0
 37
0.0
 76
     0
330
B
331
0
345
0
346
0
  0
DICTIONARY
  5
1E
102
{ACAD_REACTORS
330
19
102
}
100
AcDbDictionary
280
     0
281
     1
  3
Layout1
350
21
  3
Model
350
20
  0
DICTIONARY
  5
22
102
{ACAD_REACTORS
330
19
102
}
100
AcDbDictionary
280
     0
281
     1
  0
WIPEOUTVARIABLES
  5
23
100
AcDbWipeoutVariables
 70
     1
  0
ENDSEC
  0
EOF
