  0
SECTION
  2
HEADER
  9
$ACADVER
  1
AC1015
  9
$ACADMAINTVER
 70
     6
  9
$DWGCODEPAGE
  3
DOS932
  9
$INSBASE
 10
0.0
 20
0.0
 30
0.0
  9
$EXTMIN
 10
47.788819
 20
83.45824
 30
0.0
  9
$EXTMAX
 10
229.045745
 20
190.169568
 30
0.0
  9
$LIMMIN
 10
47.788819
 20
83.45824
  9
$LIMMAX
 10
229.045745
 20
190.169568
  9
$ORTHOMODE
 70
     0
  9
$REGENMODE
 70
     1
  9
$FILLMODE
 70
     1
  9
$QTEXTMODE
 70
     0
  9
$MIRRTEXT
 70
     1
  9
$LTSCALE
 40
10.0
  9
$ATTMODE
 70
     1
  9
$TEXTSIZE
 40
0.2
  9
$TRACEWID
 40
0.05
  9
$TEXTSTYLE
  7
Standard
  9
$CLAYER
  8
0
  9
$CELTYPE
  6
Continuous
  9
$CECOLOR
 62
   256
  9
$CELTSCALE
 40
1.0
  9
$DISPSILH
 70
     0
  9
$DIMSCALE
 40
1.0
  9
$DIMASZ
 40
1.05
  9
$DIMEXO
 40
1.05
  9
$DIMDLI
 40
0.38
  9
$DIMRND
 40
0.0
  9
$DIMDLE
 40
0.0
  9
$DIMEXE
 40
1.05
  9
$DIMTP
 40
0.0
  9
$DIMTM
 40
0.0
  9
$DIMTXT
 40
3.5
  9
$DIMCEN
 40
0.09
  9
$DIMTSZ
 40
0.0
  9
$DIMTOL
 70
     0
  9
$DIMLIM
 70
     0
  9
$DIMTIH
 70
     0
  9
$DIMTOH
 70
     0
  9
$DIMSE1
 70
     0
  9
$DIMSE2
 70
     0
  9
$DIMTAD
 70
     1
  9
$DIMZIN
 70
     0
  9
$DIMBLK
  1

  9
$DIMASO
 70
     1
  9
$DIMSHO
 70
     1
  9
$DIMPOST
  1

  9
$DIMAPOST
  1

  9
$DIMALT
 70
     0
  9
$DIMALTD
 70
     2
  9
$DIMALTF
 40
25.4
  9
$DIMLFAC
 40
1.0
  9
$DIMTOFL
 70
     0
  9
$DIMTVP
 40
0.0
  9
$DIMTIX
 70
     0
  9
$DIMSOXD
 70
     0
  9
$DIMSAH
 70
     0
  9
$DIMBLK1
  1

  9
$DIMBLK2
  1

  9
$DIMSTYLE
  2
Standard
  9
$DIMCLRD
 70
     7
  9
$DIMCLRE
 70
     7
  9
$DIMCLRT
 70
     7
  9
$DIMTFAC
 40
0.5
  9
$DIMGAP
 40
1.75
  9
$DIMJUST
 70
     0
  9
$DIMSD1
 70
     0
  9
$DIMSD2
 70
     0
  9
$DIMTOLJ
 70
     1
  9
$DIMTZIN
 70
     0
  9
$DIMALTZ
 70
     0
  9
$DIMALTTZ
 70
     0
  9
$DIMUPT
 70
     0
  9
$DIMDEC
 70
     1
  9
$DIMTDEC
 70
     4
  9
$DIMALTU
 70
     2
  9
$DIMALTTD
 70
     2
  9
$DIMTXSTY
  7
Standard
  9
$DIMAUNIT
 70
     0
  9
$DIMADEC
 70
     0
  9
$DIMALTRND
 40
0.0
  9
$DIMAZIN
 70
     0
  9
$DIMDSEP
 70
     0
  9
$DIMATFIT
 70
     3
  9
$DIMFRAC
 70
     0
  9
$DIMLDRBLK
  1

  9
$DIMLUNIT
 70
     2
  9
$DIMLWD
 70
     0
  9
$DIMLWE
 70
     0
  9
$DIMTMOVE
 70
     0
  9
$LUNITS
 70
     2
  9
$LUPREC
 70
     4
  9
$SKETCHINC
 40
0.1
  9
$FILLETRAD
 40
0.0
  9
$AUNITS
 70
     0
  9
$AUPREC
 70
     0
  9
$MENU
  1
acad
  9
$ELEVATION
 40
0.0
  9
$PELEVATION
 40
0.0
  9
$THICKNESS
 40
0.0
  9
$LIMCHECK
 70
     0
  9
$CHAMFERA
 40
0.0
  9
$CHAMFERB
 40
0.0
  9
$CHAMFERC
 40
0.0
  9
$CHAMFERD
 40
0.0
  9
$SKPOLY
 70
     0
  9
$TDCREATE
 40
2458841.580138889
  9
$TDUCREATE
 40
0.000000000
  9
$TDUPDATE
 40
2458841.204953704
  9
$TDUUPDATE
 40
0.000000000
  9
$TDINDWG
 40
0.0000000000
  9
$TDUSRTIMER
 40
0.0000000000
  9
$USRTIMER
 70
     1
  9
$ANGBASE
 50
0.0
  9
$ANGDIR
 70
     0
  9
$PDMODE
 70
     0
  9
$PDSIZE
 40
0.0
  9
$PLINEWID
 40
0.0
  9
$SPLFRAME
 70
     0
  9
$SPLINETYPE
 70
     6
  9
$SPLINESEGS
 70
     8
  9
$HANDSEED
  5
235
  9
$SURFTAB1
 70
     6
  9
$SURFTAB2
 70
     6
  9
$SURFTYPE
 70
     6
  9
$SURFU
 70
     6
  9
$SURFV
 70
     6
  9
$UCSBASE
  2

  9
$UCSNAME
  2

  9
$UCSORG
 10
0.0
 20
0.0
 30
0.0
  9
$UCSXDIR
 10
1.0
 20
0.0
 30
0.0
  9
$UCSYDIR
 10
0.0
 20
1.0
 30
0.0
  9
$UCSORTHOREF
  2

  9
$UCSORTHOVIEW
 70
     0
  9
$UCSORGTOP
 10
0.0
 20
0.0
 30
0.0
  9
$UCSORGBOTTOM
 10
0.0
 20
0.0
 30
0.0
  9
$UCSORGLEFT
 10
0.0
 20
0.0
 30
0.0
  9
$UCSORGRIGHT
 10
0.0
 20
0.0
 30
0.0
  9
$UCSORGFRONT
 10
0.0
 20
0.0
 30
0.0
  9
$UCSORGBACK
 10
0.0
 20
0.0
 30
0.0
  9
$PUCSBASE
  2

  9
$PUCSNAME
  2

  9
$PUCSORG
 10
0.0
 20
0.0
 30
0.0
  9
$PUCSXDIR
 10
1.0
 20
0.0
 30
0.0
  9
$PUCSYDIR
 10
0.0
 20
1.0
 30
0.0
  9
$PUCSORTHOREF
  2

  9
$PUCSORTHOVIEW
 70
     0
  9
$PUCSORGTOP
 10
0.0
 20
0.0
 30
0.0
  9
$PUCSORGBOTTOM
 10
0.0
 20
0.0
 30
0.0
  9
$PUCSORGLEFT
 10
0.0
 20
0.0
 30
0.0
  9
$PUCSORGRIGHT
 10
0.0
 20
0.0
 30
0.0
  9
$PUCSORGFRONT
 10
0.0
 20
0.0
 30
0.0
  9
$PUCSORGBACK
 10
0.0
 20
0.0
 30
0.0
  9
$USERI1
 70
     0
  9
$USERI2
 70
     0
  9
$USERI3
 70
     0
  9
$USERI4
 70
     0
  9
$USERI5
 70
     0
  9
$USERR1
 40
0.0
  9
$USERR2
 40
0.0
  9
$USERR3
 40
0.0
  9
$USERR4
 40
0.0
  9
$USERR5
 40
0.0
  9
$WORLDVIEW
 70
     1
  9
$SHADEDGE
 70
     3
  9
$SHADEDIF
 70
    70
  9
$TILEMODE
 70
     1
  9
$MAXACTVP
 70
    16
  9
$PINSBASE
 10
0.0
 20
0.0
 30
0.0
  9
$PLIMCHECK
 70
     0
  9
$PEXTMIN
 10
1.000000E+20
 20
1.000000E+20
 30
1.000000E+20
  9
$PEXTMAX
 10
-1.000000E+20
 20
-1.000000E+20
 30
-1.000000E+20
  9
$PLIMMIN
 10
0.0
 20
0.0
  9
$PLIMMAX
 10
12.0
 20
9.0
  9
$UNITMODE
 70
     0
  9
$VISRETAIN
 70
     0
  9
$PLINEGEN
 70
     1
  9
$PSLTSCALE
 70
     0
  9
$TREEDEPTH
 70
  3020
  9
$CMLSTYLE
  2
Standard
  9
$CMLJUST
 70
     0
  9
$CMLSCALE
 40
1.0
  9
$PROXYGRAPHICS
 70
     0
  9
$MEASUREMENT
 70
     1
  9
$CELWEIGHT
370
     0
  9
$ENDCAPS
280
     0
  9
$JOINSTYLE
280
     0
  9
$LWDISPLAY
290
     0
  9
$INSUNITS
 70
     0
  9
$HYPERLINKBASE
  1

  9
$STYLESHEET
  1

  9
$XEDIT
290
     1
  9
$CEPSNTYPE
380
     0
  9
$PSTYLEMODE
290
     1
  9
$FINGERPRINTGUID
  2

  9
$VERSIONGUID
  2

  9
$EXTNAMES
290
     1
  9
$PSVPSCALE
 40
0.0
  0
ENDSEC
  0
SECTION
  2
CLASSES
  0
CLASS
  1
LWPOLYLINE
  2
AcDbPolyline
  3
AutoCAD 2000
 90
        0
280
     0
281
     1
  0
CLASS
  1
IMAGE
  2
AcDbRasterImage
  3
ISM
 90
      127
280
     0
281
     1
  0
CLASS
  1
OLE2FRAME
  2
AcDbOle2Frame
  3
AutoCAD 2000
 90
        0
280
     0
281
     1
  0
CLASS
  1
HATCH
  2
AcDbHatch
  3
AutoCAD 2000
 90
        0
280
     0
281
     1
  0
CLASS
  1
DICTIONARYVAR
  2
AcDbDictionaryVar
  3
AutoCAD 2000
 90
        0
280
     0
281
     0
  0
CLASS
  1
RASTERVARIABLES
  2
AcDbRasterVariables
  3
ISM
 90
        0
280
     0
281
     0
  0
CLASS
  1
IMAGEDEF
  2
AcDbRasterImageDef
  3
ISM
 90
        0
280
     0
281
     0
  0
CLASS
  1
IMAGEDEF_REACTOR
  2
AcDbRasterImageDefReactor
  3
ISM
 90
        1
280
     0
281
     0
  0
CLASS
  1
IDBUFFER
  2
AcDbIdBuffer
  3
AutoCAD 2000
 90
        0
280
     0
281
     0
  0
CLASS
  1
SPATIAL_FILTER
  2
AcDbSpatialFilter
  3
AutoCAD 2000
 90
        0
280
     0
281
     0
  0
CLASS
  1
XRECORD
  2
AcDbXrecord
  3
AutoCAD 2000
 90
        0
280
     0
281
     0
  0
CLASS
  1
SORTENTSTABLE
  2
AcDbSortentsTable
  3
AutoCAD 2000
 90
        0
280
     0
281
     0
  0
CLASS
  1
LAYER_INDEX
  2
AcDbLayerIndex
  3
AutoCAD 2000
 90
        0
280
     0
281
     0
  0
CLASS
  1
SPATIAL_INDEX
  2
AcDbSpatialIndex
  3
AutoCAD 2000
 90
        0
280
     0
281
     0
  0
CLASS
  1
OBJECT_PTR
  2
CAseDLPNTableRecord
  3
"ASE-LPNTableRecord"
 90
        1
280
     0
281
     0
  0
CLASS
  1
LAYOUT
  2
AcDbLayout
  3
AutoCAD 2000
 90
        0
280
     0
281
     0
  0
CLASS
  1
PLOTSETTINGS
  2
AcDbPlotSettings
  3
AutoCAD 2000
 90
        0
280
     0
281
     0
  0
CLASS
  1
ACDBDICTIONARYWDFLT
  2
AcDbDictionaryWithDefault
  3
AutoCAD 2000
 90
        0
280
     0
281
     0
  0
CLASS
  1
ACDBPLACEHOLDER
  2
AcDbPlaceHolder
  3
AutoCAD 2000
 90
        0
280
     0
281
     0
  0
CLASS
  1
VBA_PROJECT
  2
AcDbVbaProject
  3
acadvba
 90
        0
280
     0
281
     0
  0
CLASS
  1
WIPEOUT
  2
AcDbWipeout
  3
WipeOut|AutoCAD Express Tool|expresstools@autodesk.com
 90
      127
280
     0
281
     1
  0
CLASS
  1
WIPEOUTVARIABLES
  2
AcDbWipeoutVariables
  3
WipeOut|AutoCAD Express Tool|expresstools@autodesk.com
 90
        0
280
     0
281
     0
  0
CLASS
  1
RTEXT
  2
RText
  3
RText|AutoCAD Express Tool|expresstools@autodesk.com
 90
        0
280
     0
281
     1
  0
CLASS
  1
ARCALIGNEDTEXT
  2
AcDbArcAlignedText
  3
ATEXT|AutoCAD Express Tool|expresstools@autodesk.com
 90
        0
280
     0
281
     1
  0
ENDSEC
  0
SECTION
  2
TABLES
  0
TABLE
  2
VPORT
  5
7
100
AcDbSymbolTable
 70
     1
  0
VPORT
  5
15
100
AcDbSymbolTableRecord
100
AcDbViewportTableRecord
  2
*ACTIVE
 70
     0
 10
0.0
 20
0.0
 11
1.0
 21
1.0
 12
6.591288
 22
4.579184
 13
0.0
 23
0.0
 14
1.0
 24
1.0
 15
0.0
 25
0.0
 16
0.0
 26
0.0
 36
1.0
 17
0.0
 27
0.0
 37
0.0
 40
9.158369
 41
0.688564
 42
50.0
 43
0.0
 44
0.0
 50
0.0
 51
0.0
 71
     0
 72
   100
 73
     1
 74
     1
 75
     0
 76
     0
 77
     0
 78
     0
281
     0
 65
     0
110
0.0
120
0.0
130
0.0
111
1.0
121
0.0
131
0.0
112
0.0
122
1.0
132
0.0
345
0
346
0
 79
     0
146
0.0
  0
ENDTAB
  0
TABLE
  2
LTYPE
  5
4
100
AcDbSymbolTable
 70
     5
  0
LTYPE
  5
11
100
AcDbSymbolTableRecord
100
AcDbLinetypeTableRecord
  2
ByBlock
 70
    64
  3

 72
    65
 73
     0
 40
0.0
  0
LTYPE
  5
12
100
AcDbSymbolTableRecord
100
AcDbLinetypeTableRecord
  2
ByLayer
 70
    64
  3

 72
    65
 73
     0
 40
0.0
  0
LTYPE
  5
13
100
AcDbSymbolTableRecord
100
AcDbLinetypeTableRecord
  2
Continuous
 70
    64
  3
Solid line
 72
    65
 73
     0
 40
0.0
  0
LTYPE
  5
2D
100
AcDbSymbolTableRecord
100
AcDbLinetypeTableRecord
  2
DOT
 70
    64
  3
..............................................
 72
    65
 73
     2
 40
0.5
 49
0.25
 74
     0
 49
-0.25
 74
     0
  0
LTYPE
  5
3C
100
AcDbSymbolTableRecord
100
AcDbLinetypeTableRecord
  2
CENTER
 70
    64
  3
____ _ ____ _ ____ _ ____ _ ____ _ ____ _ ____
 72
    65
 73
     4
 40
2.0
 49
1.25
 74
     0
 49
-0.25
 74
     0
 49
0.25
 74
     0
 49
-0.25
 74
     0
  0
ENDTAB
  0
TABLE
  2
LAYER
  5
2
100
AcDbSymbolTable
 70
     1
  0
LAYER
  5
14
100
AcDbSymbolTableRecord
100
AcDbLayerTableRecord
  2
0
 70
     0
 62
     7
  6
Continuous
290
     1
370
    -3
390
1D
  0
ENDTAB
  0
TABLE
  2
STYLE
  5
3
100
AcDbSymbolTable
 70
     1
  0
STYLE
  5
17
100
AcDbSymbolTableRecord
100
AcDbTextStyleTableRecord
  2
Standard
 70
     0
 40
0.0
 41
1.0
 50
0.0
 71
     0
 42
0.0
  3
ＭＳ Ｐゴシック
  4

1001
ACAD
1000
ＭＳ Ｐゴシック
1071
        1
  0
ENDTAB
  0
TABLE
  2
VIEW
  5
5
100
AcDbSymbolTable
 70
     0
  0
ENDTAB
  0
TABLE
  2
UCS
  5
6
100
AcDbSymbolTable
 70
     0
  0
ENDTAB
  0
TABLE
  2
APPID
  5
8
100
AcDbSymbolTable
 70
     2
  0
APPID
  5
16
100
AcDbSymbolTableRecord
100
AcDbRegAppTableRecord
  2
ACAD
 70
     0
  0
APPID
  5
26
100
AcDbSymbolTableRecord
100
AcDbRegAppTableRecord
  2
TOPsolid_Draft
 70
     0
  0
ENDTAB
  0
TABLE
  2
DIMSTYLE
  5
9
100
AcDbSymbolTable
 70
     1
100
AcDbDimStyleTable
 71
     0
  0
DIMSTYLE
105
18
100
AcDbSymbolTableRecord
100
AcDbDimStyleTableRecord
  2
Standard
 70
     0
  3

  4

 40
1.0
 41
1.05
 42
1.05
 43
0.38
 44
1.05
 45
0.0
 46
0.0
 47
0.0
 48
0.0
 71
     0
 72
     0
 73
     0
 74
     0
 75
     0
 76
     0
 77
     1
 78
     0
 79
     0
140
3.5
141
0.09
142
0.0
143
25.4
144
1.0
145
0.0
146
0.5
147
1.75
148
0.0
170
     0
171
     2
172
     0
173
     0
174
     0
175
     0
176
     7
177
     7
178
     7
179
     0
271
     1
272
     4
273
     2
274
     2
275
     0
276
     0
277
     2
278
    46
279
     0
280
     0
281
     0
282
     0
283
     1
284
     0
285
     0
286
     0
288
     0
289
     3
340
17
341
0
342
0
343
0
344
0
371
    -2
372
    -2
  0
ENDTAB
  0
TABLE
  2
BLOCK_RECORD
  5
1
100
AcDbSymbolTable
 70
    13
  0
BLOCK_RECORD
  5
A
100
AcDbSymbolTableRecord
100
AcDbBlockTableRecord
  2
*MODEL_SPACE
340
20
  0
BLOCK_RECORD
  5
B
100
AcDbSymbolTableRecord
100
AcDbBlockTableRecord
  2
*PAPER_SPACE
340
21
  0
BLOCK_RECORD
  5
3E
100
AcDbSymbolTableRecord
100
AcDbBlockTableRecord
  2
AID45
340
0
102
{BLKREFS
331
52
102
}
  0
BLOCK_RECORD
  5
C7
100
AcDbSymbolTableRecord
100
AcDbBlockTableRecord
  2
AID281
340
0
102
{BLKREFS
331
CB
102
}
  0
BLOCK_RECORD
  5
CD
100
AcDbSymbolTableRecord
100
AcDbBlockTableRecord
  2
*D2
340
0
  0
BLOCK_RECORD
  5
DA
100
AcDbSymbolTableRecord
100
AcDbBlockTableRecord
  2
*D3
340
0
  0
BLOCK_RECORD
  5
EE
100
AcDbSymbolTableRecord
100
AcDbBlockTableRecord
  2
*D4
340
0
  0
BLOCK_RECORD
  5
101
100
AcDbSymbolTableRecord
100
AcDbBlockTableRecord
  2
*D5
340
0
  0
BLOCK_RECORD
  5
113
100
AcDbSymbolTableRecord
100
AcDbBlockTableRecord
  2
*D6
340
0
  0
BLOCK_RECORD
  5
127
100
AcDbSymbolTableRecord
100
AcDbBlockTableRecord
  2
*D7
340
0
  0
BLOCK_RECORD
  5
139
100
AcDbSymbolTableRecord
100
AcDbBlockTableRecord
  2
*D8
340
0
  0
BLOCK_RECORD
  5
14B
100
AcDbSymbolTableRecord
100
AcDbBlockTableRecord
  2
*D9
340
0
  0
BLOCK_RECORD
  5
15D
100
AcDbSymbolTableRecord
100
AcDbBlockTableRecord
  2
*D10
340
0
  0
BLOCK_RECORD
  5
16F
100
AcDbSymbolTableRecord
100
AcDbBlockTableRecord
  2
*D11
340
0
  0
BLOCK_RECORD
  5
181
100
AcDbSymbolTableRecord
100
AcDbBlockTableRecord
  2
*D12
340
0
  0
ENDTAB
  0
ENDSEC
  0
SECTION
  2
BLOCKS
  0
BLOCK
  5
D
100
AcDbEntity
  8
0
390
0
100
AcDbBlockBegin
  2
*MODEL_SPACE
 70
     0
 10
0.0
 20
0.0
 30
0.0
  3
*MODEL_SPACE
  1

  0
ENDBLK
  5
E
100
AcDbEntity
  8
0
390
0
100
AcDbBlockEnd
  0
BLOCK
  5
F
100
AcDbEntity
 67
     1
  8
0
390
0
100
AcDbBlockBegin
  2
*PAPER_SPACE
 70
     0
 10
0.0
 20
0.0
 30
0.0
  3
*PAPER_SPACE
  1

  0
ENDBLK
  5
10
100
AcDbEntity
 67
     1
  8
0
390
0
100
AcDbBlockEnd
  0
BLOCK
  5
3F
100
AcDbEntity
  8
0
390
0
100
AcDbBlockBegin
  2
AID45
 70
     0
 10
0.0
 20
0.0
 30
0.0
  3
#driven cutting polygon
  1

  0
LINE
  5
40
100
AcDbEntity
  8
0
390
0
  6
CENTER
 62
     1
100
AcDbLine
 10
79.788819
 20
83.45824
 30
0.0
 11
79.788819
 21
168.45824
 31
0.0
  0
LINE
  5
41
100
AcDbEntity
  8
0
390
0
  6
Continuous
 62
     7
100
AcDbLine
 10
79.788819
 20
83.45824
 30
0.0
 11
79.788819
 21
78.45824
 31
0.0
  0
LINE
  5
42
100
AcDbEntity
  8
0
390
0
  6
Continuous
 62
     7
100
AcDbLine
 10
89.788819
 20
80.95824
 30
0.0
 11
79.788819
 21
80.95824
 31
0.0
  0
POLYLINE
  5
43
100
AcDbEntity
  8
0
390
0
  6
Continuous
 62
     7
100
AcDb2dPolyline
 66
     1
 10
0.0
 20
0.0
 30
0.0
 40
0.1
 41
0.1
  0
VERTEX
  5
44
100
AcDbEntity
  8
0
390
0
 62
     7
100
AcDbVertex
100
AcDb2dVertex
 10
83.788819
 20
82.20824
 30
0.0
  0
VERTEX
  5
45
100
AcDbEntity
  8
0
390
0
 62
     7
100
AcDbVertex
100
AcDb2dVertex
 10
79.788819
 20
80.95824
 30
0.0
  0
VERTEX
  5
46
100
AcDbEntity
  8
0
390
0
 62
     7
100
AcDbVertex
100
AcDb2dVertex
 10
83.788819
 20
79.70824
 30
0.0
  0
SEQEND
  5
47
100
AcDbEntity
  8
0
390
0
  0
MTEXT
  5
48
100
AcDbEntity
  8
0
390
0
 62
     7
100
AcDbMText
 10
85.038819
 20
83.45824
 30
0.0
 40
5.0
 41
7.090909
 71
     7
 72
     1
  1
A
210
0.0
220
0.0
230
1.0
 73
     1
 44
1.0
  0
LINE
  5
49
100
AcDbEntity
  8
0
390
0
  6
Continuous
 62
     7
100
AcDbLine
 10
79.788819
 20
168.45824
 30
0.0
 11
79.788819
 21
173.45824
 31
0.0
  0
LINE
  5
4A
100
AcDbEntity
  8
0
390
0
  6
Continuous
 62
     7
100
AcDbLine
 10
89.788819
 20
170.95824
 30
0.0
 11
79.788819
 21
170.95824
 31
0.0
  0
POLYLINE
  5
4B
100
AcDbEntity
  8
0
390
0
  6
Continuous
 62
     7
100
AcDb2dPolyline
 66
     1
 10
0.0
 20
0.0
 30
0.0
 40
0.1
 41
0.1
  0
VERTEX
  5
4C
100
AcDbEntity
  8
0
390
0
 62
     7
100
AcDbVertex
100
AcDb2dVertex
 10
83.788819
 20
169.70824
 30
0.0
  0
VERTEX
  5
4D
100
AcDbEntity
  8
0
390
0
 62
     7
100
AcDbVertex
100
AcDb2dVertex
 10
79.788819
 20
170.95824
 30
0.0
  0
VERTEX
  5
4E
100
AcDbEntity
  8
0
390
0
 62
     7
100
AcDbVertex
100
AcDb2dVertex
 10
83.788819
 20
172.20824
 30
0.0
  0
SEQEND
  5
4F
100
AcDbEntity
  8
0
390
0
  0
MTEXT
  5
50
100
AcDbEntity
  8
0
390
0
 62
     7
100
AcDbMText
 10
85.038819
 20
173.45824
 30
0.0
 40
5.0
 41
7.090909
 71
     7
 72
     1
  1
A
210
0.0
220
0.0
230
1.0
 73
     1
 44
1.0
  0
ENDBLK
  5
51
100
AcDbEntity
  8
0
390
0
100
AcDbBlockEnd
  0
BLOCK
  5
C8
100
AcDbEntity
  8
0
390
0
100
AcDbBlockBegin
  2
AID281
 70
     0
 10
0.0
 20
0.0
 30
0.0
  3
#draft cross section view
  1

  0
MTEXT
  5
C9
100
AcDbEntity
  8
0
390
0
 62
     7
100
AcDbMText
 10
175.442075
 20
89.95824
 30
0.0
 40
3.0
 41
29.209091
 71
     5
 72
     1
  1
ＳＥＣ A-A
210
0.0
220
0.0
230
1.0
 73
     1
 44
1.0
  0
ENDBLK
  5
CA
100
AcDbEntity
  8
0
390
0
100
AcDbBlockEnd
  0
BLOCK
  5
CE
100
AcDbEntity
  8
0
390
0
100
AcDbBlockBegin
  2
*D2
 70
     1
 10
0.0
 20
0.0
 30
0.0
  3
DI2
  1

  0
MTEXT
  5
CF
100
AcDbEntity
  8
0
390
0
 62
     7
100
AcDbMText
 10
117.225294
 20
101.16342
 30
0.0
 40
3.5
 41
90.840909
 71
     7
 72
     1
  1
\A1;%%c15.0H8\S+0.027^   0;
210
0.0
220
0.0
230
1.0
 73
     1
 44
1.0
  0
MTEXT
  5
D0
100
AcDbEntity
  8
0
390
0
 62
     7
100
AcDbMText
 10
124.893476
 20
101.16342
 30
0.0
 40
3.5
 41
8.336364
 71
     7
 72
     1
  1
H8
210
0.0
220
0.0
230
1.0
 73
     1
 44
1.0
  0
POLYLINE
  5
D1
100
AcDbEntity
  8
0
390
0
  6
Continuous
 62
     7
100
AcDb2dPolyline
 66
     1
 10
0.0
 20
0.0
 30
0.0
 40
0.1
 41
0.1
  0
VERTEX
  5
D2
100
AcDbEntity
  8
0
390
0
 62
     7
100
AcDbVertex
100
AcDb2dVertex
 10
87.777415
 20
119.715357
 30
0.0
  0
VERTEX
  5
D3
100
AcDbEntity
  8
0
390
0
 62
     7
100
AcDbVertex
100
AcDb2dVertex
 10
85.451292
 20
121.040273
 30
0.0
  0
VERTEX
  5
D4
100
AcDbEntity
  8
0
390
0
 62
     7
100
AcDbVertex
100
AcDb2dVertex
 10
87.0889
 20
118.922611
 30
0.0
  0
SEQEND
  5
D5
100
AcDbEntity
  8
0
390
0
  0
LINE
  5
D6
100
AcDbEntity
  8
0
390
0
  6
Continuous
 62
     7
100
AcDbLine
 10
85.451292
 20
121.040273
 30
0.0
 11
110.718476
 21
99.095238
 31
0.0
  0
LINE
  5
D7
100
AcDbEntity
  8
0
390
0
  6
Continuous
 62
     7
100
AcDbLine
 10
110.718476
 20
99.095238
 30
0.0
 11
138.670749
 21
99.095238
 31
0.0
  0
ENDBLK
  5
D8
100
AcDbEntity
  8
0
390
0
100
AcDbBlockEnd
  0
BLOCK
  5
DB
100
AcDbEntity
  8
0
390
0
100
AcDbBlockBegin
  2
*D3
 70
     1
 10
0.0
 20
0.0
 30
0.0
  3
DI3
  1

  0
MTEXT
  5
DC
100
AcDbEntity
  8
0
390
0
 62
     7
100
AcDbMText
 10
87.332001
 20
165.333955
 30
0.0
 40
3.5
 41
61.186364
 71
     7
 72
     1
  1
\A1;5.0\S+0.1^   0;
210
0.0
220
0.0
230
1.0
 73
     1
 44
1.0
  0
LINE
  5
DD
100
AcDbEntity
  8
0
390
0
  6
Continuous
 62
     7
100
AcDbLine
 10
72.038819
 20
163.599864
 30
0.0
 11
96.925183
 21
163.599864
 31
0.0
  0
LINE
  5
DE
100
AcDbEntity
  8
0
390
0
  6
Continuous
 62
     7
100
AcDbLine
 10
77.288819
 20
136.80824
 30
0.0
 11
77.288819
 21
164.649864
 31
0.0
  0
LINE
  5
DF
100
AcDbEntity
  8
0
390
0
  6
Continuous
 62
     7
100
AcDbLine
 10
82.288819
 20
136.80824
 30
0.0
 11
82.288819
 21
164.649864
 31
0.0
  0
POLYLINE
  5
E0
100
AcDbEntity
  8
0
390
0
  6
Continuous
 62
     7
100
AcDb2dPolyline
 66
     1
 10
0.0
 20
0.0
 30
0.0
 40
0.1
 41
0.1
  0
VERTEX
  5
E1
100
AcDbEntity
  8
0
390
0
 62
     7
100
AcDbVertex
100
AcDb2dVertex
 10
74.663819
 20
163.074864
 30
0.0
  0
VERTEX
  5
E2
100
AcDbEntity
  8
0
390
0
 62
     7
100
AcDbVertex
100
AcDb2dVertex
 10
77.288819
 20
163.599864
 30
0.0
  0
VERTEX
  5
E3
100
AcDbEntity
  8
0
390
0
 62
     7
100
AcDbVertex
100
AcDb2dVertex
 10
74.663819
 20
164.124864
 30
0.0
  0
SEQEND
  5
E4
100
AcDbEntity
  8
0
390
0
  0
POLYLINE
  5
E5
100
AcDbEntity
  8
0
390
0
  6
Continuous
 62
     7
100
AcDb2dPolyline
 66
     1
 10
0.0
 20
0.0
 30
0.0
 40
0.1
 41
0.1
  0
VERTEX
  5
E6
100
AcDbEntity
  8
0
390
0
 62
     7
100
AcDbVertex
100
AcDb2dVertex
 10
84.913819
 20
164.124864
 30
0.0
  0
VERTEX
  5
E7
100
AcDbEntity
  8
0
390
0
 62
     7
100
AcDbVertex
100
AcDb2dVertex
 10
82.288819
 20
163.599864
 30
0.0
  0
VERTEX
  5
E8
100
AcDbEntity
  8
0
390
0
 62
     7
100
AcDbVertex
100
AcDb2dVertex
 10
84.913819
 20
163.074864
 30
0.0
  0
SEQEND
  5
E9
100
AcDbEntity
  8
0
390
0
  0
ENDBLK
  5
EA
100
AcDbEntity
  8
0
390
0
100
AcDbBlockEnd
  0
BLOCK
  5
EF
100
AcDbEntity
  8
0
390
0
100
AcDbBlockBegin
  2
*D4
 70
     1
 10
0.0
 20
0.0
 30
0.0
  3
DI4
  1

  0
MTEXT
  5
F0
100
AcDbEntity
  8
0
390
0
 62
     7
100
AcDbMText
 10
120.256268
 20
140.801421
 30
0.0
 40
3.5
 41
61.186364
 71
     7
 72
     1
  1
\A1;2.3\S+0.2^   0;
210
0.0
220
0.0
230
0.9999999999999999
 11
0.0
 21
1.0
 31
0.0
 73
     1
 44
1.0
  0
LINE
  5
F1
100
AcDbEntity
  8
0
390
0
  6
Continuous
 62
     7
100
AcDbLine
 10
121.990359
 20
128.20824
 30
0.0
 11
121.990359
 21
150.609376
 31
0.0
  0
LINE
  5
F2
100
AcDbEntity
  8
0
390
0
  6
Continuous
 62
     7
100
AcDbLine
 10
80.838819
 20
133.45824
 30
0.0
 11
123.040359
 21
133.45824
 31
0.0
  0
LINE
  5
F3
100
AcDbEntity
  8
0
390
0
  6
Continuous
 62
     7
100
AcDbLine
 10
80.838819
 20
135.75824
 30
0.0
 11
123.040359
 21
135.75824
 31
0.0
  0
POLYLINE
  5
F4
100
AcDbEntity
  8
0
390
0
  6
Continuous
 62
     7
100
AcDb2dPolyline
 66
     1
 10
0.0
 20
0.0
 30
0.0
 40
0.1
 41
0.1
  0
VERTEX
  5
F5
100
AcDbEntity
  8
0
390
0
 62
     7
100
AcDbVertex
100
AcDb2dVertex
 10
122.515359
 20
130.83324
 30
0.0
  0
VERTEX
  5
F6
100
AcDbEntity
  8
0
390
0
 62
     7
100
AcDbVertex
100
AcDb2dVertex
 10
121.990359
 20
133.45824
 30
0.0
  0
VERTEX
  5
F7
100
AcDbEntity
  8
0
390
0
 62
     7
100
AcDbVertex
100
AcDb2dVertex
 10
121.465359
 20
130.83324
 30
0.0
  0
SEQEND
  5
F8
100
AcDbEntity
  8
0
390
0
  0
POLYLINE
  5
F9
100
AcDbEntity
  8
0
390
0
  6
Continuous
 62
     7
100
AcDb2dPolyline
 66
     1
 10
0.0
 20
0.0
 30
0.0
 40
0.1
 41
0.1
  0
VERTEX
  5
FA
100
AcDbEntity
  8
0
390
0
 62
     7
100
AcDbVertex
100
AcDb2dVertex
 10
121.465359
 20
138.38324
 30
0.0
  0
VERTEX
  5
FB
100
AcDbEntity
  8
0
390
0
 62
     7
100
AcDbVertex
100
AcDb2dVertex
 10
121.990359
 20
135.75824
 30
0.0
  0
VERTEX
  5
FC
100
AcDbEntity
  8
0
390
0
 62
     7
100
AcDbVertex
100
AcDb2dVertex
 10
122.515359
 20
138.38324
 30
0.0
  0
SEQEND
  5
FD
100
AcDbEntity
  8
0
390
0
  0
ENDBLK
  5
FE
100
AcDbEntity
  8
0
390
0
100
AcDbBlockEnd
  0
BLOCK
  5
102
100
AcDbEntity
  8
0
390
0
100
AcDbBlockBegin
  2
*D5
 70
     1
 10
0.0
 20
0.0
 30
0.0
  3
DI5
  1

  0
MTEXT
  5
103
100
AcDbEntity
  8
0
390
0
 62
     7
100
AcDbMText
 10
226.261654
 20
124.502558
 30
0.0
 40
3.5
 41
36.622727
 71
     7
 72
     1
  1
\A1;%%c60.0
210
0.0
220
0.0
230
1.0
 11
0.0
 21
1.0
 31
0.0
 73
     1
 44
1.0
  0
LINE
  5
104
100
AcDbEntity
  8
0
390
0
  6
Continuous
 62
     7
100
AcDbLine
 10
227.995745
 20
155.95824
 30
0.0
 11
227.995745
 21
95.95824
 31
0.0
  0
LINE
  5
105
100
AcDbEntity
  8
0
390
0
  6
Continuous
 62
     7
100
AcDbLine
 10
195.492075
 20
155.95824
 30
0.0
 11
229.045745
 21
155.95824
 31
0.0
  0
LINE
  5
106
100
AcDbEntity
  8
0
390
0
  6
Continuous
 62
     7
100
AcDbLine
 10
195.492075
 20
95.95824
 30
0.0
 11
229.045745
 21
95.95824
 31
0.0
  0
POLYLINE
  5
107
100
AcDbEntity
  8
0
390
0
  6
Continuous
 62
     7
100
AcDb2dPolyline
 66
     1
 10
0.0
 20
0.0
 30
0.0
 40
0.1
 41
0.1
  0
VERTEX
  5
108
100
AcDbEntity
  8
0
390
0
 62
     7
100
AcDbVertex
100
AcDb2dVertex
 10
227.470745
 20
153.33324
 30
0.0
  0
VERTEX
  5
109
100
AcDbEntity
  8
0
390
0
 62
     7
100
AcDbVertex
100
AcDb2dVertex
 10
227.995745
 20
155.95824
 30
0.0
  0
VERTEX
  5
10A
100
AcDbEntity
  8
0
390
0
 62
     7
100
AcDbVertex
100
AcDb2dVertex
 10
228.520745
 20
153.33324
 30
0.0
  0
SEQEND
  5
10B
100
AcDbEntity
  8
0
390
0
  0
POLYLINE
  5
10C
100
AcDbEntity
  8
0
390
0
  6
Continuous
 62
     7
100
AcDb2dPolyline
 66
     1
 10
0.0
 20
0.0
 30
0.0
 40
0.1
 41
0.1
  0
VERTEX
  5
10D
100
AcDbEntity
  8
0
390
0
 62
     7
100
AcDbVertex
100
AcDb2dVertex
 10
228.520745
 20
98.58324
 30
0.0
  0
VERTEX
  5
10E
100
AcDbEntity
  8
0
390
0
 62
     7
100
AcDbVertex
100
AcDb2dVertex
 10
227.995745
 20
95.95824
 30
0.0
  0
VERTEX
  5
10F
100
AcDbEntity
  8
0
390
0
 62
     7
100
AcDbVertex
100
AcDb2dVertex
 10
227.470745
 20
98.58324
 30
0.0
  0
SEQEND
  5
110
100
AcDbEntity
  8
0
390
0
  0
ENDBLK
  5
111
100
AcDbEntity
  8
0
390
0
100
AcDbBlockEnd
  0
BLOCK
  5
114
100
AcDbEntity
  8
0
390
0
100
AcDbBlockBegin
  2
*D6
 70
     1
 10
0.0
 20
0.0
 30
0.0
  3
DI6
  1

  0
MTEXT
  5
115
100
AcDbEntity
  8
0
390
0
 62
     7
100
AcDbMText
 10
218.516406
 20
124.502558
 30
0.0
 40
3.5
 41
36.622727
 71
     7
 72
     1
  1
\A1;%%c40.0
210
0.0
220
0.0
230
1.0
 11
0.0
 21
1.0
 31
0.0
 73
     1
 44
1.0
  0
LINE
  5
116
100
AcDbEntity
  8
0
390
0
  6
Continuous
 62
     7
100
AcDbLine
 10
220.234588
 20
105.95824
 30
0.0
 11
220.234588
 21
145.95824
 31
0.0
  0
LINE
  5
117
100
AcDbEntity
  8
0
390
0
  6
Continuous
 62
     7
100
AcDbLine
 10
210.492075
 20
105.95824
 30
0.0
 11
221.284588
 21
105.95824
 31
0.0
  0
LINE
  5
118
100
AcDbEntity
  8
0
390
0
  6
Continuous
 62
     7
100
AcDbLine
 10
210.492075
 20
145.95824
 30
0.0
 11
221.284588
 21
145.95824
 31
0.0
  0
POLYLINE
  5
119
100
AcDbEntity
  8
0
390
0
  6
Continuous
 62
     7
100
AcDb2dPolyline
 66
     1
 10
0.0
 20
0.0
 30
0.0
 40
0.1
 41
0.1
  0
VERTEX
  5
11A
100
AcDbEntity
  8
0
390
0
 62
     7
100
AcDbVertex
100
AcDb2dVertex
 10
220.759588
 20
108.58324
 30
0.0
  0
VERTEX
  5
11B
100
AcDbEntity
  8
0
390
0
 62
     7
100
AcDbVertex
100
AcDb2dVertex
 10
220.234588
 20
105.95824
 30
0.0
  0
VERTEX
  5
11C
100
AcDbEntity
  8
0
390
0
 62
     7
100
AcDbVertex
100
AcDb2dVertex
 10
219.709588
 20
108.58324
 30
0.0
  0
SEQEND
  5
11D
100
AcDbEntity
  8
0
390
0
  0
POLYLINE
  5
11E
100
AcDbEntity
  8
0
390
0
  6
Continuous
 62
     7
100
AcDb2dPolyline
 66
     1
 10
0.0
 20
0.0
 30
0.0
 40
0.1
 41
0.1
  0
VERTEX
  5
11F
100
AcDbEntity
  8
0
390
0
 62
     7
100
AcDbVertex
100
AcDb2dVertex
 10
219.709588
 20
143.33324
 30
0.0
  0
VERTEX
  5
120
100
AcDbEntity
  8
0
390
0
 62
     7
100
AcDbVertex
100
AcDb2dVertex
 10
220.234588
 20
145.95824
 30
0.0
  0
VERTEX
  5
121
100
AcDbEntity
  8
0
390
0
 62
     7
100
AcDbVertex
100
AcDb2dVertex
 10
220.759588
 20
143.33324
 30
0.0
  0
SEQEND
  5
122
100
AcDbEntity
  8
0
390
0
  0
ENDBLK
  5
123
100
AcDbEntity
  8
0
390
0
100
AcDbBlockEnd
  0
BLOCK
  5
128
100
AcDbEntity
  8
0
390
0
100
AcDbBlockBegin
  2
*D7
 70
     1
 10
0.0
 20
0.0
 30
0.0
  3
DI7
  1

  0
MTEXT
  5
129
100
AcDbEntity
  8
0
390
0
 62
     7
100
AcDbMText
 10
191.442075
 20
187.353659
 30
0.0
 40
3.5
 41
28.477273
 71
     7
 72
     1
  1
\A1;29.0
210
0.0
220
0.0
230
1.0
 73
     1
 44
1.0
  0
LINE
  5
12A
100
AcDbEntity
  8
0
390
0
  6
Continuous
 62
     7
100
AcDbLine
 10
180.442075
 20
185.619568
 30
0.0
 11
209.442075
 21
185.619568
 31
0.0
  0
LINE
  5
12B
100
AcDbEntity
  8
0
390
0
  6
Continuous
 62
     7
100
AcDbLine
 10
180.442075
 20
157.00824
 30
0.0
 11
180.442075
 21
186.669568
 31
0.0
  0
LINE
  5
12C
100
AcDbEntity
  8
0
390
0
  6
Continuous
 62
     7
100
AcDbLine
 10
209.442075
 20
147.00824
 30
0.0
 11
209.442075
 21
186.669568
 31
0.0
  0
POLYLINE
  5
12D
100
AcDbEntity
  8
0
390
0
  6
Continuous
 62
     7
100
AcDb2dPolyline
 66
     1
 10
0.0
 20
0.0
 30
0.0
 40
0.1
 41
0.1
  0
VERTEX
  5
12E
100
AcDbEntity
  8
0
390
0
 62
     7
100
AcDbVertex
100
AcDb2dVertex
 10
183.067075
 20
185.094568
 30
0.0
  0
VERTEX
  5
12F
100
AcDbEntity
  8
0
390
0
 62
     7
100
AcDbVertex
100
AcDb2dVertex
 10
180.442075
 20
185.619568
 30
0.0
  0
VERTEX
  5
130
100
AcDbEntity
  8
0
390
0
 62
     7
100
AcDbVertex
100
AcDb2dVertex
 10
183.067075
 20
186.144568
 30
0.0
  0
SEQEND
  5
131
100
AcDbEntity
  8
0
390
0
  0
POLYLINE
  5
132
100
AcDbEntity
  8
0
390
0
  6
Continuous
 62
     7
100
AcDb2dPolyline
 66
     1
 10
0.0
 20
0.0
 30
0.0
 40
0.1
 41
0.1
  0
VERTEX
  5
133
100
AcDbEntity
  8
0
390
0
 62
     7
100
AcDbVertex
100
AcDb2dVertex
 10
206.817075
 20
186.144568
 30
0.0
  0
VERTEX
  5
134
100
AcDbEntity
  8
0
390
0
 62
     7
100
AcDbVertex
100
AcDb2dVertex
 10
209.442075
 20
185.619568
 30
0.0
  0
VERTEX
  5
135
100
AcDbEntity
  8
0
390
0
 62
     7
100
AcDbVertex
100
AcDb2dVertex
 10
206.817075
 20
185.094568
 30
0.0
  0
SEQEND
  5
136
100
AcDbEntity
  8
0
390
0
  0
ENDBLK
  5
137
100
AcDbEntity
  8
0
390
0
100
AcDbBlockEnd
  0
BLOCK
  5
13A
100
AcDbEntity
  8
0
390
0
100
AcDbBlockBegin
  2
*D8
 70
     1
 10
0.0
 20
0.0
 30
0.0
  3
DI8
  1

  0
MTEXT
  5
13B
100
AcDbEntity
  8
0
390
0
 62
     7
100
AcDbMText
 10
172.864803
 20
164.536828
 30
0.0
 40
3.5
 41
25.104545
 71
     7
 72
     1
  1
\A1;AG
210
0.0
220
0.0
230
1.0
 73
     1
 44
1.0
  0
LINE
  5
13C
100
AcDbEntity
  8
0
390
0
  6
Continuous
 62
     7
100
AcDbLine
 10
180.442075
 20
162.802737
 30
0.0
 11
170.442075
 21
162.802737
 31
0.0
  0
LINE
  5
13D
100
AcDbEntity
  8
0
390
0
  6
Continuous
 62
     7
100
AcDbLine
 10
180.442075
 20
157.00824
 30
0.0
 11
180.442075
 21
163.852737
 31
0.0
  0
LINE
  5
13E
100
AcDbEntity
  8
0
390
0
  6
Continuous
 62
     7
100
AcDbLine
 10
170.442075
 20
157.00824
 30
0.0
 11
170.442075
 21
163.852737
 31
0.0
  0
POLYLINE
  5
13F
100
AcDbEntity
  8
0
390
0
  6
Continuous
 62
     7
100
AcDb2dPolyline
 66
     1
 10
0.0
 20
0.0
 30
0.0
 40
0.1
 41
0.1
  0
VERTEX
  5
140
100
AcDbEntity
  8
0
390
0
 62
     7
100
AcDbVertex
100
AcDb2dVertex
 10
177.817075
 20
163.327737
 30
0.0
  0
VERTEX
  5
141
100
AcDbEntity
  8
0
390
0
 62
     7
100
AcDbVertex
100
AcDb2dVertex
 10
180.442075
 20
162.802737
 30
0.0
  0
VERTEX
  5
142
100
AcDbEntity
  8
0
390
0
 62
     7
100
AcDbVertex
100
AcDb2dVertex
 10
177.817075
 20
162.277737
 30
0.0
  0
SEQEND
  5
143
100
AcDbEntity
  8
0
390
0
  0
POLYLINE
  5
144
100
AcDbEntity
  8
0
390
0
  6
Continuous
 62
     7
100
AcDb2dPolyline
 66
     1
 10
0.0
 20
0.0
 30
0.0
 40
0.1
 41
0.1
  0
VERTEX
  5
145
100
AcDbEntity
  8
0
390
0
 62
     7
100
AcDbVertex
100
AcDb2dVertex
 10
173.067075
 20
162.277737
 30
0.0
  0
VERTEX
  5
146
100
AcDbEntity
  8
0
390
0
 62
     7
100
AcDbVertex
100
AcDb2dVertex
 10
170.442075
 20
162.802737
 30
0.0
  0
VERTEX
  5
147
100
AcDbEntity
  8
0
390
0
 62
     7
100
AcDbVertex
100
AcDb2dVertex
 10
173.067075
 20
163.327737
 30
0.0
  0
SEQEND
  5
148
100
AcDbEntity
  8
0
390
0
  0
ENDBLK
  5
149
100
AcDbEntity
  8
0
390
0
100
AcDbBlockEnd
  0
BLOCK
  5
14C
100
AcDbEntity
  8
0
390
0
100
AcDbBlockBegin
  2
*D9
 70
     1
 10
0.0
 20
0.0
 30
0.0
  3
DI9
  1

  0
MTEXT
  5
14D
100
AcDbEntity
  8
0
390
0
 62
     7
100
AcDbMText
 10
183.830712
 20
172.879081
 30
0.0
 40
3.5
 41
28.477273
 71
     7
 72
     1
  1
\A1;14.0
210
0.0
220
0.0
230
0.9999999999999999
 11
1.0
 21
0.0
 31
0.0
 73
     1
 44
1.0
  0
LINE
  5
14E
100
AcDbEntity
  8
0
390
0
  6
Continuous
 62
     7
100
AcDbLine
 10
180.442075
 20
171.160899
 30
0.0
 11
194.442075
 21
171.160899
 31
0.0
  0
LINE
  5
14F
100
AcDbEntity
  8
0
390
0
  6
Continuous
 62
     7
100
AcDbLine
 10
180.442075
 20
157.00824
 30
0.0
 11
180.442075
 21
172.210899
 31
0.0
  0
LINE
  5
150
100
AcDbEntity
  8
0
390
0
  6
Continuous
 62
     7
100
AcDbLine
 10
194.442075
 20
157.00824
 30
0.0
 11
194.442075
 21
172.210899
 31
0.0
  0
POLYLINE
  5
151
100
AcDbEntity
  8
0
390
0
  6
Continuous
 62
     7
100
AcDb2dPolyline
 66
     1
 10
0.0
 20
0.0
 30
0.0
 40
0.1
 41
0.1
  0
VERTEX
  5
152
100
AcDbEntity
  8
0
390
0
 62
     7
100
AcDbVertex
100
AcDb2dVertex
 10
183.067075
 20
170.635899
 30
0.0
  0
VERTEX
  5
153
100
AcDbEntity
  8
0
390
0
 62
     7
100
AcDbVertex
100
AcDb2dVertex
 10
180.442075
 20
171.160899
 30
0.0
  0
VERTEX
  5
154
100
AcDbEntity
  8
0
390
0
 62
     7
100
AcDbVertex
100
AcDb2dVertex
 10
183.067075
 20
171.685899
 30
0.0
  0
SEQEND
  5
155
100
AcDbEntity
  8
0
390
0
  0
POLYLINE
  5
156
100
AcDbEntity
  8
0
390
0
  6
Continuous
 62
     7
100
AcDb2dPolyline
 66
     1
 10
0.0
 20
0.0
 30
0.0
 40
0.1
 41
0.1
  0
VERTEX
  5
157
100
AcDbEntity
  8
0
390
0
 62
     7
100
AcDbVertex
100
AcDb2dVertex
 10
191.817075
 20
171.685899
 30
0.0
  0
VERTEX
  5
158
100
AcDbEntity
  8
0
390
0
 62
     7
100
AcDbVertex
100
AcDb2dVertex
 10
194.442075
 20
171.160899
 30
0.0
  0
VERTEX
  5
159
100
AcDbEntity
  8
0
390
0
 62
     7
100
AcDbVertex
100
AcDb2dVertex
 10
191.817075
 20
170.635899
 30
0.0
  0
SEQEND
  5
15A
100
AcDbEntity
  8
0
390
0
  0
ENDBLK
  5
15B
100
AcDbEntity
  8
0
390
0
100
AcDbBlockEnd
  0
BLOCK
  5
15E
100
AcDbEntity
  8
0
390
0
100
AcDbBlockBegin
  2
*D10
 70
     1
 10
0.0
 20
0.0
 30
0.0
  3
DI10
  1

  0
MTEXT
  5
15F
100
AcDbEntity
  8
0
390
0
 62
     7
100
AcDbMText
 10
187.723894
 20
180.479249
 30
0.0
 40
3.5
 41
28.35
 71
     7
 72
     1
  1
\A1;21.5
210
0.0
220
0.0
230
1.0
 73
     1
 44
1.0
  0
LINE
  5
160
100
AcDbEntity
  8
0
390
0
  6
Continuous
 62
     7
100
AcDbLine
 10
201.942075
 20
178.745158
 30
0.0
 11
180.442075
 21
178.745158
 31
0.0
  0
LINE
  5
161
100
AcDbEntity
  8
0
390
0
  6
Continuous
 62
     7
100
AcDbLine
 10
201.942075
 20
149.008239
 30
0.0
 11
201.942075
 21
179.795158
 31
0.0
  0
LINE
  5
162
100
AcDbEntity
  8
0
390
0
  6
Continuous
 62
     7
100
AcDbLine
 10
180.442075
 20
157.00824
 30
0.0
 11
180.442075
 21
179.795158
 31
0.0
  0
POLYLINE
  5
163
100
AcDbEntity
  8
0
390
0
  6
Continuous
 62
     7
100
AcDb2dPolyline
 66
     1
 10
0.0
 20
0.0
 30
0.0
 40
0.1
 41
0.1
  0
VERTEX
  5
164
100
AcDbEntity
  8
0
390
0
 62
     7
100
AcDbVertex
100
AcDb2dVertex
 10
199.317075
 20
179.270158
 30
0.0
  0
VERTEX
  5
165
100
AcDbEntity
  8
0
390
0
 62
     7
100
AcDbVertex
100
AcDb2dVertex
 10
201.942075
 20
178.745158
 30
0.0
  0
VERTEX
  5
166
100
AcDbEntity
  8
0
390
0
 62
     7
100
AcDbVertex
100
AcDb2dVertex
 10
199.317075
 20
178.220158
 30
0.0
  0
SEQEND
  5
167
100
AcDbEntity
  8
0
390
0
  0
POLYLINE
  5
168
100
AcDbEntity
  8
0
390
0
  6
Continuous
 62
     7
100
AcDb2dPolyline
 66
     1
 10
0.0
 20
0.0
 30
0.0
 40
0.1
 41
0.1
  0
VERTEX
  5
169
100
AcDbEntity
  8
0
390
0
 62
     7
100
AcDbVertex
100
AcDb2dVertex
 10
183.067075
 20
178.220158
 30
0.0
  0
VERTEX
  5
16A
100
AcDbEntity
  8
0
390
0
 62
     7
100
AcDbVertex
100
AcDb2dVertex
 10
180.442075
 20
178.745158
 30
0.0
  0
VERTEX
  5
16B
100
AcDbEntity
  8
0
390
0
 62
     7
100
AcDbVertex
100
AcDb2dVertex
 10
183.067075
 20
179.270158
 30
0.0
  0
SEQEND
  5
16C
100
AcDbEntity
  8
0
390
0
  0
ENDBLK
  5
16D
100
AcDbEntity
  8
0
390
0
100
AcDbBlockEnd
  0
BLOCK
  5
170
100
AcDbEntity
  8
0
390
0
100
AcDbBlockBegin
  2
*D11
 70
     1
 10
0.0
 20
0.0
 30
0.0
  3
DI11
  1

  0
MTEXT
  5
171
100
AcDbEntity
  8
0
390
0
 62
     7
100
AcDbMText
 10
175.493446
 20
124.502558
 30
0.0
 40
3.5
 41
36.622727
 71
     7
 72
     1
  1
\A1;%%c26.0
210
0.0
220
0.0
230
0.9999999999999999
 11
0.0
 21
1.0
 31
0.0
 73
     1
 44
1.0
  0
LINE
  5
172
100
AcDbEntity
  8
0
390
0
  6
Continuous
 62
     7
100
AcDbLine
 10
177.227537
 20
138.95824
 30
0.0
 11
177.227537
 21
112.95824
 31
0.0
  0
LINE
  5
173
100
AcDbEntity
  8
0
390
0
  6
Continuous
 62
     7
100
AcDbLine
 10
179.392075
 20
138.95824
 30
0.0
 11
176.177537
 21
138.95824
 31
0.0
  0
LINE
  5
174
100
AcDbEntity
  8
0
390
0
  6
Continuous
 62
     7
100
AcDbLine
 10
179.392075
 20
112.95824
 30
0.0
 11
176.177537
 21
112.95824
 31
0.0
  0
POLYLINE
  5
175
100
AcDbEntity
  8
0
390
0
  6
Continuous
 62
     7
100
AcDb2dPolyline
 66
     1
 10
0.0
 20
0.0
 30
0.0
 40
0.1
 41
0.1
  0
VERTEX
  5
176
100
AcDbEntity
  8
0
390
0
 62
     7
100
AcDbVertex
100
AcDb2dVertex
 10
176.702537
 20
136.33324
 30
0.0
  0
VERTEX
  5
177
100
AcDbEntity
  8
0
390
0
 62
     7
100
AcDbVertex
100
AcDb2dVertex
 10
177.227537
 20
138.95824
 30
0.0
  0
VERTEX
  5
178
100
AcDbEntity
  8
0
390
0
 62
     7
100
AcDbVertex
100
AcDb2dVertex
 10
177.752537
 20
136.33324
 30
0.0
  0
SEQEND
  5
179
100
AcDbEntity
  8
0
390
0
  0
POLYLINE
  5
17A
100
AcDbEntity
  8
0
390
0
  6
Continuous
 62
     7
100
AcDb2dPolyline
 66
     1
 10
0.0
 20
0.0
 30
0.0
 40
0.1
 41
0.1
  0
VERTEX
  5
17B
100
AcDbEntity
  8
0
390
0
 62
     7
100
AcDbVertex
100
AcDb2dVertex
 10
177.752537
 20
115.58324
 30
0.0
  0
VERTEX
  5
17C
100
AcDbEntity
  8
0
390
0
 62
     7
100
AcDbVertex
100
AcDb2dVertex
 10
177.227537
 20
112.95824
 30
0.0
  0
VERTEX
  5
17D
100
AcDbEntity
  8
0
390
0
 62
     7
100
AcDbVertex
100
AcDb2dVertex
 10
176.702537
 20
115.58324
 30
0.0
  0
SEQEND
  5
17E
100
AcDbEntity
  8
0
390
0
  0
ENDBLK
  5
17F
100
AcDbEntity
  8
0
390
0
100
AcDbBlockEnd
  0
BLOCK
  5
182
100
AcDbEntity
  8
0
390
0
100
AcDbBlockBegin
  2
*D12
 70
     1
 10
0.0
 20
0.0
 30
0.0
  3
DI12
  1

  0
MTEXT
  5
183
100
AcDbEntity
  8
0
390
0
 62
     7
100
AcDbMText
 10
182.452303
 20
164.536828
 30
0.0
 40
3.5
 41
24.404545
 71
     7
 72
     1
  1
\A1;9.0
210
0.0
220
0.0
230
1.0
 73
     1
 44
1.0
  0
LINE
  5
184
100
AcDbEntity
  8
0
390
0
  6
Continuous
 62
     7
100
AcDbLine
 10
180.442075
 20
162.802737
 30
0.0
 11
189.442075
 21
162.802737
 31
0.0
  0
LINE
  5
185
100
AcDbEntity
  8
0
390
0
  6
Continuous
 62
     7
100
AcDbLine
 10
180.442075
 20
157.00824
 30
0.0
 11
180.442075
 21
163.852737
 31
0.0
  0
LINE
  5
186
100
AcDbEntity
  8
0
390
0
  6
Continuous
 62
     7
100
AcDbLine
 10
189.442075
 20
140.00824
 30
0.0
 11
189.442075
 21
163.852737
 31
0.0
  0
POLYLINE
  5
187
100
AcDbEntity
  8
0
390
0
  6
Continuous
 62
     7
100
AcDb2dPolyline
 66
     1
 10
0.0
 20
0.0
 30
0.0
 40
0.1
 41
0.1
  0
VERTEX
  5
188
100
AcDbEntity
  8
0
390
0
 62
     7
100
AcDbVertex
100
AcDb2dVertex
 10
183.067075
 20
162.277737
 30
0.0
  0
VERTEX
  5
189
100
AcDbEntity
  8
0
390
0
 62
     7
100
AcDbVertex
100
AcDb2dVertex
 10
180.442075
 20
162.802737
 30
0.0
  0
VERTEX
  5
18A
100
AcDbEntity
  8
0
390
0
 62
     7
100
AcDbVertex
100
AcDb2dVertex
 10
183.067075
 20
163.327737
 30
0.0
  0
SEQEND
  5
18B
100
AcDbEntity
  8
0
390
0
  0
POLYLINE
  5
18C
100
AcDbEntity
  8
0
390
0
  6
Continuous
 62
     7
100
AcDb2dPolyline
 66
     1
 10
0.0
 20
0.0
 30
0.0
 40
0.1
 41
0.1
  0
VERTEX
  5
18D
100
AcDbEntity
  8
0
390
0
 62
     7
100
AcDbVertex
100
AcDb2dVertex
 10
186.817075
 20
163.327737
 30
0.0
  0
VERTEX
  5
18E
100
AcDbEntity
  8
0
390
0
 62
     7
100
AcDbVertex
100
AcDb2dVertex
 10
189.442075
 20
162.802737
 30
0.0
  0
VERTEX
  5
18F
100
AcDbEntity
  8
0
390
0
 62
     7
100
AcDbVertex
100
AcDb2dVertex
 10
186.817075
 20
162.277737
 30
0.0
  0
SEQEND
  5
190
100
AcDbEntity
  8
0
390
0
  0
ENDBLK
  5
191
100
AcDbEntity
  8
0
390
0
100
AcDbBlockEnd
  0
ENDSEC
  0
SECTION
  2
ENTITIES
  0
ARC
  5
27
100
AcDbEntity
  8
0
390
0
  6
Continuous
 62
     7
100
AcDbCircle
 10
79.788819
 20
125.95824
 30
0.0
 40
7.5
210
0.0
220
0.0
230
1.0
100
AcDbArc
 50
109.471221
 51
70.528779
  0
LINE
  5
28
100
AcDbEntity
  8
0
390
0
  6
Continuous
 62
     7
100
AcDbLine
 10
77.288819
 20
133.029307
 30
0.0
 11
77.288819
 21
135.75824
 31
0.0
  0
CIRCLE
  5
29
100
AcDbEntity
  8
0
390
0
  6
Continuous
 62
     7
100
AcDbCircle
 10
79.788819
 20
125.95824
 30
0.0
 40
20.0
210
0.0
220
0.0
230
1.0
  0
LINE
  5
2A
100
AcDbEntity
  8
0
390
0
  6
Continuous
 62
     7
100
AcDbLine
 10
82.288819
 20
135.75824
 30
0.0
 11
82.288819
 21
133.029307
 31
0.0
  0
ARC
  5
2B
100
AcDbEntity
  8
0
390
0
  6
Continuous
 62
     7
100
AcDbCircle
 10
79.788819
 20
135.75824
 30
0.0
 40
2.5
210
0.0
220
0.0
230
1.0
100
AcDbArc
 50
0.0
 51
180.0
  0
CIRCLE
  5
2C
100
AcDbEntity
  8
0
390
0
  6
Continuous
 62
     7
100
AcDbCircle
 10
79.788819
 20
125.95824
 30
0.0
 40
30.0
210
0.0
220
0.0
230
1.0
  0
CIRCLE
  5
2E
100
AcDbEntity
  8
0
390
0
  6
DOT
 62
     2
100
AcDbCircle
 10
79.788819
 20
125.95824
 30
0.0
 40
13.0
210
0.0
220
0.0
230
1.0
  0
LINE
  5
2F
100
AcDbEntity
  8
0
390
0
  6
Continuous
 62
     2
100
AcDbLine
 10
77.288824
 20
145.801507
 30
0.0
 11
77.288824
 21
145.801375
 31
0.0
  0
LINE
  5
30
100
AcDbEntity
  8
0
390
0
  6
DOT
 62
     2
100
AcDbLine
 10
77.288824
 20
145.801375
 30
0.0
 11
77.288823
 21
144.116379
 31
0.0
  0
LINE
  5
31
100
AcDbEntity
  8
0
390
0
  6
DOT
 62
     2
100
AcDbLine
 10
77.288823
 20
144.116379
 30
0.0
 11
77.288822
 21
139.991373
 31
0.0
  0
LINE
  5
32
100
AcDbEntity
  8
0
390
0
  6
DOT
 62
     2
100
AcDbLine
 10
77.288822
 20
139.991373
 30
0.0
 11
77.288821
 21
135.75824
 31
0.0
  0
LINE
  5
33
100
AcDbEntity
  8
0
390
0
  6
DOT
 62
     2
100
AcDbLine
 10
82.288816
 20
135.75824
 30
0.0
 11
82.288815
 21
139.991373
 31
0.0
  0
LINE
  5
34
100
AcDbEntity
  8
0
390
0
  6
DOT
 62
     2
100
AcDbLine
 10
82.288815
 20
139.991373
 30
0.0
 11
82.288814
 21
144.116379
 31
0.0
  0
LINE
  5
35
100
AcDbEntity
  8
0
390
0
  6
DOT
 62
     2
100
AcDbLine
 10
82.288814
 20
144.116379
 30
0.0
 11
82.288814
 21
145.801375
 31
0.0
  0
LINE
  5
36
100
AcDbEntity
  8
0
390
0
  6
DOT
 62
     2
100
AcDbLine
 10
77.688819
 20
145.847684
 30
0.0
 11
77.688819
 21
144.316377
 31
0.0
  0
LINE
  5
37
100
AcDbEntity
  8
0
390
0
  6
DOT
 62
     2
100
AcDbLine
 10
77.688819
 20
144.316377
 30
0.0
 11
77.688819
 21
144.116397
 31
0.0
  0
LINE
  5
38
100
AcDbEntity
  8
0
390
0
  6
DOT
 62
     2
100
AcDbLine
 10
77.688819
 20
139.591357
 30
0.0
 11
77.688819
 21
137.114705
 31
0.0
  0
LINE
  5
39
100
AcDbEntity
  8
0
390
0
  6
DOT
 62
     2
100
AcDbLine
 10
81.888819
 20
137.114993
 30
0.0
 11
81.888819
 21
139.591357
 31
0.0
  0
LINE
  5
3A
100
AcDbEntity
  8
0
390
0
  6
DOT
 62
     2
100
AcDbLine
 10
81.888819
 20
144.116397
 30
0.0
 11
81.888819
 21
144.316377
 31
0.0
  0
LINE
  5
3B
100
AcDbEntity
  8
0
390
0
  6
DOT
 62
     2
100
AcDbLine
 10
81.888819
 20
144.316377
 30
0.0
 11
81.888819
 21
145.847772
 31
0.0
  0
LINE
  5
3D
100
AcDbEntity
  8
0
390
0
  6
CENTER
 62
     1
100
AcDbLine
 10
47.788819
 20
125.95824
 30
0.0
 11
111.788819
 21
125.95824
 31
0.0
  0
INSERT
  5
52
100
AcDbEntity
  8
0
390
0
100
AcDbBlockReference
  2
AID45
 10
0.0
 20
0.0
 30
0.0
  0
LINE
  5
53
100
AcDbEntity
  8
0
390
0
  6
Continuous
 62
     7
100
AcDbLine
 10
180.442075
 20
112.95824
 30
0.0
 11
184.442075
 21
112.95824
 31
0.0
  0
LINE
  5
54
100
AcDbEntity
  8
0
390
0
  6
Continuous
 62
     7
100
AcDbLine
 10
180.442075
 20
112.95824
 30
0.0
 11
180.442075
 21
138.95824
 31
0.0
  0
LINE
  5
55
100
AcDbEntity
  8
0
390
0
  6
Continuous
 62
     7
100
AcDbLine
 10
184.442075
 20
138.95824
 30
0.0
 11
180.442075
 21
138.95824
 31
0.0
  0
LINE
  5
56
100
AcDbEntity
  8
0
390
0
  6
Continuous
 62
     7
100
AcDbLine
 10
184.442075
 20
138.95824
 30
0.0
 11
184.442075
 21
112.95824
 31
0.0
  0
LINE
  5
57
100
AcDbEntity
  8
0
390
0
  6
Continuous
 62
     7
100
AcDbLine
 10
184.442075
 20
112.95824
 30
0.0
 11
184.442075
 21
95.95824
 31
0.0
  0
LINE
  5
58
100
AcDbEntity
  8
0
390
0
  6
Continuous
 62
     7
100
AcDbLine
 10
180.442075
 20
95.95824
 30
0.0
 11
184.442075
 21
95.95824
 31
0.0
  0
LINE
  5
59
100
AcDbEntity
  8
0
390
0
  6
Continuous
 62
     7
100
AcDbLine
 10
180.442075
 20
112.95824
 30
0.0
 11
180.442075
 21
95.95824
 31
0.0
  0
LINE
  5
5A
100
AcDbEntity
  8
0
390
0
  6
Continuous
 62
     7
100
AcDbLine
 10
184.442075
 20
155.95824
 30
0.0
 11
184.442075
 21
138.95824
 31
0.0
  0
LINE
  5
5B
100
AcDbEntity
  8
0
390
0
  6
Continuous
 62
     7
100
AcDbLine
 10
180.442075
 20
155.95824
 30
0.0
 11
180.442075
 21
138.95824
 31
0.0
  0
LINE
  5
5C
100
AcDbEntity
  8
0
390
0
  6
Continuous
 62
     7
100
AcDbLine
 10
184.442075
 20
155.95824
 30
0.0
 11
180.442075
 21
155.95824
 31
0.0
  0
LINE
  5
5D
100
AcDbEntity
  8
0
390
0
  6
Continuous
 62
     2
100
AcDbLine
 10
199.442078
 20
138.258237
 30
0.0
 11
199.442078
 21
139.607398
 31
0.0
  0
LINE
  5
5E
100
AcDbEntity
  8
0
390
0
  6
Continuous
 62
     2
100
AcDbLine
 10
199.442078
 20
139.607398
 30
0.0
 11
199.44208
 21
143.732404
 31
0.0
  0
LINE
  5
5F
100
AcDbEntity
  8
0
390
0
  6
Continuous
 62
     2
100
AcDbLine
 10
199.44208
 20
143.732404
 30
0.0
 11
199.44208
 21
145.95824
 31
0.0
  0
LINE
  5
60
100
AcDbEntity
  8
0
390
0
  6
Continuous
 62
     2
100
AcDbLine
 10
199.442078
 20
138.258237
 30
0.0
 11
201.942075
 21
135.75824
 31
0.0
  0
LINE
  5
61
100
AcDbEntity
  8
0
390
0
  6
Continuous
 62
     2
100
AcDbLine
 10
201.942075
 20
135.75824
 30
0.0
 11
204.442073
 21
138.258237
 31
0.0
  0
LINE
  5
62
100
AcDbEntity
  8
0
390
0
  6
Continuous
 62
     2
100
AcDbLine
 10
204.44207
 20
145.95824
 30
0.0
 11
204.442071
 21
143.732404
 31
0.0
  0
LINE
  5
63
100
AcDbEntity
  8
0
390
0
  6
Continuous
 62
     2
100
AcDbLine
 10
204.442071
 20
143.732404
 30
0.0
 11
204.442073
 21
139.607398
 31
0.0
  0
LINE
  5
64
100
AcDbEntity
  8
0
390
0
  6
Continuous
 62
     2
100
AcDbLine
 10
204.442073
 20
139.607398
 30
0.0
 11
204.442073
 21
138.258237
 31
0.0
  0
LINE
  5
65
100
AcDbEntity
  8
0
390
0
  6
Continuous
 62
     9
100
AcDbLine
 10
189.442075
 20
135.75824
 30
0.0
 11
201.942075
 21
135.75824
 31
0.0
  0
LINE
  5
66
100
AcDbEntity
  8
0
390
0
  6
Continuous
 62
     9
100
AcDbLine
 10
201.942075
 20
135.75824
 30
0.0
 11
209.442075
 21
135.75824
 31
0.0
  0
LINE
  5
67
100
AcDbEntity
  8
0
390
0
  6
Continuous
 62
     7
100
AcDbLine
 10
189.442075
 20
138.25824
 30
0.0
 11
189.442075
 21
135.75824
 31
0.0
  0
LINE
  5
68
100
AcDbEntity
  8
0
390
0
  6
Continuous
 62
     7
100
AcDbLine
 10
199.842075
 20
138.25824
 30
0.0
 11
199.442078
 21
138.25824
 31
0.0
  0
LINE
  5
69
100
AcDbEntity
  8
0
390
0
  6
Continuous
 62
     7
100
AcDbLine
 10
199.442078
 20
138.25824
 30
0.0
 11
189.442075
 21
138.25824
 31
0.0
  0
POLYLINE
  5
6A
100
AcDbEntity
  8
0
390
0
  6
Continuous
 62
     7
100
AcDb2dPolyline
 66
     1
 10
0.0
 20
0.0
 30
0.0
 40
0.1
 41
0.1
  0
VERTEX
  5
6B
100
AcDbEntity
  8
0
390
0
 62
     7
100
AcDbVertex
100
AcDb2dVertex
 10
204.042075
 20
138.25824
 30
0.0
 42
-0.151245
  0
VERTEX
  5
6C
100
AcDbEntity
  8
0
390
0
 62
     7
100
AcDbVertex
100
AcDb2dVertex
 10
201.977721
 20
137.115174
 30
0.0
 42
-0.162899
  0
VERTEX
  5
6D
100
AcDbEntity
  8
0
390
0
 62
     7
100
AcDbVertex
100
AcDb2dVertex
 10
199.842075
 20
138.25824
 30
0.0
  0
SEQEND
  5
6E
100
AcDbEntity
  8
0
390
0
  0
LINE
  5
6F
100
AcDbEntity
  8
0
390
0
  6
Continuous
 62
     7
100
AcDbLine
 10
209.442075
 20
138.25824
 30
0.0
 11
204.442073
 21
138.25824
 31
0.0
  0
LINE
  5
70
100
AcDbEntity
  8
0
390
0
  6
Continuous
 62
     7
100
AcDbLine
 10
204.442073
 20
138.25824
 30
0.0
 11
204.042075
 21
138.25824
 31
0.0
  0
LINE
  5
71
100
AcDbEntity
  8
0
390
0
  6
Continuous
 62
     7
100
AcDbLine
 10
209.442075
 20
138.25824
 30
0.0
 11
209.442075
 21
135.75824
 31
0.0
  0
ARC
  5
72
100
AcDbEntity
  8
0
390
0
  6
Continuous
 62
     7
100
AcDbCircle
 10
201.942075
 20
165.847684
 30
0.0
 40
20.0
210
0.0
220
0.0
230
1.0
100
AcDbArc
 50
263.972833
 51
276.027167
  0
LINE
  5
73
100
AcDbEntity
  8
0
390
0
  6
Continuous
 62
     7
100
AcDbLine
 10
199.842075
 20
145.95824
 30
0.0
 11
199.44208
 21
145.95824
 31
0.0
  0
LINE
  5
74
100
AcDbEntity
  8
0
390
0
  6
Continuous
 62
     7
100
AcDbLine
 10
199.44208
 20
145.95824
 30
0.0
 11
194.442075
 21
145.95824
 31
0.0
  0
LINE
  5
75
100
AcDbEntity
  8
0
390
0
  6
Continuous
 62
     7
100
AcDbLine
 10
194.442075
 20
105.95824
 30
0.0
 11
209.442075
 21
105.95824
 31
0.0
  0
LINE
  5
76
100
AcDbEntity
  8
0
390
0
  6
Continuous
 62
     7
100
AcDbLine
 10
209.442075
 20
145.95824
 30
0.0
 11
204.44207
 21
145.95824
 31
0.0
  0
LINE
  5
77
100
AcDbEntity
  8
0
390
0
  6
Continuous
 62
     7
100
AcDbLine
 10
204.44207
 20
145.95824
 30
0.0
 11
204.042075
 21
145.95824
 31
0.0
  0
LINE
  5
78
100
AcDbEntity
  8
0
390
0
  6
Continuous
 62
     7
100
AcDbLine
 10
184.442075
 20
112.95824
 30
0.0
 11
189.442075
 21
112.95824
 31
0.0
  0
LINE
  5
79
100
AcDbEntity
  8
0
390
0
  6
Continuous
 62
     7
100
AcDbLine
 10
184.442075
 20
138.95824
 30
0.0
 11
184.442075
 21
112.95824
 31
0.0
  0
LINE
  5
7A
100
AcDbEntity
  8
0
390
0
  6
Continuous
 62
     7
100
AcDbLine
 10
189.442075
 20
138.95824
 30
0.0
 11
184.442075
 21
138.95824
 31
0.0
  0
LINE
  5
7B
100
AcDbEntity
  8
0
390
0
  6
Continuous
 62
     7
100
AcDbLine
 10
189.442075
 20
138.95824
 30
0.0
 11
189.442075
 21
138.25824
 31
0.0
  0
LINE
  5
7C
100
AcDbEntity
  8
0
390
0
  6
Continuous
 62
     7
100
AcDbLine
 10
184.442075
 20
155.95824
 30
0.0
 11
184.442075
 21
138.95824
 31
0.0
  0
LINE
  5
7D
100
AcDbEntity
  8
0
390
0
  6
Continuous
 62
     7
100
AcDbLine
 10
194.442075
 20
155.95824
 30
0.0
 11
184.442075
 21
155.95824
 31
0.0
  0
LINE
  5
7E
100
AcDbEntity
  8
0
390
0
  6
Continuous
 62
     7
100
AcDbLine
 10
194.442075
 20
155.95824
 30
0.0
 11
194.442075
 21
145.95824
 31
0.0
  0
LINE
  5
7F
100
AcDbEntity
  8
0
390
0
  6
Continuous
 62
     7
100
AcDbLine
 10
184.442075
 20
95.95824
 30
0.0
 11
194.442075
 21
95.95824
 31
0.0
  0
LINE
  5
80
100
AcDbEntity
  8
0
390
0
  6
Continuous
 62
     7
100
AcDbLine
 10
189.442075
 20
118.45824
 30
0.0
 11
189.442075
 21
112.95824
 31
0.0
  0
LINE
  5
81
100
AcDbEntity
  8
0
390
0
  6
Continuous
 62
     7
100
AcDbLine
 10
189.442075
 20
118.45824
 30
0.0
 11
209.442075
 21
118.45824
 31
0.0
  0
LINE
  5
82
100
AcDbEntity
  8
0
390
0
  6
Continuous
 62
     7
100
AcDbLine
 10
209.442075
 20
118.45824
 30
0.0
 11
209.442075
 21
105.95824
 31
0.0
  0
LINE
  5
83
100
AcDbEntity
  8
0
390
0
  6
Continuous
 62
     7
100
AcDbLine
 10
194.442075
 20
105.95824
 30
0.0
 11
194.442075
 21
95.95824
 31
0.0
  0
LINE
  5
84
100
AcDbEntity
  8
0
390
0
  6
Continuous
 62
     7
100
AcDbLine
 10
184.442075
 20
112.95824
 30
0.0
 11
184.442075
 21
95.95824
 31
0.0
  0
LINE
  5
85
100
AcDbEntity
  8
0
390
0
  6
Continuous
 62
     7
100
AcDbLine
 10
189.442075
 20
133.029307
 30
0.0
 11
209.442075
 21
133.029307
 31
0.0
  0
LINE
  5
86
100
AcDbEntity
  8
0
390
0
  6
Continuous
 62
     7
100
AcDbLine
 10
209.442075
 20
133.029307
 30
0.0
 11
209.442075
 21
118.45824
 31
0.0
  0
LINE
  5
87
100
AcDbEntity
  8
0
390
0
  6
Continuous
 62
     7
100
AcDbLine
 10
189.442075
 20
133.029307
 30
0.0
 11
189.442075
 21
118.45824
 31
0.0
  0
LINE
  5
88
100
AcDbEntity
  8
0
390
0
  6
Continuous
 62
     7
100
AcDbLine
 10
209.442075
 20
145.95824
 30
0.0
 11
209.442075
 21
138.25824
 31
0.0
  0
LINE
  5
89
100
AcDbEntity
  8
0
390
0
  6
Continuous
 62
     7
100
AcDbLine
 10
209.442075
 20
133.029307
 30
0.0
 11
209.442075
 21
135.75824
 31
0.0
  0
LINE
  5
8A
100
AcDbEntity
  8
0
390
0
  6
Continuous
 62
     7
100
AcDbLine
 10
189.442075
 20
133.029307
 30
0.0
 11
189.442075
 21
135.75824
 31
0.0
  0
LINE
  5
8B
100
AcDbEntity
  8
0
390
0
  6
Continuous
 62
     2
100
AcDbLine
 10
146.442078
 20
138.258237
 30
0.0
 11
148.942075
 21
135.75824
 31
0.0
  0
LINE
  5
8C
100
AcDbEntity
  8
0
390
0
  6
Continuous
 62
     2
100
AcDbLine
 10
148.942075
 20
135.75824
 30
0.0
 11
151.442073
 21
138.258237
 31
0.0
  0
LINE
  5
8D
100
AcDbEntity
  8
0
390
0
  6
Continuous
 62
     2
100
AcDbLine
 10
146.442078
 20
138.258237
 30
0.0
 11
146.442079
 21
139.991373
 31
0.0
  0
LINE
  5
8E
100
AcDbEntity
  8
0
390
0
  6
Continuous
 62
     2
100
AcDbLine
 10
146.442079
 20
139.991373
 30
0.0
 11
146.44208
 21
144.116379
 31
0.0
  0
LINE
  5
8F
100
AcDbEntity
  8
0
390
0
  6
Continuous
 62
     2
100
AcDbLine
 10
146.44208
 20
144.116379
 30
0.0
 11
146.44208
 21
145.95824
 31
0.0
  0
LINE
  5
90
100
AcDbEntity
  8
0
390
0
  6
Continuous
 62
     2
100
AcDbLine
 10
151.44207
 20
145.95824
 30
0.0
 11
151.442071
 21
144.116379
 31
0.0
  0
LINE
  5
91
100
AcDbEntity
  8
0
390
0
  6
Continuous
 62
     2
100
AcDbLine
 10
151.442071
 20
144.116379
 30
0.0
 11
151.442072
 21
139.991373
 31
0.0
  0
LINE
  5
92
100
AcDbEntity
  8
0
390
0
  6
Continuous
 62
     2
100
AcDbLine
 10
151.442072
 20
139.991373
 30
0.0
 11
151.442073
 21
138.258237
 31
0.0
  0
LINE
  5
93
100
AcDbEntity
  8
0
390
0
  6
Continuous
 62
     9
100
AcDbLine
 10
161.442075
 20
135.75824
 30
0.0
 11
148.942075
 21
135.75824
 31
0.0
  0
LINE
  5
94
100
AcDbEntity
  8
0
390
0
  6
Continuous
 62
     9
100
AcDbLine
 10
148.942075
 20
135.75824
 30
0.0
 11
141.442075
 21
135.75824
 31
0.0
  0
LINE
  5
95
100
AcDbEntity
  8
0
390
0
  6
Continuous
 62
     7
100
AcDbLine
 10
141.442075
 20
138.25824
 30
0.0
 11
141.442075
 21
135.75824
 31
0.0
  0
LINE
  5
96
100
AcDbEntity
  8
0
390
0
  6
Continuous
 62
     7
100
AcDbLine
 10
146.842075
 20
138.25824
 30
0.0
 11
146.442078
 21
138.25824
 31
0.0
  0
LINE
  5
97
100
AcDbEntity
  8
0
390
0
  6
Continuous
 62
     7
100
AcDbLine
 10
146.442078
 20
138.25824
 30
0.0
 11
141.442075
 21
138.25824
 31
0.0
  0
POLYLINE
  5
98
100
AcDbEntity
  8
0
390
0
  6
Continuous
 62
     7
100
AcDb2dPolyline
 66
     1
 10
0.0
 20
0.0
 30
0.0
 40
0.1
 41
0.1
  0
VERTEX
  5
99
100
AcDbEntity
  8
0
390
0
 62
     7
100
AcDbVertex
100
AcDb2dVertex
 10
146.842075
 20
138.25824
 30
0.0
 42
0.151245
  0
VERTEX
  5
9A
100
AcDbEntity
  8
0
390
0
 62
     7
100
AcDbVertex
100
AcDb2dVertex
 10
148.90643
 20
137.115174
 30
0.0
 42
0.162899
  0
VERTEX
  5
9B
100
AcDbEntity
  8
0
390
0
 62
     7
100
AcDbVertex
100
AcDb2dVertex
 10
151.042075
 20
138.25824
 30
0.0
  0
SEQEND
  5
9C
100
AcDbEntity
  8
0
390
0
  0
LINE
  5
9D
100
AcDbEntity
  8
0
390
0
  6
Continuous
 62
     7
100
AcDbLine
 10
161.442075
 20
138.25824
 30
0.0
 11
151.442073
 21
138.25824
 31
0.0
  0
LINE
  5
9E
100
AcDbEntity
  8
0
390
0
  6
Continuous
 62
     7
100
AcDbLine
 10
151.442073
 20
138.25824
 30
0.0
 11
151.042075
 21
138.25824
 31
0.0
  0
LINE
  5
9F
100
AcDbEntity
  8
0
390
0
  6
Continuous
 62
     7
100
AcDbLine
 10
161.442075
 20
138.25824
 30
0.0
 11
161.442075
 21
135.75824
 31
0.0
  0
LINE
  5
A0
100
AcDbEntity
  8
0
390
0
  6
Continuous
 62
     7
100
AcDbLine
 10
156.442075
 20
145.95824
 30
0.0
 11
151.44207
 21
145.95824
 31
0.0
  0
LINE
  5
A1
100
AcDbEntity
  8
0
390
0
  6
Continuous
 62
     7
100
AcDbLine
 10
151.44207
 20
145.95824
 30
0.0
 11
151.042075
 21
145.95824
 31
0.0
  0
ARC
  5
A2
100
AcDbEntity
  8
0
390
0
  6
Continuous
 62
     7
100
AcDbCircle
 10
148.942075
 20
165.847684
 30
0.0
 40
20.0
210
0.0
220
0.0
230
1.0
100
AcDbArc
 50
263.972833
 51
276.027167
  0
LINE
  5
A3
100
AcDbEntity
  8
0
390
0
  6
Continuous
 62
     7
100
AcDbLine
 10
146.842075
 20
145.95824
 30
0.0
 11
146.44208
 21
145.95824
 31
0.0
  0
LINE
  5
A4
100
AcDbEntity
  8
0
390
0
  6
Continuous
 62
     7
100
AcDbLine
 10
146.44208
 20
145.95824
 30
0.0
 11
141.442075
 21
145.95824
 31
0.0
  0
LINE
  5
A5
100
AcDbEntity
  8
0
390
0
  6
Continuous
 62
     7
100
AcDbLine
 10
141.442075
 20
105.95824
 30
0.0
 11
156.442075
 21
105.95824
 31
0.0
  0
LINE
  5
A6
100
AcDbEntity
  8
0
390
0
  6
Continuous
 62
     7
100
AcDbLine
 10
141.442075
 20
138.25824
 30
0.0
 11
141.442075
 21
145.95824
 31
0.0
  0
LINE
  5
A7
100
AcDbEntity
  8
0
390
0
  6
Continuous
 62
     7
100
AcDbLine
 10
161.442075
 20
133.029307
 30
0.0
 11
141.442075
 21
133.029307
 31
0.0
  0
LINE
  5
A8
100
AcDbEntity
  8
0
390
0
  6
Continuous
 62
     7
100
AcDbLine
 10
161.442075
 20
133.029307
 30
0.0
 11
161.442075
 21
118.45824
 31
0.0
  0
LINE
  5
A9
100
AcDbEntity
  8
0
390
0
  6
Continuous
 62
     7
100
AcDbLine
 10
141.442075
 20
118.45824
 30
0.0
 11
161.442075
 21
118.45824
 31
0.0
  0
LINE
  5
AA
100
AcDbEntity
  8
0
390
0
  6
Continuous
 62
     7
100
AcDbLine
 10
141.442075
 20
133.029307
 30
0.0
 11
141.442075
 21
118.45824
 31
0.0
  0
LINE
  5
AB
100
AcDbEntity
  8
0
390
0
  6
Continuous
 62
     7
100
AcDbLine
 10
156.442075
 20
95.95824
 30
0.0
 11
166.442075
 21
95.95824
 31
0.0
  0
LINE
  5
AC
100
AcDbEntity
  8
0
390
0
  6
Continuous
 62
     7
100
AcDbLine
 10
156.442075
 20
95.95824
 30
0.0
 11
156.442075
 21
105.95824
 31
0.0
  0
LINE
  5
AD
100
AcDbEntity
  8
0
390
0
  6
Continuous
 62
     7
100
AcDbLine
 10
161.442075
 20
112.95824
 30
0.0
 11
161.442075
 21
118.45824
 31
0.0
  0
LINE
  5
AE
100
AcDbEntity
  8
0
390
0
  6
Continuous
 62
     7
100
AcDbLine
 10
161.442075
 20
112.95824
 30
0.0
 11
166.442075
 21
112.95824
 31
0.0
  0
LINE
  5
AF
100
AcDbEntity
  8
0
390
0
  6
Continuous
 62
     7
100
AcDbLine
 10
166.442075
 20
95.95824
 30
0.0
 11
166.442075
 21
112.95824
 31
0.0
  0
LINE
  5
B0
100
AcDbEntity
  8
0
390
0
  6
Continuous
 62
     7
100
AcDbLine
 10
141.442075
 20
105.95824
 30
0.0
 11
141.442075
 21
118.45824
 31
0.0
  0
LINE
  5
B1
100
AcDbEntity
  8
0
390
0
  6
Continuous
 62
     7
100
AcDbLine
 10
156.442075
 20
145.95824
 30
0.0
 11
156.442075
 21
155.95824
 31
0.0
  0
LINE
  5
B2
100
AcDbEntity
  8
0
390
0
  6
Continuous
 62
     7
100
AcDbLine
 10
166.442075
 20
155.95824
 30
0.0
 11
156.442075
 21
155.95824
 31
0.0
  0
LINE
  5
B3
100
AcDbEntity
  8
0
390
0
  6
Continuous
 62
     7
100
AcDbLine
 10
166.442075
 20
138.95824
 30
0.0
 11
166.442075
 21
155.95824
 31
0.0
  0
LINE
  5
B4
100
AcDbEntity
  8
0
390
0
  6
Continuous
 62
     7
100
AcDbLine
 10
166.442075
 20
138.95824
 30
0.0
 11
161.442075
 21
138.95824
 31
0.0
  0
LINE
  5
B5
100
AcDbEntity
  8
0
390
0
  6
Continuous
 62
     7
100
AcDbLine
 10
161.442075
 20
138.25824
 30
0.0
 11
161.442075
 21
138.95824
 31
0.0
  0
LINE
  5
B6
100
AcDbEntity
  8
0
390
0
  6
Continuous
 62
     7
100
AcDbLine
 10
166.442075
 20
138.95824
 30
0.0
 11
166.442075
 21
112.95824
 31
0.0
  0
LINE
  5
B7
100
AcDbEntity
  8
0
390
0
  6
Continuous
 62
     7
100
AcDbLine
 10
161.442075
 20
133.029307
 30
0.0
 11
161.442075
 21
135.75824
 31
0.0
  0
LINE
  5
B8
100
AcDbEntity
  8
0
390
0
  6
Continuous
 62
     7
100
AcDbLine
 10
141.442075
 20
133.029307
 30
0.0
 11
141.442075
 21
135.75824
 31
0.0
  0
LINE
  5
B9
100
AcDbEntity
  8
0
390
0
  6
Continuous
 62
     7
100
AcDbLine
 10
170.442075
 20
155.95824
 30
0.0
 11
166.442075
 21
155.95824
 31
0.0
  0
LINE
  5
BA
100
AcDbEntity
  8
0
390
0
  6
Continuous
 62
     7
100
AcDbLine
 10
170.442075
 20
138.95824
 30
0.0
 11
170.442075
 21
155.95824
 31
0.0
  0
LINE
  5
BB
100
AcDbEntity
  8
0
390
0
  6
Continuous
 62
     7
100
AcDbLine
 10
170.442075
 20
138.95824
 30
0.0
 11
166.442075
 21
138.95824
 31
0.0
  0
LINE
  5
BC
100
AcDbEntity
  8
0
390
0
  6
Continuous
 62
     7
100
AcDbLine
 10
166.442075
 20
138.95824
 30
0.0
 11
166.442075
 21
155.95824
 31
0.0
  0
LINE
  5
BD
100
AcDbEntity
  8
0
390
0
  6
Continuous
 62
     7
100
AcDbLine
 10
170.442075
 20
112.95824
 30
0.0
 11
170.442075
 21
138.95824
 31
0.0
  0
LINE
  5
BE
100
AcDbEntity
  8
0
390
0
  6
Continuous
 62
     7
100
AcDbLine
 10
166.442075
 20
112.95824
 30
0.0
 11
170.442075
 21
112.95824
 31
0.0
  0
LINE
  5
BF
100
AcDbEntity
  8
0
390
0
  6
Continuous
 62
     7
100
AcDbLine
 10
166.442075
 20
138.95824
 30
0.0
 11
166.442075
 21
112.95824
 31
0.0
  0
LINE
  5
C0
100
AcDbEntity
  8
0
390
0
  6
Continuous
 62
     7
100
AcDbLine
 10
170.442075
 20
95.95824
 30
0.0
 11
170.442075
 21
112.95824
 31
0.0
  0
LINE
  5
C1
100
AcDbEntity
  8
0
390
0
  6
Continuous
 62
     7
100
AcDbLine
 10
166.442075
 20
95.95824
 30
0.0
 11
170.442075
 21
95.95824
 31
0.0
  0
LINE
  5
C2
100
AcDbEntity
  8
0
390
0
  6
Continuous
 62
     7
100
AcDbLine
 10
166.442075
 20
95.95824
 30
0.0
 11
166.442075
 21
112.95824
 31
0.0
  0
HATCH
  5
C3
100
AcDbEntity
  8
0
390
0
 62
     3
100
AcDbHatch
 10
166.44207548285206
 20
95.958239501263918
 30
0.0
210
0.0
220
0.0
230
1.0
  2
ANSI37
 70
     0
 71
     0
 91
        2
 92
        1
 93
        4
 72
     1
 10
166.44207548285206
 20
95.958239501263918
 11
170.44207548285206
 21
95.958239501263918
 72
     1
 10
170.44207548285206
 20
95.958239501263918
 11
170.44207548285206
 21
112.95823950126392
 72
     1
 10
170.44207548285206
 20
112.95823950126392
 11
166.44207548285206
 21
112.95823950126392
 72
     1
 10
166.44207548285206
 20
112.95823950126392
 11
166.44207548285206
 21
95.958239501263918
 97
        0
 92
        1
 93
        4
 72
     1
 10
166.44207548285206
 20
138.9582395012639
 11
170.44207548285206
 21
138.9582395012639
 72
     1
 10
170.44207548285206
 20
138.9582395012639
 11
170.44207548285206
 21
155.9582395012639
 72
     1
 10
170.44207548285206
 20
155.9582395012639
 11
166.44207548285206
 21
155.9582395012639
 72
     1
 10
166.44207548285206
 20
155.9582395012639
 11
166.44207548285206
 21
138.9582395012639
 97
        0
 75
     0
 76
     1
 52
0.0
 41
16.0
 77
     0
 78
     2
 53
45.0
 43
0.0
 44
0.0
 45
-1.4142135623730949
 46
1.4142135623730951
 79
     0
 53
135.0
 43
0.0
 44
0.0
 45
-1.4142135623730951
 46
-1.4142135623730949
 79
     0
 98
        1
 10
0.0
 20
0.0
  0
HATCH
  5
C4
100
AcDbEntity
  8
0
390
0
 62
     3
100
AcDbHatch
 10
166.44207548285206
 20
95.958239501263918
 30
0.0
210
0.0
220
0.0
230
1.0
  2
ANSI31
 70
     0
 71
     0
 91
        3
 92
        1
 93
        8
 72
     1
 10
166.44207548285206
 20
95.958239501263918
 11
166.44207548285206
 21
112.95823950126392
 72
     1
 10
166.44207548285206
 20
112.95823950126392
 11
161.44207548285206
 21
112.95823950126393
 72
     1
 10
161.44207548285206
 20
112.95823950126393
 11
161.44207548285209
 21
118.45823950126393
 72
     1
 10
161.44207548285209
 20
118.45823950126393
 11
141.44207548285206
 21
118.45823950126392
 72
     1
 10
141.44207548285206
 20
118.45823950126392
 11
141.44207548285206
 21
105.95823950126392
 72
     1
 10
141.44207548285206
 20
105.95823950126392
 11
156.44207548285206
 21
105.95823950126392
 72
     1
 10
156.44207548285206
 20
105.95823950126392
 11
156.44207548285206
 21
95.958239501263918
 72
     1
 10
156.44207548285206
 20
95.958239501263918
 11
166.44207548285206
 21
95.958239501263918
 97
        0
 92
        1
 93
        8
 72
     1
 10
166.44207548285206
 20
138.95823950126393
 11
166.44207548285206
 21
155.9582395012639
 72
     1
 10
166.44207548285206
 20
155.9582395012639
 11
156.44207548285206
 21
155.9582395012639
 72
     1
 10
156.44207548285206
 20
155.9582395012639
 11
156.44207548285206
 21
145.9582395012639
 72
     1
 10
156.44207548285206
 20
145.9582395012639
 11
151.04207548285206
 21
145.9582395012639
 72
     1
 10
151.04207548285206
 20
145.9582395012639
 11
151.04207548285206
 21
138.25823950126392
 72
     1
 10
151.04207548285206
 20
138.25823950126392
 11
161.44207548285206
 21
138.25823950126392
 72
     1
 10
161.44207548285206
 20
138.25823950126392
 11
161.44207548285206
 21
138.9582395012639
 72
     1
 10
161.44207548285206
 20
138.9582395012639
 11
166.44207548285206
 21
138.95823950126393
 97
        0
 92
        1
 93
        4
 72
     1
 10
141.44207548285209
 20
138.25823950126392
 11
146.84207548285204
 21
138.25823950126392
 72
     1
 10
146.84207548285204
 20
138.25823950126392
 11
146.84207548285204
 21
145.9582395012639
 72
     1
 10
146.84207548285204
 20
145.9582395012639
 11
141.44207548285206
 21
145.9582395012639
 72
     1
 10
141.44207548285206
 20
145.9582395012639
 11
141.44207548285209
 21
138.25823950126392
 97
        0
 75
     0
 76
     1
 52
0.0
 41
21.25
 77
     0
 78
     1
 53
45.0
 43
0.0
 44
0.0
 45
-1.8782523875267665
 46
1.8782523875267667
 79
     0
 98
        1
 10
0.0
 20
0.0
  0
HATCH
  5
C5
100
AcDbEntity
  8
0
390
0
 62
     3
100
AcDbHatch
 10
184.44207548285206
 20
112.95823950126392
 30
0.0
210
0.0
220
0.0
230
1.0
  2
ANSI31
 70
     0
 71
     0
 91
        3
 92
        1
 93
        8
 72
     1
 10
184.44207548285206
 20
112.95823950126392
 11
184.44207548285206
 21
95.958239501263918
 72
     1
 10
184.44207548285206
 20
95.958239501263918
 11
194.44207548285206
 21
95.958239501263918
 72
     1
 10
194.44207548285206
 20
95.958239501263918
 11
194.44207548285206
 21
105.95823950126392
 72
     1
 10
194.44207548285206
 20
105.95823950126392
 11
209.44207548285206
 21
105.95823950126392
 72
     1
 10
209.44207548285206
 20
105.95823950126392
 11
209.44207548285203
 21
118.45823950126393
 72
     1
 10
209.44207548285203
 20
118.45823950126393
 11
189.44207548285206
 21
118.45823950126393
 72
     1
 10
189.44207548285206
 20
118.45823950126393
 11
189.44207548285206
 21
112.95823950126392
 72
     1
 10
189.44207548285206
 20
112.95823950126392
 11
184.44207548285206
 21
112.95823950126392
 97
        0
 92
        1
 93
        4
 72
     1
 10
209.44207548285206
 20
145.9582395012639
 11
204.04207548285206
 21
145.9582395012639
 72
     1
 10
204.04207548285206
 20
145.9582395012639
 11
204.04207548285206
 21
138.25823950126392
 72
     1
 10
204.04207548285206
 20
138.25823950126392
 11
209.44207548285206
 21
138.25823950126392
 72
     1
 10
209.44207548285206
 20
138.25823950126392
 11
209.44207548285206
 21
145.9582395012639
 97
        0
 92
        1
 93
        8
 72
     1
 10
189.44207548285206
 20
138.9582395012639
 11
189.44207548285206
 21
138.25823950126392
 72
     1
 10
189.44207548285206
 20
138.25823950126392
 11
199.84207548285207
 21
138.25823950126392
 72
     1
 10
199.84207548285207
 20
138.25823950126392
 11
199.84207548285207
 21
145.9582395012639
 72
     1
 10
199.84207548285207
 20
145.9582395012639
 11
194.44207548285206
 21
145.9582395012639
 72
     1
 10
194.44207548285206
 20
145.9582395012639
 11
194.44207548285206
 21
155.9582395012639
 72
     1
 10
194.44207548285206
 20
155.9582395012639
 11
184.44207548285206
 21
155.9582395012639
 72
     1
 10
184.44207548285206
 20
155.9582395012639
 11
184.44207548285206
 21
138.9582395012639
 72
     1
 10
184.44207548285206
 20
138.9582395012639
 11
189.44207548285206
 21
138.9582395012639
 97
        0
 75
     0
 76
     1
 52
0.0
 41
21.25
 77
     0
 78
     1
 53
45.0
 43
0.0
 44
0.0
 45
-1.8782523875267669
 46
1.8782523875267674
 79
     0
 98
        1
 10
0.0
 20
0.0
  0
HATCH
  5
C6
100
AcDbEntity
  8
0
390
0
 62
     3
100
AcDbHatch
 10
184.44207548285206
 20
155.9582395012639
 30
0.0
210
0.0
220
0.0
230
1.0
  2
ANSI37
 70
     0
 71
     0
 91
        2
 92
        1
 93
        4
 72
     1
 10
184.44207548285206
 20
155.9582395012639
 11
180.44207548285206
 21
155.9582395012639
 72
     1
 10
180.44207548285206
 20
155.9582395012639
 11
180.44207548285206
 21
138.9582395012639
 72
     1
 10
180.44207548285206
 20
138.9582395012639
 11
184.44207548285206
 21
138.9582395012639
 72
     1
 10
184.44207548285206
 20
138.9582395012639
 11
184.44207548285206
 21
155.9582395012639
 97
        0
 92
        1
 93
        4
 72
     1
 10
184.44207548285206
 20
112.95823950126392
 11
180.44207548285206
 21
112.95823950126392
 72
     1
 10
180.44207548285206
 20
112.95823950126392
 11
180.44207548285206
 21
95.958239501263918
 72
     1
 10
180.44207548285206
 20
95.958239501263918
 11
184.44207548285206
 21
95.958239501263918
 72
     1
 10
184.44207548285206
 20
95.958239501263918
 11
184.44207548285206
 21
112.95823950126392
 97
        0
 75
     0
 76
     1
 52
0.0
 41
16.0
 77
     0
 78
     2
 53
45.0
 43
0.0
 44
0.0
 45
-1.4142135623730949
 46
1.4142135623730951
 79
     0
 53
135.0
 43
0.0
 44
0.0
 45
-1.4142135623730951
 46
-1.4142135623730949
 79
     0
 98
        1
 10
0.0
 20
0.0
  0
INSERT
  5
CB
100
AcDbEntity
  8
0
390
0
100
AcDbBlockReference
  2
AID281
 10
0.0
 20
0.0
 30
0.0
  0
DIMENSION
  5
CC
100
AcDbEntity
  8
0
390
0
100
AcDbDimension
  2
*D2
 10
74.126346
 20
130.876206
 30
0.0
 11
125.569612
 21
102.726488
 31
0.0
 70
     3
 71
     5
 72
     1
 41
1.0
 42
0.0
  3
Standard
100
AcDbDiametricDimension
 15
85.451292
 25
121.040273
 35
0.0
 40
0.0
1001
ACAD
1000
DSTYLE
1002
{
1070
    47
1040
0.018
1070
    71
1070
     1
1070
    48
1040
0.0
1070
    71
1070
     1
1070
    73
1070
     1
1070
    74
1070
     1
1070
     3
1000
%%c<>H8
1070
   288
1070
     1
1070
   280
1040
0.0
1070
   271
1070
     1
1070
   179
1070
     1
1002
}
  0
DIMENSION
  5
D9
100
AcDbEntity
  8
0
390
0
100
AcDbDimension
  2
*D3
 10
77.288819
 20
163.599864
 30
0.0
 11
91.794501
 21
167.064069
 31
0.0
 71
     5
 72
     1
 41
1.0
 42
0.0
  3
Standard
100
AcDbAlignedDimension
 13
77.288819
 23
135.75824
 33
0.0
 14
82.288819
 24
135.75824
 34
0.0
100
AcDbRotatedDimension
1001
ACAD
1000
DSTYLE
1002
{
1070
    47
1040
0.1
1070
    71
1070
     1
1070
    48
1040
0.0
1070
    71
1070
     1
1070
   280
1040
0.0
1070
   271
1070
     1
1070
   179
1070
     1
1002
}
  0
POINT
  5
EB
100
AcDbEntity
  8
0
390
0
 62
     2
100
AcDbPoint
 10
79.788819
 20
133.45824
 30
0.0
  0
POINT
  5
EC
100
AcDbEntity
  8
0
390
0
 62
     2
100
AcDbPoint
 10
79.788819
 20
135.75824
 30
0.0
  0
DIMENSION
  5
ED
100
AcDbEntity
  8
0
390
0
100
AcDbDimension
  2
*D4
 10
121.990359
 20
133.45824
 30
0.0
 11
118.526155
 21
145.371308
 31
0.0
 71
     5
 72
     1
 41
1.0
 42
0.0
  3
Standard
100
AcDbAlignedDimension
 13
79.788819
 23
133.45824
 33
0.0
 14
79.788819
 24
135.75824
 34
0.0
 50
90.0
100
AcDbRotatedDimension
1001
ACAD
1000
DSTYLE
1002
{
1070
    47
1040
0.2
1070
    71
1070
     1
1070
    48
1040
0.0
1070
    71
1070
     1
1070
   280
1040
0.0
1070
   271
1070
     1
1070
   179
1070
     1
1002
}
  0
LINE
  5
FF
100
AcDbEntity
  8
0
390
0
  6
CENTER
 62
     1
100
AcDbLine
 10
139.442075
 20
125.95824
 30
0.0
 11
211.442075
 21
125.95824
 31
0.0
  0
DIMENSION
  5
100
100
AcDbEntity
  8
0
390
0
100
AcDbDimension
  2
*D5
 10
227.995745
 20
155.95824
 30
0.0
 11
224.686654
 21
125.95824
 31
0.0
 71
     5
 72
     1
 41
1.0
 42
0.0
  3
Standard
100
AcDbAlignedDimension
 13
194.442075
 23
155.95824
 33
0.0
 14
194.442075
 24
95.95824
 34
0.0
 50
270.0
100
AcDbRotatedDimension
1001
ACAD
1000
DSTYLE
1002
{
1070
     3
1000
%%c<>
1070
   271
1070
     1
1070
   179
1070
     1
1002
}
  0
DIMENSION
  5
112
100
AcDbEntity
  8
0
390
0
100
AcDbDimension
  2
*D6
 10
220.234588
 20
105.95824
 30
0.0
 11
216.933451
 21
125.95824
 31
0.0
 71
     5
 72
     1
 41
1.0
 42
0.0
  3
Standard
100
AcDbAlignedDimension
 13
209.442075
 23
105.95824
 33
0.0
 14
209.442075
 24
145.95824
 34
0.0
 50
90.0
100
AcDbRotatedDimension
1001
ACAD
1000
DSTYLE
1002
{
1070
     3
1000
%%c<>
1070
   271
1070
     1
1070
   179
1070
     1
1002
}
  0
LINE
  5
124
100
AcDbEntity
  8
0
390
0
  6
CENTER
 62
     1
100
AcDbLine
 10
201.942075
 20
136.258237
 30
0.0
 11
201.942075
 21
147.958239
 31
0.0
  0
LINE
  5
125
100
AcDbEntity
  8
0
390
0
  6
CENTER
 62
     1
100
AcDbLine
 10
148.942075
 20
136.25824
 30
0.0
 11
148.942075
 21
147.95824
 31
0.0
  0
DIMENSION
  5
126
100
AcDbEntity
  8
0
390
0
100
AcDbDimension
  2
*D7
 10
180.442075
 20
185.619568
 30
0.0
 11
194.942075
 21
188.769568
 31
0.0
 71
     5
 72
     1
 41
1.0
 42
0.0
  3
Standard
100
AcDbAlignedDimension
 13
180.442075
 23
155.95824
 33
0.0
 14
209.442075
 24
145.95824
 34
0.0
100
AcDbRotatedDimension
1001
ACAD
1000
DSTYLE
1002
{
1070
   271
1070
     1
1070
   179
1070
     1
1002
}
  0
DIMENSION
  5
138
100
AcDbEntity
  8
0
390
0
100
AcDbDimension
  2
*D8
 10
180.442075
 20
162.802737
 30
0.0
 11
175.442075
 21
165.944782
 31
0.0
 71
     5
 72
     1
 41
1.0
 42
0.0
  1
AG
  3
Standard
100
AcDbAlignedDimension
 13
180.442075
 23
155.95824
 33
0.0
 14
170.442075
 24
155.95824
 34
0.0
100
AcDbRotatedDimension
1001
ACAD
1000
DSTYLE
1002
{
1070
   271
1070
     1
1070
   179
1070
     1
1002
}
  0
DIMENSION
  5
14A
100
AcDbEntity
  8
0
390
0
100
AcDbDimension
  2
*D9
 10
180.442075
 20
171.160899
 30
0.0
 11
187.442075
 21
174.302945
 31
0.0
 71
     5
 72
     1
 41
1.0
 42
0.0
  3
Standard
100
AcDbAlignedDimension
 13
180.442075
 23
155.95824
 33
0.0
 14
194.442075
 24
155.95824
 34
0.0
100
AcDbRotatedDimension
1001
ACAD
1000
DSTYLE
1002
{
1070
   271
1070
     1
1070
   179
1070
     1
1002
}
  0
DIMENSION
  5
15C
100
AcDbEntity
  8
0
390
0
100
AcDbDimension
  2
*D10
 10
180.442075
 20
178.745158
 30
0.0
 11
191.192075
 21
181.895158
 31
0.0
 71
     5
 72
     1
 41
1.0
 42
0.0
  3
Standard
100
AcDbAlignedDimension
 13
201.942075
 23
147.958239
 33
0.0
 14
180.442075
 24
155.95824
 34
0.0
100
AcDbRotatedDimension
1001
ACAD
1000
DSTYLE
1002
{
1070
   271
1070
     1
1070
   179
1070
     1
1002
}
  0
DIMENSION
  5
16E
100
AcDbEntity
  8
0
390
0
100
AcDbDimension
  2
*D11
 10
177.227537
 20
138.95824
 30
0.0
 11
173.918446
 21
125.95824
 31
0.0
 71
     5
 72
     1
 41
1.0
 42
0.0
  3
Standard
100
AcDbAlignedDimension
 13
180.442075
 23
138.95824
 33
0.0
 14
180.442075
 24
112.95824
 34
0.0
 50
270.0
100
AcDbRotatedDimension
1001
ACAD
1000
DSTYLE
1002
{
1070
     3
1000
%%c<>
1070
   271
1070
     1
1070
   179
1070
     1
1002
}
  0
DIMENSION
  5
180
100
AcDbEntity
  8
0
390
0
100
AcDbDimension
  2
*D12
 10
180.442075
 20
162.802737
 30
0.0
 11
184.942075
 21
165.952737
 31
0.0
 71
     5
 72
     1
 41
1.0
 42
0.0
  3
Standard
100
AcDbAlignedDimension
 13
180.442075
 23
155.95824
 33
0.0
 14
189.442075
 24
138.95824
 34
0.0
100
AcDbRotatedDimension
1001
ACAD
1000
DSTYLE
1002
{
1070
   271
1070
     1
1070
   179
1070
     1
1002
}
  0
LINE
  5
192
100
AcDbEntity
  8
0
390
0
  6
DOT
 62
     2
100
AcDbLine
 10
82.288824
 20
144.116377
 30
0.0
 11
77.288814
 21
144.116377
 31
0.0
  0
ARC
  5
193
100
AcDbEntity
  8
0
390
0
  6
DOT
 62
     2
100
AcDbCircle
 10
79.163819
 20
142.284984
 30
0.0
 40
2.072229
210
0.0
220
0.0
230
1.0
100
AcDbArc
 50
72.445814
 51
107.554186
  0
ARC
  5
194
100
AcDbEntity
  8
0
390
0
  6
DOT
 62
     2
100
AcDbCircle
 10
80.413819
 20
142.284984
 30
0.0
 40
2.072229
210
0.0
220
0.0
230
1.0
100
AcDbArc
 50
72.445814
 51
107.554186
  0
LINE
  5
195
100
AcDbEntity
  8
0
390
0
  6
DOT
 62
     2
100
AcDbLine
 10
81.038819
 20
138.357401
 30
0.0
 11
78.538819
 21
138.357401
 31
0.0
  0
LINE
  5
196
100
AcDbEntity
  8
0
390
0
  6
DOT
 62
     2
100
AcDbLine
 10
78.538819
 20
141.357401
 30
0.0
 11
79.788819
 21
141.357401
 31
0.0
  0
LINE
  5
197
100
AcDbEntity
  8
0
390
0
  6
DOT
 62
     2
100
AcDbLine
 10
79.788819
 20
141.741377
 30
0.0
 11
79.788819
 21
141.357401
 31
0.0
  0
LINE
  5
198
100
AcDbEntity
  8
0
390
0
  6
DOT
 62
     2
100
AcDbLine
 10
79.788819
 20
141.357401
 30
0.0
 11
81.038819
 21
141.357401
 31
0.0
  0
LINE
  5
199
100
AcDbEntity
  8
0
390
0
  6
DOT
 62
     2
100
AcDbLine
 10
78.538819
 20
141.741377
 30
0.0
 11
78.538819
 21
141.357401
 31
0.0
  0
LINE
  5
19A
100
AcDbEntity
  8
0
390
0
  6
DOT
 62
     2
100
AcDbLine
 10
81.038819
 20
141.741377
 30
0.0
 11
81.038819
 21
141.357401
 31
0.0
  0
LINE
  5
19B
100
AcDbEntity
  8
0
390
0
  6
DOT
 62
     2
100
AcDbLine
 10
81.038819
 20
138.741377
 30
0.0
 11
78.538819
 21
138.741377
 31
0.0
  0
LINE
  5
19C
100
AcDbEntity
  8
0
390
0
  6
DOT
 62
     2
100
AcDbLine
 10
82.288819
 20
139.991377
 30
0.0
 11
77.288819
 21
139.991377
 31
0.0
  0
LINE
  5
19D
100
AcDbEntity
  8
0
390
0
  6
DOT
 62
     2
100
AcDbLine
 10
82.288819
 20
144.116377
 30
0.0
 11
77.288819
 21
144.116377
 31
0.0
  0
LINE
  5
19E
100
AcDbEntity
  8
0
390
0
  6
DOT
 62
     2
100
AcDbLine
 10
81.038819
 20
144.741377
 30
0.0
 11
81.038819
 21
144.644689
 31
0.0
  0
LINE
  5
19F
100
AcDbEntity
  8
0
390
0
  6
DOT
 62
     2
100
AcDbLine
 10
78.538819
 20
144.644689
 30
0.0
 11
78.538819
 21
144.741377
 31
0.0
  0
ARC
  5
1A0
100
AcDbEntity
  8
0
390
0
  6
DOT
 62
     2
100
AcDbCircle
 10
79.163819
 20
142.668959
 30
0.0
 40
2.072229
210
0.0
220
0.0
230
1.0
100
AcDbArc
 50
72.445814
 51
107.554186
  0
ARC
  5
1A1
100
AcDbEntity
  8
0
390
0
  6
DOT
 62
     2
100
AcDbCircle
 10
80.413819
 20
142.668959
 30
0.0
 40
2.072229
210
0.0
220
0.0
230
1.0
100
AcDbArc
 50
72.445814
 51
107.554186
  0
LINE
  5
1A2
100
AcDbEntity
  8
0
390
0
  6
DOT
 62
     2
100
AcDbLine
 10
79.788819
 20
144.644689
 30
0.0
 11
79.788819
 21
144.116377
 31
0.0
  0
LINE
  5
1A3
100
AcDbEntity
  8
0
390
0
  6
DOT
 62
     2
100
AcDbLine
 10
79.788819
 20
144.116377
 30
0.0
 11
79.788819
 21
141.741377
 31
0.0
  0
LINE
  5
1A4
100
AcDbEntity
  8
0
390
0
  6
DOT
 62
     2
100
AcDbLine
 10
78.538819
 20
141.741377
 30
0.0
 11
79.788819
 21
141.741377
 31
0.0
  0
LINE
  5
1A5
100
AcDbEntity
  8
0
390
0
  6
DOT
 62
     2
100
AcDbLine
 10
79.788819
 20
141.741377
 30
0.0
 11
81.038819
 21
141.741377
 31
0.0
  0
LINE
  5
1A6
100
AcDbEntity
  8
0
390
0
  6
DOT
 62
     2
100
AcDbLine
 10
78.538819
 20
144.644689
 30
0.0
 11
78.538819
 21
144.116377
 31
0.0
  0
LINE
  5
1A7
100
AcDbEntity
  8
0
390
0
  6
DOT
 62
     2
100
AcDbLine
 10
78.538819
 20
144.116377
 30
0.0
 11
78.538819
 21
141.741377
 31
0.0
  0
LINE
  5
1A8
100
AcDbEntity
  8
0
390
0
  6
DOT
 62
     2
100
AcDbLine
 10
81.038819
 20
144.644689
 30
0.0
 11
81.038819
 21
144.116377
 31
0.0
  0
LINE
  5
1A9
100
AcDbEntity
  8
0
390
0
  6
DOT
 62
     2
100
AcDbLine
 10
81.038819
 20
144.116377
 30
0.0
 11
81.038819
 21
141.741377
 31
0.0
  0
LINE
  5
1AA
100
AcDbEntity
  8
0
390
0
  6
DOT
 62
     2
100
AcDbLine
 10
81.888819
 20
139.591377
 30
0.0
 11
81.888819
 21
144.116377
 31
0.0
  0
LINE
  5
1AB
100
AcDbEntity
  8
0
390
0
  6
DOT
 62
     2
100
AcDbLine
 10
77.688819
 20
144.116377
 30
0.0
 11
77.688819
 21
139.591377
 31
0.0
  0
LINE
  5
1AC
100
AcDbEntity
  8
0
390
0
  6
DOT
 62
     2
100
AcDbLine
 10
82.288819
 20
143.732401
 30
0.0
 11
81.888819
 21
143.932401
 31
0.0
  0
LINE
  5
1AD
100
AcDbEntity
  8
0
390
0
  6
DOT
 62
     2
100
AcDbLine
 10
81.888819
 20
143.932401
 30
0.0
 11
81.038819
 21
144.357401
 31
0.0
  0
LINE
  5
1AE
100
AcDbEntity
  8
0
390
0
  6
DOT
 62
     2
100
AcDbLine
 10
78.538819
 20
144.357401
 30
0.0
 11
77.688819
 21
143.932401
 31
0.0
  0
LINE
  5
1AF
100
AcDbEntity
  8
0
390
0
  6
DOT
 62
     2
100
AcDbLine
 10
77.688819
 20
143.932401
 30
0.0
 11
77.288819
 21
143.732401
 31
0.0
  0
LINE
  5
1B0
100
AcDbEntity
  8
0
390
0
  6
DOT
 62
     2
100
AcDbLine
 10
77.288819
 20
139.607401
 30
0.0
 11
77.688819
 21
139.207401
 31
0.0
  0
LINE
  5
1B1
100
AcDbEntity
  8
0
390
0
  6
DOT
 62
     2
100
AcDbLine
 10
77.688819
 20
139.207401
 30
0.0
 11
78.054224
 21
138.841996
 31
0.0
  0
LINE
  5
1B2
100
AcDbEntity
  8
0
390
0
  6
DOT
 62
     2
100
AcDbLine
 10
78.054224
 20
138.841996
 30
0.0
 11
78.538819
 21
138.357401
 31
0.0
  0
LINE
  5
1B3
100
AcDbEntity
  8
0
390
0
  6
DOT
 62
     2
100
AcDbLine
 10
81.038819
 20
138.357401
 30
0.0
 11
81.523414
 21
138.841996
 31
0.0
  0
LINE
  5
1B4
100
AcDbEntity
  8
0
390
0
  6
DOT
 62
     2
100
AcDbLine
 10
81.523414
 20
138.841996
 30
0.0
 11
81.888819
 21
139.207401
 31
0.0
  0
LINE
  5
1B5
100
AcDbEntity
  8
0
390
0
  6
DOT
 62
     2
100
AcDbLine
 10
81.888819
 20
139.207401
 30
0.0
 11
82.288819
 21
139.607401
 31
0.0
  0
LINE
  5
1B6
100
AcDbEntity
  8
0
390
0
  6
DOT
 62
     2
100
AcDbLine
 10
82.288819
 20
139.607401
 30
0.0
 11
82.288819
 21
139.991377
 31
0.0
  0
LINE
  5
1B7
100
AcDbEntity
  8
0
390
0
  6
DOT
 62
     2
100
AcDbLine
 10
77.288819
 20
139.991377
 30
0.0
 11
77.288819
 21
139.607401
 31
0.0
  0
LINE
  5
1B8
100
AcDbEntity
  8
0
390
0
  6
DOT
 62
     2
100
AcDbLine
 10
81.038819
 20
138.357401
 30
0.0
 11
79.788819
 21
139.079945
 31
0.0
  0
LINE
  5
1B9
100
AcDbEntity
  8
0
390
0
  6
DOT
 62
     2
100
AcDbLine
 10
79.788819
 20
139.079945
 30
0.0
 11
78.538819
 21
138.357401
 31
0.0
  0
LINE
  5
1BA
100
AcDbEntity
  8
0
390
0
  6
DOT
 62
     2
100
AcDbLine
 10
77.288819
 20
139.991377
 30
0.0
 11
77.688819
 21
139.591377
 31
0.0
  0
LINE
  5
1BB
100
AcDbEntity
  8
0
390
0
  6
DOT
 62
     2
100
AcDbLine
 10
77.688819
 20
139.591377
 30
0.0
 11
78.538819
 21
138.741377
 31
0.0
  0
LINE
  5
1BC
100
AcDbEntity
  8
0
390
0
  6
DOT
 62
     2
100
AcDbLine
 10
81.038819
 20
138.741377
 30
0.0
 11
81.888819
 21
139.591377
 31
0.0
  0
LINE
  5
1BD
100
AcDbEntity
  8
0
390
0
  6
DOT
 62
     2
100
AcDbLine
 10
81.888819
 20
139.591377
 30
0.0
 11
82.288819
 21
139.991377
 31
0.0
  0
LINE
  5
1BE
100
AcDbEntity
  8
0
390
0
  6
DOT
 62
     2
100
AcDbLine
 10
82.288819
 20
139.991377
 30
0.0
 11
82.288819
 21
144.116377
 31
0.0
  0
LINE
  5
1BF
100
AcDbEntity
  8
0
390
0
  6
DOT
 62
     2
100
AcDbLine
 10
77.288819
 20
144.116377
 30
0.0
 11
77.288819
 21
139.991377
 31
0.0
  0
LINE
  5
1C0
100
AcDbEntity
  8
0
390
0
  6
DOT
 62
     2
100
AcDbLine
 10
82.288819
 20
144.116377
 30
0.0
 11
81.888819
 21
144.316377
 31
0.0
  0
LINE
  5
1C1
100
AcDbEntity
  8
0
390
0
  6
DOT
 62
     2
100
AcDbLine
 10
81.888819
 20
144.316377
 30
0.0
 11
81.038819
 21
144.741377
 31
0.0
  0
LINE
  5
1C2
100
AcDbEntity
  8
0
390
0
  6
DOT
 62
     2
100
AcDbLine
 10
78.538819
 20
144.741377
 30
0.0
 11
77.688819
 21
144.316377
 31
0.0
  0
LINE
  5
1C3
100
AcDbEntity
  8
0
390
0
  6
DOT
 62
     2
100
AcDbLine
 10
77.688819
 20
144.316377
 30
0.0
 11
77.288819
 21
144.116377
 31
0.0
  0
LINE
  5
1C4
100
AcDbEntity
  8
0
390
0
  6
DOT
 62
     2
100
AcDbLine
 10
81.038819
 20
138.741377
 30
0.0
 11
79.788819
 21
139.46392
 31
0.0
  0
LINE
  5
1C5
100
AcDbEntity
  8
0
390
0
  6
DOT
 62
     2
100
AcDbLine
 10
79.788819
 20
139.46392
 30
0.0
 11
78.538819
 21
138.741377
 31
0.0
  0
LINE
  5
1C6
100
AcDbEntity
  8
0
390
0
  6
Continuous
 62
     7
100
AcDbLine
 10
204.44208
 20
143.732401
 30
0.0
 11
201.942075
 21
143.732401
 31
0.0
  0
LINE
  5
1C7
100
AcDbEntity
  8
0
390
0
  6
Continuous
 62
     7
100
AcDbLine
 10
201.942075
 20
143.732401
 30
0.0
 11
199.44207
 21
143.732401
 31
0.0
  0
LINE
  5
1C8
100
AcDbEntity
  8
0
390
0
  6
Continuous
 62
     7
100
AcDbLine
 10
204.442075
 20
143.732401
 30
0.0
 11
201.942075
 21
143.732401
 31
0.0
  0
POLYLINE
  5
1C9
100
AcDbEntity
  8
0
390
0
  6
Continuous
 62
     7
100
AcDb2dPolyline
 66
     1
 10
0.0
 20
0.0
 30
0.0
 40
0.1
 41
0.1
  0
VERTEX
  5
1CA
100
AcDbEntity
  8
0
390
0
 62
     7
100
AcDbVertex
100
AcDb2dVertex
 10
203.385451
 20
144.260714
 30
0.0
  0
VERTEX
  5
1CB
100
AcDbEntity
  8
0
390
0
 62
     7
100
AcDbVertex
100
AcDb2dVertex
 10
203.325895
 20
144.288572
 30
0.0
  0
VERTEX
  5
1CC
100
AcDbEntity
  8
0
390
0
 62
     7
100
AcDbVertex
100
AcDb2dVertex
 10
203.265909
 20
144.312438
 30
0.0
  0
VERTEX
  5
1CD
100
AcDbEntity
  8
0
390
0
 62
     7
100
AcDbVertex
100
AcDb2dVertex
 10
203.205184
 20
144.331833
 30
0.0
  0
VERTEX
  5
1CE
100
AcDbEntity
  8
0
390
0
 62
     7
100
AcDbVertex
100
AcDb2dVertex
 10
203.144107
 20
144.34608
 30
0.0
  0
VERTEX
  5
1CF
100
AcDbEntity
  8
0
390
0
 62
     7
100
AcDbVertex
100
AcDb2dVertex
 10
203.081385
 20
144.354817
 30
0.0
  0
VERTEX
  5
1D0
100
AcDbEntity
  8
0
390
0
 62
     7
100
AcDbVertex
100
AcDb2dVertex
 10
203.018526
 20
144.357372
 30
0.0
  0
VERTEX
  5
1D1
100
AcDbEntity
  8
0
390
0
 62
     7
100
AcDbVertex
100
AcDb2dVertex
 10
202.955059
 20
144.353533
 30
0.0
  0
VERTEX
  5
1D2
100
AcDbEntity
  8
0
390
0
 62
     7
100
AcDbVertex
100
AcDb2dVertex
 10
202.891761
 20
144.343439
 30
0.0
  0
VERTEX
  5
1D3
100
AcDbEntity
  8
0
390
0
 62
     7
100
AcDbVertex
100
AcDb2dVertex
 10
202.834432
 20
144.329108
 30
0.0
  0
VERTEX
  5
1D4
100
AcDbEntity
  8
0
390
0
 62
     7
100
AcDbVertex
100
AcDb2dVertex
 10
202.777337
 20
144.310265
 30
0.0
  0
VERTEX
  5
1D5
100
AcDbEntity
  8
0
390
0
 62
     7
100
AcDbVertex
100
AcDb2dVertex
 10
202.720384
 20
144.287292
 30
0.0
  0
VERTEX
  5
1D6
100
AcDbEntity
  8
0
390
0
 62
     7
100
AcDbVertex
100
AcDb2dVertex
 10
202.663763
 20
144.260714
 30
0.0
  0
SEQEND
  5
1D7
100
AcDbEntity
  8
0
390
0
  0
POLYLINE
  5
1D8
100
AcDbEntity
  8
0
390
0
  6
Continuous
 62
     7
100
AcDb2dPolyline
 66
     1
 10
0.0
 20
0.0
 30
0.0
 40
0.1
 41
0.1
  0
VERTEX
  5
1D9
100
AcDbEntity
  8
0
390
0
 62
     7
100
AcDbVertex
100
AcDb2dVertex
 10
201.220388
 20
144.260714
 30
0.0
  0
VERTEX
  5
1DA
100
AcDbEntity
  8
0
390
0
 62
     7
100
AcDbVertex
100
AcDb2dVertex
 10
201.160831
 20
144.288572
 30
0.0
  0
VERTEX
  5
1DB
100
AcDbEntity
  8
0
390
0
 62
     7
100
AcDbVertex
100
AcDb2dVertex
 10
201.100845
 20
144.312438
 30
0.0
  0
VERTEX
  5
1DC
100
AcDbEntity
  8
0
390
0
 62
     7
100
AcDbVertex
100
AcDb2dVertex
 10
201.04012
 20
144.331833
 30
0.0
  0
VERTEX
  5
1DD
100
AcDbEntity
  8
0
390
0
 62
     7
100
AcDbVertex
100
AcDb2dVertex
 10
200.979043
 20
144.34608
 30
0.0
  0
VERTEX
  5
1DE
100
AcDbEntity
  8
0
390
0
 62
     7
100
AcDbVertex
100
AcDb2dVertex
 10
200.916321
 20
144.354817
 30
0.0
  0
VERTEX
  5
1DF
100
AcDbEntity
  8
0
390
0
 62
     7
100
AcDbVertex
100
AcDb2dVertex
 10
200.853463
 20
144.357372
 30
0.0
  0
VERTEX
  5
1E0
100
AcDbEntity
  8
0
390
0
 62
     7
100
AcDbVertex
100
AcDb2dVertex
 10
200.789995
 20
144.353533
 30
0.0
  0
VERTEX
  5
1E1
100
AcDbEntity
  8
0
390
0
 62
     7
100
AcDbVertex
100
AcDb2dVertex
 10
200.726698
 20
144.343439
 30
0.0
  0
VERTEX
  5
1E2
100
AcDbEntity
  8
0
390
0
 62
     7
100
AcDbVertex
100
AcDb2dVertex
 10
200.669368
 20
144.329108
 30
0.0
  0
VERTEX
  5
1E3
100
AcDbEntity
  8
0
390
0
 62
     7
100
AcDbVertex
100
AcDb2dVertex
 10
200.612273
 20
144.310265
 30
0.0
  0
VERTEX
  5
1E4
100
AcDbEntity
  8
0
390
0
 62
     7
100
AcDbVertex
100
AcDb2dVertex
 10
200.555321
 20
144.287292
 30
0.0
  0
VERTEX
  5
1E5
100
AcDbEntity
  8
0
390
0
 62
     7
100
AcDbVertex
100
AcDb2dVertex
 10
200.4987
 20
144.260714
 30
0.0
  0
SEQEND
  5
1E6
100
AcDbEntity
  8
0
390
0
  0
ARC
  5
1E7
100
AcDbEntity
  8
0
390
0
  6
Continuous
 62
     7
100
AcDbCircle
 10
201.942075
 20
141.609604
 30
0.0
 40
2.747584
210
0.0
220
0.0
230
1.0
100
AcDbArc
 50
74.771882
 51
105.228118
  0
LINE
  5
1E8
100
AcDbEntity
  8
0
390
0
  6
Continuous
 62
     7
100
AcDbLine
 10
201.942075
 20
143.732401
 30
0.0
 11
199.442075
 21
143.732401
 31
0.0
  0
LINE
  5
1E9
100
AcDbEntity
  8
0
390
0
  6
Continuous
 62
     7
100
AcDbLine
 10
204.442075
 20
139.607401
 30
0.0
 11
201.942075
 21
139.607401
 31
0.0
  0
LINE
  5
1EA
100
AcDbEntity
  8
0
390
0
  6
Continuous
 62
     7
100
AcDbLine
 10
201.942075
 20
139.607401
 30
0.0
 11
199.442075
 21
139.607401
 31
0.0
  0
LINE
  5
1EB
100
AcDbEntity
  8
0
390
0
  6
Continuous
 62
     7
100
AcDbLine
 10
203.192075
 20
138.357401
 30
0.0
 11
201.942075
 21
138.357401
 31
0.0
  0
LINE
  5
1EC
100
AcDbEntity
  8
0
390
0
  6
Continuous
 62
     7
100
AcDbLine
 10
201.942075
 20
138.357401
 30
0.0
 11
200.692075
 21
138.357401
 31
0.0
  0
LINE
  5
1ED
100
AcDbEntity
  8
0
390
0
  6
Continuous
 62
     7
100
AcDbLine
 10
151.44208
 20
144.116377
 30
0.0
 11
148.942075
 21
144.116377
 31
0.0
  0
LINE
  5
1EE
100
AcDbEntity
  8
0
390
0
  6
Continuous
 62
     7
100
AcDbLine
 10
148.942075
 20
144.116377
 30
0.0
 11
146.44207
 21
144.116377
 31
0.0
  0
LINE
  5
1EF
100
AcDbEntity
  8
0
390
0
  6
Continuous
 62
     7
100
AcDbLine
 10
151.442075
 20
139.991377
 30
0.0
 11
148.942075
 21
139.991377
 31
0.0
  0
LINE
  5
1F0
100
AcDbEntity
  8
0
390
0
  6
Continuous
 62
     7
100
AcDbLine
 10
151.442075
 20
144.116377
 30
0.0
 11
148.942075
 21
144.116377
 31
0.0
  0
LINE
  5
1F1
100
AcDbEntity
  8
0
390
0
  6
Continuous
 62
     7
100
AcDbLine
 10
148.942075
 20
139.991377
 30
0.0
 11
146.442075
 21
139.991377
 31
0.0
  0
LINE
  5
1F2
100
AcDbEntity
  8
0
390
0
  6
Continuous
 62
     7
100
AcDbLine
 10
148.942075
 20
144.116377
 30
0.0
 11
146.442075
 21
144.116377
 31
0.0
  0
POLYLINE
  5
1F3
100
AcDbEntity
  8
0
390
0
  6
Continuous
 62
     7
100
AcDb2dPolyline
 66
     1
 10
0.0
 20
0.0
 30
0.0
 40
0.1
 41
0.1
  0
VERTEX
  5
1F4
100
AcDbEntity
  8
0
390
0
 62
     7
100
AcDbVertex
100
AcDb2dVertex
 10
150.385451
 20
144.644689
 30
0.0
  0
VERTEX
  5
1F5
100
AcDbEntity
  8
0
390
0
 62
     7
100
AcDbVertex
100
AcDb2dVertex
 10
150.325895
 20
144.672547
 30
0.0
  0
VERTEX
  5
1F6
100
AcDbEntity
  8
0
390
0
 62
     7
100
AcDbVertex
100
AcDb2dVertex
 10
150.265909
 20
144.696413
 30
0.0
  0
VERTEX
  5
1F7
100
AcDbEntity
  8
0
390
0
 62
     7
100
AcDbVertex
100
AcDb2dVertex
 10
150.205184
 20
144.715808
 30
0.0
  0
VERTEX
  5
1F8
100
AcDbEntity
  8
0
390
0
 62
     7
100
AcDbVertex
100
AcDb2dVertex
 10
150.144107
 20
144.730055
 30
0.0
  0
VERTEX
  5
1F9
100
AcDbEntity
  8
0
390
0
 62
     7
100
AcDbVertex
100
AcDb2dVertex
 10
150.081385
 20
144.738792
 30
0.0
  0
VERTEX
  5
1FA
100
AcDbEntity
  8
0
390
0
 62
     7
100
AcDbVertex
100
AcDb2dVertex
 10
150.018526
 20
144.741347
 30
0.0
  0
VERTEX
  5
1FB
100
AcDbEntity
  8
0
390
0
 62
     7
100
AcDbVertex
100
AcDb2dVertex
 10
149.955059
 20
144.737508
 30
0.0
  0
VERTEX
  5
1FC
100
AcDbEntity
  8
0
390
0
 62
     7
100
AcDbVertex
100
AcDb2dVertex
 10
149.891761
 20
144.727414
 30
0.0
  0
VERTEX
  5
1FD
100
AcDbEntity
  8
0
390
0
 62
     7
100
AcDbVertex
100
AcDb2dVertex
 10
149.834432
 20
144.713084
 30
0.0
  0
VERTEX
  5
1FE
100
AcDbEntity
  8
0
390
0
 62
     7
100
AcDbVertex
100
AcDb2dVertex
 10
149.777337
 20
144.69424
 30
0.0
  0
VERTEX
  5
1FF
100
AcDbEntity
  8
0
390
0
 62
     7
100
AcDbVertex
100
AcDb2dVertex
 10
149.720384
 20
144.671267
 30
0.0
  0
VERTEX
  5
200
100
AcDbEntity
  8
0
390
0
 62
     7
100
AcDbVertex
100
AcDb2dVertex
 10
149.663763
 20
144.644689
 30
0.0
  0
SEQEND
  5
201
100
AcDbEntity
  8
0
390
0
  0
POLYLINE
  5
202
100
AcDbEntity
  8
0
390
0
  6
Continuous
 62
     7
100
AcDb2dPolyline
 66
     1
 10
0.0
 20
0.0
 30
0.0
 40
0.1
 41
0.1
  0
VERTEX
  5
203
100
AcDbEntity
  8
0
390
0
 62
     7
100
AcDbVertex
100
AcDb2dVertex
 10
148.220388
 20
144.644689
 30
0.0
  0
VERTEX
  5
204
100
AcDbEntity
  8
0
390
0
 62
     7
100
AcDbVertex
100
AcDb2dVertex
 10
148.160831
 20
144.672547
 30
0.0
  0
VERTEX
  5
205
100
AcDbEntity
  8
0
390
0
 62
     7
100
AcDbVertex
100
AcDb2dVertex
 10
148.100845
 20
144.696413
 30
0.0
  0
VERTEX
  5
206
100
AcDbEntity
  8
0
390
0
 62
     7
100
AcDbVertex
100
AcDb2dVertex
 10
148.04012
 20
144.715808
 30
0.0
  0
VERTEX
  5
207
100
AcDbEntity
  8
0
390
0
 62
     7
100
AcDbVertex
100
AcDb2dVertex
 10
147.979043
 20
144.730055
 30
0.0
  0
VERTEX
  5
208
100
AcDbEntity
  8
0
390
0
 62
     7
100
AcDbVertex
100
AcDb2dVertex
 10
147.916321
 20
144.738792
 30
0.0
  0
VERTEX
  5
209
100
AcDbEntity
  8
0
390
0
 62
     7
100
AcDbVertex
100
AcDb2dVertex
 10
147.853463
 20
144.741347
 30
0.0
  0
VERTEX
  5
20A
100
AcDbEntity
  8
0
390
0
 62
     7
100
AcDbVertex
100
AcDb2dVertex
 10
147.789995
 20
144.737508
 30
0.0
  0
VERTEX
  5
20B
100
AcDbEntity
  8
0
390
0
 62
     7
100
AcDbVertex
100
AcDb2dVertex
 10
147.726698
 20
144.727414
 30
0.0
  0
VERTEX
  5
20C
100
AcDbEntity
  8
0
390
0
 62
     7
100
AcDbVertex
100
AcDb2dVertex
 10
147.669368
 20
144.713084
 30
0.0
  0
VERTEX
  5
20D
100
AcDbEntity
  8
0
390
0
 62
     7
100
AcDbVertex
100
AcDb2dVertex
 10
147.612273
 20
144.69424
 30
0.0
  0
VERTEX
  5
20E
100
AcDbEntity
  8
0
390
0
 62
     7
100
AcDbVertex
100
AcDb2dVertex
 10
147.555321
 20
144.671267
 30
0.0
  0
VERTEX
  5
20F
100
AcDbEntity
  8
0
390
0
 62
     7
100
AcDbVertex
100
AcDb2dVertex
 10
147.4987
 20
144.644689
 30
0.0
  0
SEQEND
  5
210
100
AcDbEntity
  8
0
390
0
  0
ARC
  5
211
100
AcDbEntity
  8
0
390
0
  6
Continuous
 62
     7
100
AcDbCircle
 10
148.942075
 20
141.993579
 30
0.0
 40
2.747584
210
0.0
220
0.0
230
1.0
100
AcDbArc
 50
74.771882
 51
105.228118
  0
LINE
  5
212
100
AcDbEntity
  8
0
390
0
  6
Continuous
 62
     7
100
AcDbLine
 10
150.192075
 20
138.741377
 30
0.0
 11
148.942075
 21
138.741377
 31
0.0
  0
LINE
  5
213
100
AcDbEntity
  8
0
390
0
  6
Continuous
 62
     7
100
AcDbLine
 10
148.942075
 20
138.741377
 30
0.0
 11
147.692075
 21
138.741377
 31
0.0
  0
LINE
  5
214
100
AcDbEntity
  8
0
390
0
  6
Continuous
 62
     7
100
AcDbLine
 10
199.842075
 20
138.25824
 30
0.0
 11
199.842075
 21
139.207381
 31
0.0
  0
LINE
  5
215
100
AcDbEntity
  8
0
390
0
  6
Continuous
 62
     7
100
AcDbLine
 10
199.842075
 20
143.932401
 30
0.0
 11
199.842075
 21
145.95824
 31
0.0
  0
LINE
  5
216
100
AcDbEntity
  8
0
390
0
  6
Continuous
 62
     7
100
AcDbLine
 10
204.042075
 20
145.95824
 30
0.0
 11
204.042075
 21
143.932401
 31
0.0
  0
LINE
  5
217
100
AcDbEntity
  8
0
390
0
  6
Continuous
 62
     7
100
AcDbLine
 10
204.042075
 20
139.207381
 30
0.0
 11
204.042075
 21
138.25824
 31
0.0
  0
LINE
  5
218
100
AcDbEntity
  8
0
390
0
  6
Continuous
 62
     7
100
AcDbLine
 10
146.842075
 20
138.25824
 30
0.0
 11
146.842075
 21
139.591357
 31
0.0
  0
LINE
  5
219
100
AcDbEntity
  8
0
390
0
  6
Continuous
 62
     7
100
AcDbLine
 10
146.842075
 20
144.316377
 30
0.0
 11
146.842075
 21
145.95824
 31
0.0
  0
LINE
  5
21A
100
AcDbEntity
  8
0
390
0
  6
Continuous
 62
     7
100
AcDbLine
 10
151.042075
 20
145.95824
 30
0.0
 11
151.042075
 21
144.316377
 31
0.0
  0
LINE
  5
21B
100
AcDbEntity
  8
0
390
0
  6
Continuous
 62
     7
100
AcDbLine
 10
151.042075
 20
139.591357
 30
0.0
 11
151.042075
 21
138.25824
 31
0.0
  0
LINE
  5
21C
100
AcDbEntity
  8
0
390
0
  6
Continuous
 62
     7
100
AcDbLine
 10
204.442075
 20
143.732401
 30
0.0
 11
203.385451
 21
144.260714
 31
0.0
  0
LINE
  5
21D
100
AcDbEntity
  8
0
390
0
  6
Continuous
 62
     7
100
AcDbLine
 10
200.4987
 20
144.260714
 30
0.0
 11
199.442075
 21
143.732401
 31
0.0
  0
LINE
  5
21E
100
AcDbEntity
  8
0
390
0
  6
Continuous
 62
     7
100
AcDbLine
 10
204.442075
 20
139.607401
 30
0.0
 11
204.442075
 21
143.732401
 31
0.0
  0
LINE
  5
21F
100
AcDbEntity
  8
0
390
0
  6
Continuous
 62
     7
100
AcDbLine
 10
199.442075
 20
143.732401
 30
0.0
 11
199.442075
 21
139.607401
 31
0.0
  0
LINE
  5
220
100
AcDbEntity
  8
0
390
0
  6
Continuous
 62
     7
100
AcDbLine
 10
199.442075
 20
139.607401
 30
0.0
 11
199.842075
 21
139.207401
 31
0.0
  0
LINE
  5
221
100
AcDbEntity
  8
0
390
0
  6
Continuous
 62
     7
100
AcDbLine
 10
199.842075
 20
139.207401
 30
0.0
 11
200.692075
 21
138.357401
 31
0.0
  0
LINE
  5
222
100
AcDbEntity
  8
0
390
0
  6
Continuous
 62
     7
100
AcDbLine
 10
203.192075
 20
138.357401
 30
0.0
 11
204.042075
 21
139.207401
 31
0.0
  0
LINE
  5
223
100
AcDbEntity
  8
0
390
0
  6
Continuous
 62
     7
100
AcDbLine
 10
204.042075
 20
139.207401
 30
0.0
 11
204.442075
 21
139.607401
 31
0.0
  0
LINE
  5
224
100
AcDbEntity
  8
0
390
0
  6
Continuous
 62
     7
100
AcDbLine
 10
151.442075
 20
139.991377
 30
0.0
 11
151.442075
 21
144.116377
 31
0.0
  0
LINE
  5
225
100
AcDbEntity
  8
0
390
0
  6
Continuous
 62
     7
100
AcDbLine
 10
146.442075
 20
144.116377
 30
0.0
 11
146.442075
 21
139.991377
 31
0.0
  0
LINE
  5
226
100
AcDbEntity
  8
0
390
0
  6
Continuous
 62
     7
100
AcDbLine
 10
151.442075
 20
144.116377
 30
0.0
 11
150.385451
 21
144.644689
 31
0.0
  0
LINE
  5
227
100
AcDbEntity
  8
0
390
0
  6
Continuous
 62
     7
100
AcDbLine
 10
147.4987
 20
144.644689
 30
0.0
 11
146.442075
 21
144.116377
 31
0.0
  0
LINE
  5
228
100
AcDbEntity
  8
0
390
0
  6
Continuous
 62
     7
100
AcDbLine
 10
146.442075
 20
139.991377
 30
0.0
 11
146.842075
 21
139.591377
 31
0.0
  0
LINE
  5
229
100
AcDbEntity
  8
0
390
0
  6
Continuous
 62
     7
100
AcDbLine
 10
146.842075
 20
139.591377
 30
0.0
 11
147.692075
 21
138.741377
 31
0.0
  0
LINE
  5
22A
100
AcDbEntity
  8
0
390
0
  6
Continuous
 62
     7
100
AcDbLine
 10
150.192075
 20
138.741377
 30
0.0
 11
151.042075
 21
139.591377
 31
0.0
  0
LINE
  5
22B
100
AcDbEntity
  8
0
390
0
  6
Continuous
 62
     7
100
AcDbLine
 10
151.042075
 20
139.591377
 30
0.0
 11
151.442075
 21
139.991377
 31
0.0
  0
LINE
  5
22C
100
AcDbEntity
  8
0
390
0
  6
DOT
 62
     2
100
AcDbLine
 10
82.288824
 20
143.732401
 30
0.0
 11
81.888819
 21
143.732401
 31
0.0
  0
LINE
  5
22D
100
AcDbEntity
  8
0
390
0
  6
DOT
 62
     2
100
AcDbLine
 10
81.888819
 20
143.732401
 30
0.0
 11
77.688819
 21
143.732401
 31
0.0
  0
LINE
  5
22E
100
AcDbEntity
  8
0
390
0
  6
DOT
 62
     2
100
AcDbLine
 10
77.688819
 20
143.732401
 30
0.0
 11
77.288814
 21
143.732401
 31
0.0
  0
LINE
  5
22F
100
AcDbEntity
  8
0
390
0
  6
DOT
 62
     2
100
AcDbLine
 10
82.288819
 20
143.732401
 30
0.0
 11
81.888819
 21
143.732401
 31
0.0
  0
LINE
  5
230
100
AcDbEntity
  8
0
390
0
  6
DOT
 62
     2
100
AcDbLine
 10
81.888819
 20
143.732401
 30
0.0
 11
77.688819
 21
143.732401
 31
0.0
  0
LINE
  5
231
100
AcDbEntity
  8
0
390
0
  6
DOT
 62
     2
100
AcDbLine
 10
77.688819
 20
143.732401
 30
0.0
 11
77.288819
 21
143.732401
 31
0.0
  0
LINE
  5
232
100
AcDbEntity
  8
0
390
0
  6
DOT
 62
     2
100
AcDbLine
 10
82.288819
 20
139.607401
 30
0.0
 11
81.904844
 21
139.607401
 31
0.0
  0
LINE
  5
233
100
AcDbEntity
  8
0
390
0
  6
DOT
 62
     2
100
AcDbLine
 10
81.904844
 20
139.607401
 30
0.0
 11
77.672794
 21
139.607401
 31
0.0
  0
LINE
  5
234
100
AcDbEntity
  8
0
390
0
  6
DOT
 62
     2
100
AcDbLine
 10
77.672794
 20
139.607401
 30
0.0
 11
77.288819
 21
139.607401
 31
0.0
  0
ENDSEC
  0
SECTION
  2
OBJECTS
  0
DICTIONARY
  5
19
100
AcDbDictionary
280
     0
281
     1
  3
ACAD_GROUP
350
1A
  3
ACAD_MLINESTYLE
350
1B
  3
ACAD_LAYOUT
350
1E
  3
ACAD_PLOTSETTINGS
350
22
  3
ACAD_PLOTSTYLENAME
350
1F
  3
ACAD_WIPEOUT_VARS
350
23
  0
DICTIONARY
  5
1A
102
{ACAD_REACTORS
330
19
102
}
100
AcDbDictionary
280
     0
281
     1
  0
DICTIONARY
  5
1B
102
{ACAD_REACTORS
330
19
102
}
100
AcDbDictionary
280
     0
281
     1
  3
Standard
350
1C
  0
MLINESTYLE
  5
1C
102
{ACAD_REACTORS
330
1B
102
}
100
AcDbMlineStyle
  2
Standard
 70
     0
  3

 62
     0
 51
90.0
 52
90.0
 71
     2
 49
0.5
 62
   256
  6
ByLayer
 49
-0.5
 62
   256
  6
ByLayer
  0
ACDBDICTIONARYWDFLT
  5
1F
102
{ACAD_REACTORS
330
19
102
}
100
AcDbDictionary
281
     1
  3
Normal
350
1D
100
AcDbDictionaryWithDefault
340
1D
  0
ACDBPLACEHOLDER
  5
1D
102
{ACAD_REACTORS
330
1F
102
}
  0
LAYOUT
  5
20
102
{ACAD_REACTORS
330
1E
102
}
100
AcDbPlotSettings
  1

  2

  4

  6

 40
0.0
 41
0.0
 42
0.0
 43
0.0
 44
0.0
 45
0.0
 46
0.0
 47
0.0
 48
0.0
 49
0.0
140
0.0
141
0.0
142
1.0
143
1.0
 70
  1024
 72
     0
 73
     0
 74
     0
  7

 75
     0
147
1.0
148
0.0
149
0.0
100
AcDbLayout
  1
Model
 70
     0
 71
     1
 10
0.0
 20
0.0
 11
0.0
 21
0.0
 12
0.0
 22
0.0
 32
0.0
 14
0.0
 24
0.0
 34
0.0
 15
0.0
 25
0.0
 35
0.0
146
0.0
 13
0.0
 23
0.0
 33
0.0
 16
0.0
 26
0.0
 36
0.0
 17
0.0
 27
0.0
 37
0.0
 76
     0
330
A
331
0
345
0
346
0
  0
LAYOUT
  5
21
102
{ACAD_REACTORS
330
1E
102
}
100
AcDbPlotSettings
  1

  2

  4

  6

 40
0.0
 41
0.0
 42
0.0
 43
0.0
 44
0.0
 45
0.0
 46
0.0
 47
0.0
 48
0.0
 49
0.0
140
0.0
141
0.0
142
1.0
143
1.0
 70
     0
 72
     0
 73
     0
 74
     0
  7

 75
     0
147
1.0
148
0.0
149
0.0
100
AcDbLayout
  1
Layout1
 70
     0
 71
     2
 10
0.0
 20
0.0
 11
0.0
 21
0.0
 12
0.0
 22
0.0
 32
0.0
 14
0.0
 24
0.0
 34
0.0
 15
0.0
 25
0.0
 35
0.0
146
0.0
 13
0.0
 23
0.0
 33
0.0
 16
0.0
 26
0.0
 36
0.0
 17
0.0
 27
0.0
 37
0.0
 76
     0
330
B
331
0
345
0
346
0
  0
DICTIONARY
  5
1E
102
{ACAD_REACTORS
330
19
102
}
100
AcDbDictionary
280
     0
281
     1
  3
Layout1
350
21
  3
Model
350
20
  0
DICTIONARY
  5
22
102
{ACAD_REACTORS
330
19
102
}
100
AcDbDictionary
280
     0
281
     1
  0
WIPEOUTVARIABLES
  5
23
100
AcDbWipeoutVariables
 70
     1
  0
ENDSEC
  0
EOF
