  0
SECTION
  2
HEADER
  9
$ACADVER
  1
AC1015
  9
$ACADMAINTVER
 70
     6
  9
$DWGCODEPAGE
  3
DOS932
  9
$INSBASE
 10
0.0
 20
0.0
 30
0.0
  9
$EXTMIN
 10
388.63562
 20
148.729527
 30
0.0
  9
$EXTMAX
 10
658.693562
 20
293.193267
 30
0.0
  9
$LIMMIN
 10
388.63562
 20
148.729527
  9
$LIMMAX
 10
658.693562
 20
293.193267
  9
$ORTHOMODE
 70
     0
  9
$REGENMODE
 70
     1
  9
$FILLMODE
 70
     1
  9
$QTEXTMODE
 70
     0
  9
$MIRRTEXT
 70
     1
  9
$LTSCALE
 40
10.0
  9
$ATTMODE
 70
     1
  9
$TEXTSIZE
 40
0.2
  9
$TRACEWID
 40
0.05
  9
$TEXTSTYLE
  7
Standard
  9
$CLAYER
  8
0
  9
$CELTYPE
  6
Continuous
  9
$CECOLOR
 62
   256
  9
$CELTSCALE
 40
1.0
  9
$DISPSILH
 70
     0
  9
$DIMSCALE
 40
1.0
  9
$DIMASZ
 40
1.05
  9
$DIMEXO
 40
1.05
  9
$DIMDLI
 40
0.38
  9
$DIMRND
 40
0.0
  9
$DIMDLE
 40
0.0
  9
$DIMEXE
 40
1.05
  9
$DIMTP
 40
0.0
  9
$DIMTM
 40
0.0
  9
$DIMTXT
 40
3.5
  9
$DIMCEN
 40
0.09
  9
$DIMTSZ
 40
0.0
  9
$DIMTOL
 70
     0
  9
$DIMLIM
 70
     0
  9
$DIMTIH
 70
     0
  9
$DIMTOH
 70
     0
  9
$DIMSE1
 70
     0
  9
$DIMSE2
 70
     0
  9
$DIMTAD
 70
     1
  9
$DIMZIN
 70
     0
  9
$DIMBLK
  1

  9
$DIMASO
 70
     1
  9
$DIMSHO
 70
     1
  9
$DIMPOST
  1

  9
$DIMAPOST
  1

  9
$DIMALT
 70
     0
  9
$DIMALTD
 70
     2
  9
$DIMALTF
 40
25.4
  9
$DIMLFAC
 40
1.0
  9
$DIMTOFL
 70
     0
  9
$DIMTVP
 40
0.0
  9
$DIMTIX
 70
     0
  9
$DIMSOXD
 70
     0
  9
$DIMSAH
 70
     0
  9
$DIMBLK1
  1

  9
$DIMBLK2
  1

  9
$DIMSTYLE
  2
Standard
  9
$DIMCLRD
 70
     7
  9
$DIMCLRE
 70
     7
  9
$DIMCLRT
 70
     7
  9
$DIMTFAC
 40
0.5
  9
$DIMGAP
 40
1.75
  9
$DIMJUST
 70
     0
  9
$DIMSD1
 70
     0
  9
$DIMSD2
 70
     0
  9
$DIMTOLJ
 70
     1
  9
$DIMTZIN
 70
     0
  9
$DIMALTZ
 70
     0
  9
$DIMALTTZ
 70
     0
  9
$DIMUPT
 70
     0
  9
$DIMDEC
 70
     1
  9
$DIMTDEC
 70
     4
  9
$DIMALTU
 70
     2
  9
$DIMALTTD
 70
     2
  9
$DIMTXSTY
  7
Standard
  9
$DIMAUNIT
 70
     0
  9
$DIMADEC
 70
     0
  9
$DIMALTRND
 40
0.0
  9
$DIMAZIN
 70
     0
  9
$DIMDSEP
 70
     0
  9
$DIMATFIT
 70
     3
  9
$DIMFRAC
 70
     0
  9
$DIMLDRBLK
  1

  9
$DIMLUNIT
 70
     2
  9
$DIMLWD
 70
     0
  9
$DIMLWE
 70
     0
  9
$DIMTMOVE
 70
     0
  9
$LUNITS
 70
     2
  9
$LUPREC
 70
     4
  9
$SKETCHINC
 40
0.1
  9
$FILLETRAD
 40
0.0
  9
$AUNITS
 70
     0
  9
$AUPREC
 70
     0
  9
$MENU
  1
acad
  9
$ELEVATION
 40
0.0
  9
$PELEVATION
 40
0.0
  9
$THICKNESS
 40
0.0
  9
$LIMCHECK
 70
     0
  9
$CHAMFERA
 40
0.0
  9
$CHAMFERB
 40
0.0
  9
$CHAMFERC
 40
0.0
  9
$CHAMFERD
 40
0.0
  9
$SKPOLY
 70
     0
  9
$TDCREATE
 40
2458841.563993055
  9
$TDUCREATE
 40
0.000000000
  9
$TDUPDATE
 40
2458841.188761574
  9
$TDUUPDATE
 40
0.000000000
  9
$TDINDWG
 40
0.0000000000
  9
$TDUSRTIMER
 40
0.0000000000
  9
$USRTIMER
 70
     1
  9
$ANGBASE
 50
0.0
  9
$ANGDIR
 70
     0
  9
$PDMODE
 70
     0
  9
$PDSIZE
 40
0.0
  9
$PLINEWID
 40
0.0
  9
$SPLFRAME
 70
     0
  9
$SPLINETYPE
 70
     6
  9
$SPLINESEGS
 70
     8
  9
$HANDSEED
  5
332
  9
$SURFTAB1
 70
     6
  9
$SURFTAB2
 70
     6
  9
$SURFTYPE
 70
     6
  9
$SURFU
 70
     6
  9
$SURFV
 70
     6
  9
$UCSBASE
  2

  9
$UCSNAME
  2

  9
$UCSORG
 10
0.0
 20
0.0
 30
0.0
  9
$UCSXDIR
 10
1.0
 20
0.0
 30
0.0
  9
$UCSYDIR
 10
0.0
 20
1.0
 30
0.0
  9
$UCSORTHOREF
  2

  9
$UCSORTHOVIEW
 70
     0
  9
$UCSORGTOP
 10
0.0
 20
0.0
 30
0.0
  9
$UCSORGBOTTOM
 10
0.0
 20
0.0
 30
0.0
  9
$UCSORGLEFT
 10
0.0
 20
0.0
 30
0.0
  9
$UCSORGRIGHT
 10
0.0
 20
0.0
 30
0.0
  9
$UCSORGFRONT
 10
0.0
 20
0.0
 30
0.0
  9
$UCSORGBACK
 10
0.0
 20
0.0
 30
0.0
  9
$PUCSBASE
  2

  9
$PUCSNAME
  2

  9
$PUCSORG
 10
0.0
 20
0.0
 30
0.0
  9
$PUCSXDIR
 10
1.0
 20
0.0
 30
0.0
  9
$PUCSYDIR
 10
0.0
 20
1.0
 30
0.0
  9
$PUCSORTHOREF
  2

  9
$PUCSORTHOVIEW
 70
     0
  9
$PUCSORGTOP
 10
0.0
 20
0.0
 30
0.0
  9
$PUCSORGBOTTOM
 10
0.0
 20
0.0
 30
0.0
  9
$PUCSORGLEFT
 10
0.0
 20
0.0
 30
0.0
  9
$PUCSORGRIGHT
 10
0.0
 20
0.0
 30
0.0
  9
$PUCSORGFRONT
 10
0.0
 20
0.0
 30
0.0
  9
$PUCSORGBACK
 10
0.0
 20
0.0
 30
0.0
  9
$USERI1
 70
     0
  9
$USERI2
 70
     0
  9
$USERI3
 70
     0
  9
$USERI4
 70
     0
  9
$USERI5
 70
     0
  9
$USERR1
 40
0.0
  9
$USERR2
 40
0.0
  9
$USERR3
 40
0.0
  9
$USERR4
 40
0.0
  9
$USERR5
 40
0.0
  9
$WORLDVIEW
 70
     1
  9
$SHADEDGE
 70
     3
  9
$SHADEDIF
 70
    70
  9
$TILEMODE
 70
     1
  9
$MAXACTVP
 70
    16
  9
$PINSBASE
 10
0.0
 20
0.0
 30
0.0
  9
$PLIMCHECK
 70
     0
  9
$PEXTMIN
 10
1.000000E+20
 20
1.000000E+20
 30
1.000000E+20
  9
$PEXTMAX
 10
-1.000000E+20
 20
-1.000000E+20
 30
-1.000000E+20
  9
$PLIMMIN
 10
0.0
 20
0.0
  9
$PLIMMAX
 10
12.0
 20
9.0
  9
$UNITMODE
 70
     0
  9
$VISRETAIN
 70
     0
  9
$PLINEGEN
 70
     1
  9
$PSLTSCALE
 70
     0
  9
$TREEDEPTH
 70
  3020
  9
$CMLSTYLE
  2
Standard
  9
$CMLJUST
 70
     0
  9
$CMLSCALE
 40
1.0
  9
$PROXYGRAPHICS
 70
     0
  9
$MEASUREMENT
 70
     1
  9
$CELWEIGHT
370
     0
  9
$ENDCAPS
280
     0
  9
$JOINSTYLE
280
     0
  9
$LWDISPLAY
290
     0
  9
$INSUNITS
 70
     0
  9
$HYPERLINKBASE
  1

  9
$STYLESHEET
  1

  9
$XEDIT
290
     1
  9
$CEPSNTYPE
380
     0
  9
$PSTYLEMODE
290
     1
  9
$FINGERPRINTGUID
  2

  9
$VERSIONGUID
  2

  9
$EXTNAMES
290
     1
  9
$PSVPSCALE
 40
0.0
  0
ENDSEC
  0
SECTION
  2
CLASSES
  0
CLASS
  1
LWPOLYLINE
  2
AcDbPolyline
  3
AutoCAD 2000
 90
        0
280
     0
281
     1
  0
CLASS
  1
IMAGE
  2
AcDbRasterImage
  3
ISM
 90
      127
280
     0
281
     1
  0
CLASS
  1
OLE2FRAME
  2
AcDbOle2Frame
  3
AutoCAD 2000
 90
        0
280
     0
281
     1
  0
CLASS
  1
HATCH
  2
AcDbHatch
  3
AutoCAD 2000
 90
        0
280
     0
281
     1
  0
CLASS
  1
DICTIONARYVAR
  2
AcDbDictionaryVar
  3
AutoCAD 2000
 90
        0
280
     0
281
     0
  0
CLASS
  1
RASTERVARIABLES
  2
AcDbRasterVariables
  3
ISM
 90
        0
280
     0
281
     0
  0
CLASS
  1
IMAGEDEF
  2
AcDbRasterImageDef
  3
ISM
 90
        0
280
     0
281
     0
  0
CLASS
  1
IMAGEDEF_REACTOR
  2
AcDbRasterImageDefReactor
  3
ISM
 90
        1
280
     0
281
     0
  0
CLASS
  1
IDBUFFER
  2
AcDbIdBuffer
  3
AutoCAD 2000
 90
        0
280
     0
281
     0
  0
CLASS
  1
SPATIAL_FILTER
  2
AcDbSpatialFilter
  3
AutoCAD 2000
 90
        0
280
     0
281
     0
  0
CLASS
  1
XRECORD
  2
AcDbXrecord
  3
AutoCAD 2000
 90
        0
280
     0
281
     0
  0
CLASS
  1
SORTENTSTABLE
  2
AcDbSortentsTable
  3
AutoCAD 2000
 90
        0
280
     0
281
     0
  0
CLASS
  1
LAYER_INDEX
  2
AcDbLayerIndex
  3
AutoCAD 2000
 90
        0
280
     0
281
     0
  0
CLASS
  1
SPATIAL_INDEX
  2
AcDbSpatialIndex
  3
AutoCAD 2000
 90
        0
280
     0
281
     0
  0
CLASS
  1
OBJECT_PTR
  2
CAseDLPNTableRecord
  3
"ASE-LPNTableRecord"
 90
        1
280
     0
281
     0
  0
CLASS
  1
LAYOUT
  2
AcDbLayout
  3
AutoCAD 2000
 90
        0
280
     0
281
     0
  0
CLASS
  1
PLOTSETTINGS
  2
AcDbPlotSettings
  3
AutoCAD 2000
 90
        0
280
     0
281
     0
  0
CLASS
  1
ACDBDICTIONARYWDFLT
  2
AcDbDictionaryWithDefault
  3
AutoCAD 2000
 90
        0
280
     0
281
     0
  0
CLASS
  1
ACDBPLACEHOLDER
  2
AcDbPlaceHolder
  3
AutoCAD 2000
 90
        0
280
     0
281
     0
  0
CLASS
  1
VBA_PROJECT
  2
AcDbVbaProject
  3
acadvba
 90
        0
280
     0
281
     0
  0
CLASS
  1
WIPEOUT
  2
AcDbWipeout
  3
WipeOut|AutoCAD Express Tool|expresstools@autodesk.com
 90
      127
280
     0
281
     1
  0
CLASS
  1
WIPEOUTVARIABLES
  2
AcDbWipeoutVariables
  3
WipeOut|AutoCAD Express Tool|expresstools@autodesk.com
 90
        0
280
     0
281
     0
  0
CLASS
  1
RTEXT
  2
RText
  3
RText|AutoCAD Express Tool|expresstools@autodesk.com
 90
        0
280
     0
281
     1
  0
CLASS
  1
ARCALIGNEDTEXT
  2
AcDbArcAlignedText
  3
ATEXT|AutoCAD Express Tool|expresstools@autodesk.com
 90
        0
280
     0
281
     1
  0
ENDSEC
  0
SECTION
  2
TABLES
  0
TABLE
  2
VPORT
  5
7
100
AcDbSymbolTable
 70
     1
  0
VPORT
  5
15
100
AcDbSymbolTableRecord
100
AcDbViewportTableRecord
  2
*ACTIVE
 70
     0
 10
0.0
 20
0.0
 11
1.0
 21
1.0
 12
6.591288
 22
4.579184
 13
0.0
 23
0.0
 14
1.0
 24
1.0
 15
0.0
 25
0.0
 16
0.0
 26
0.0
 36
1.0
 17
0.0
 27
0.0
 37
0.0
 40
9.158369
 41
0.688564
 42
50.0
 43
0.0
 44
0.0
 50
0.0
 51
0.0
 71
     0
 72
   100
 73
     1
 74
     1
 75
     0
 76
     0
 77
     0
 78
     0
281
     0
 65
     0
110
0.0
120
0.0
130
0.0
111
1.0
121
0.0
131
0.0
112
0.0
122
1.0
132
0.0
345
0
346
0
 79
     0
146
0.0
  0
ENDTAB
  0
TABLE
  2
LTYPE
  5
4
100
AcDbSymbolTable
 70
     5
  0
LTYPE
  5
11
100
AcDbSymbolTableRecord
100
AcDbLinetypeTableRecord
  2
ByBlock
 70
    64
  3

 72
    65
 73
     0
 40
0.0
  0
LTYPE
  5
12
100
AcDbSymbolTableRecord
100
AcDbLinetypeTableRecord
  2
ByLayer
 70
    64
  3

 72
    65
 73
     0
 40
0.0
  0
LTYPE
  5
13
100
AcDbSymbolTableRecord
100
AcDbLinetypeTableRecord
  2
Continuous
 70
    64
  3
Solid line
 72
    65
 73
     0
 40
0.0
  0
LTYPE
  5
27
100
AcDbSymbolTableRecord
100
AcDbLinetypeTableRecord
  2
DOT
 70
    64
  3
..............................................
 72
    65
 73
     2
 40
0.5
 49
0.25
 74
     0
 49
-0.25
 74
     0
  0
LTYPE
  5
DC
100
AcDbSymbolTableRecord
100
AcDbLinetypeTableRecord
  2
CENTER
 70
    64
  3
____ _ ____ _ ____ _ ____ _ ____ _ ____ _ ____
 72
    65
 73
     4
 40
2.0
 49
1.25
 74
     0
 49
-0.25
 74
     0
 49
0.25
 74
     0
 49
-0.25
 74
     0
  0
ENDTAB
  0
TABLE
  2
LAYER
  5
2
100
AcDbSymbolTable
 70
     1
  0
LAYER
  5
14
100
AcDbSymbolTableRecord
100
AcDbLayerTableRecord
  2
0
 70
     0
 62
     7
  6
Continuous
290
     1
370
    -3
390
1D
  0
ENDTAB
  0
TABLE
  2
STYLE
  5
3
100
AcDbSymbolTable
 70
     1
  0
STYLE
  5
17
100
AcDbSymbolTableRecord
100
AcDbTextStyleTableRecord
  2
Standard
 70
     0
 40
0.0
 41
1.0
 50
0.0
 71
     0
 42
0.0
  3
ＭＳ Ｐゴシック
  4

1001
ACAD
1000
ＭＳ Ｐゴシック
1071
        1
  0
ENDTAB
  0
TABLE
  2
VIEW
  5
5
100
AcDbSymbolTable
 70
     0
  0
ENDTAB
  0
TABLE
  2
UCS
  5
6
100
AcDbSymbolTable
 70
     0
  0
ENDTAB
  0
TABLE
  2
APPID
  5
8
100
AcDbSymbolTable
 70
     2
  0
APPID
  5
16
100
AcDbSymbolTableRecord
100
AcDbRegAppTableRecord
  2
ACAD
 70
     0
  0
APPID
  5
26
100
AcDbSymbolTableRecord
100
AcDbRegAppTableRecord
  2
TOPsolid_Draft
 70
     0
  0
ENDTAB
  0
TABLE
  2
DIMSTYLE
  5
9
100
AcDbSymbolTable
 70
     1
100
AcDbDimStyleTable
 71
     0
  0
DIMSTYLE
105
18
100
AcDbSymbolTableRecord
100
AcDbDimStyleTableRecord
  2
Standard
 70
     0
  3

  4

 40
1.0
 41
1.05
 42
1.05
 43
0.38
 44
1.05
 45
0.0
 46
0.0
 47
0.0
 48
0.0
 71
     0
 72
     0
 73
     0
 74
     0
 75
     0
 76
     0
 77
     1
 78
     0
 79
     0
140
3.5
141
0.09
142
0.0
143
25.4
144
1.0
145
0.0
146
0.5
147
1.75
148
0.0
170
     0
171
     2
172
     0
173
     0
174
     0
175
     0
176
     7
177
     7
178
     7
179
     0
271
     1
272
     4
273
     2
274
     2
275
     0
276
     0
277
     2
278
    46
279
     0
280
     0
281
     0
282
     0
283
     1
284
     0
285
     0
286
     0
288
     0
289
     3
340
17
341
0
342
0
343
0
344
0
371
    -2
372
    -2
  0
ENDTAB
  0
TABLE
  2
BLOCK_RECORD
  5
1
100
AcDbSymbolTable
 70
    16
  0
BLOCK_RECORD
  5
A
100
AcDbSymbolTableRecord
100
AcDbBlockTableRecord
  2
*MODEL_SPACE
340
20
  0
BLOCK_RECORD
  5
B
100
AcDbSymbolTableRecord
100
AcDbBlockTableRecord
  2
*PAPER_SPACE
340
21
  0
BLOCK_RECORD
  5
DE
100
AcDbSymbolTableRecord
100
AcDbBlockTableRecord
  2
AID365
340
0
102
{BLKREFS
331
F2
102
}
  0
BLOCK_RECORD
  5
193
100
AcDbSymbolTableRecord
100
AcDbBlockTableRecord
  2
AID601
340
0
102
{BLKREFS
331
197
102
}
  0
BLOCK_RECORD
  5
199
100
AcDbSymbolTableRecord
100
AcDbBlockTableRecord
  2
*D2
340
0
  0
BLOCK_RECORD
  5
1AB
100
AcDbSymbolTableRecord
100
AcDbBlockTableRecord
  2
*D3
340
0
  0
BLOCK_RECORD
  5
1BD
100
AcDbSymbolTableRecord
100
AcDbBlockTableRecord
  2
*D4
340
0
  0
BLOCK_RECORD
  5
1D1
100
AcDbSymbolTableRecord
100
AcDbBlockTableRecord
  2
*D5
340
0
  0
BLOCK_RECORD
  5
1E3
100
AcDbSymbolTableRecord
100
AcDbBlockTableRecord
  2
*D6
340
0
  0
BLOCK_RECORD
  5
2A2
100
AcDbSymbolTableRecord
100
AcDbBlockTableRecord
  2
*D7
340
0
  0
BLOCK_RECORD
  5
2B4
100
AcDbSymbolTableRecord
100
AcDbBlockTableRecord
  2
*D8
340
0
  0
BLOCK_RECORD
  5
2C1
100
AcDbSymbolTableRecord
100
AcDbBlockTableRecord
  2
*D9
340
0
  0
BLOCK_RECORD
  5
2D1
100
AcDbSymbolTableRecord
100
AcDbBlockTableRecord
  2
*D10
340
0
  0
BLOCK_RECORD
  5
2E3
100
AcDbSymbolTableRecord
100
AcDbBlockTableRecord
  2
*D11
340
0
  0
BLOCK_RECORD
  5
2F7
100
AcDbSymbolTableRecord
100
AcDbBlockTableRecord
  2
*D12
340
0
  0
BLOCK_RECORD
  5
309
100
AcDbSymbolTableRecord
100
AcDbBlockTableRecord
  2
*D13
340
0
  0
BLOCK_RECORD
  5
31B
100
AcDbSymbolTableRecord
100
AcDbBlockTableRecord
  2
*D14
340
0
  0
BLOCK_RECORD
  5
326
100
AcDbSymbolTableRecord
100
AcDbBlockTableRecord
  2
AID1058
340
0
102
{BLKREFS
331
331
102
}
  0
ENDTAB
  0
ENDSEC
  0
SECTION
  2
BLOCKS
  0
BLOCK
  5
D
100
AcDbEntity
  8
0
390
0
100
AcDbBlockBegin
  2
*MODEL_SPACE
 70
     0
 10
0.0
 20
0.0
 30
0.0
  3
*MODEL_SPACE
  1

  0
ENDBLK
  5
E
100
AcDbEntity
  8
0
390
0
100
AcDbBlockEnd
  0
BLOCK
  5
F
100
AcDbEntity
 67
     1
  8
0
390
0
100
AcDbBlockBegin
  2
*PAPER_SPACE
 70
     0
 10
0.0
 20
0.0
 30
0.0
  3
*PAPER_SPACE
  1

  0
ENDBLK
  5
10
100
AcDbEntity
 67
     1
  8
0
390
0
100
AcDbBlockEnd
  0
BLOCK
  5
DF
100
AcDbEntity
  8
0
390
0
100
AcDbBlockBegin
  2
AID365
 70
     0
 10
0.0
 20
0.0
 30
0.0
  3
#driven cutting polygon
  1

  0
LINE
  5
E0
100
AcDbEntity
  8
0
390
0
  6
CENTER
 62
     1
100
AcDbLine
 10
448.712335
 20
148.729527
 30
0.0
 11
448.712335
 21
273.729527
 31
0.0
  0
LINE
  5
E1
100
AcDbEntity
  8
0
390
0
  6
Continuous
 62
     7
100
AcDbLine
 10
448.712335
 20
148.729527
 30
0.0
 11
448.712335
 21
143.729527
 31
0.0
  0
LINE
  5
E2
100
AcDbEntity
  8
0
390
0
  6
Continuous
 62
     7
100
AcDbLine
 10
458.712335
 20
146.229527
 30
0.0
 11
448.712335
 21
146.229527
 31
0.0
  0
POLYLINE
  5
E3
100
AcDbEntity
  8
0
390
0
  6
Continuous
 62
     7
100
AcDb2dPolyline
 66
     1
 10
0.0
 20
0.0
 30
0.0
 40
0.1
 41
0.1
  0
VERTEX
  5
E4
100
AcDbEntity
  8
0
390
0
 62
     7
100
AcDbVertex
100
AcDb2dVertex
 10
452.712335
 20
147.479527
 30
0.0
  0
VERTEX
  5
E5
100
AcDbEntity
  8
0
390
0
 62
     7
100
AcDbVertex
100
AcDb2dVertex
 10
448.712335
 20
146.229527
 30
0.0
  0
VERTEX
  5
E6
100
AcDbEntity
  8
0
390
0
 62
     7
100
AcDbVertex
100
AcDb2dVertex
 10
452.712335
 20
144.979527
 30
0.0
  0
SEQEND
  5
E7
100
AcDbEntity
  8
0
390
0
  0
MTEXT
  5
E8
100
AcDbEntity
  8
0
390
0
 62
     7
100
AcDbMText
 10
453.962335
 20
148.729527
 30
0.0
 40
5.0
 41
7.090909
 71
     7
 72
     1
  1
A
210
0.0
220
0.0
230
1.0
 73
     1
 44
1.0
  0
LINE
  5
E9
100
AcDbEntity
  8
0
390
0
  6
Continuous
 62
     7
100
AcDbLine
 10
448.712335
 20
273.729527
 30
0.0
 11
448.712335
 21
278.729527
 31
0.0
  0
LINE
  5
EA
100
AcDbEntity
  8
0
390
0
  6
Continuous
 62
     7
100
AcDbLine
 10
458.712335
 20
276.229527
 30
0.0
 11
448.712335
 21
276.229527
 31
0.0
  0
POLYLINE
  5
EB
100
AcDbEntity
  8
0
390
0
  6
Continuous
 62
     7
100
AcDb2dPolyline
 66
     1
 10
0.0
 20
0.0
 30
0.0
 40
0.1
 41
0.1
  0
VERTEX
  5
EC
100
AcDbEntity
  8
0
390
0
 62
     7
100
AcDbVertex
100
AcDb2dVertex
 10
452.712335
 20
274.979527
 30
0.0
  0
VERTEX
  5
ED
100
AcDbEntity
  8
0
390
0
 62
     7
100
AcDbVertex
100
AcDb2dVertex
 10
448.712335
 20
276.229527
 30
0.0
  0
VERTEX
  5
EE
100
AcDbEntity
  8
0
390
0
 62
     7
100
AcDbVertex
100
AcDb2dVertex
 10
452.712335
 20
277.479527
 30
0.0
  0
SEQEND
  5
EF
100
AcDbEntity
  8
0
390
0
  0
MTEXT
  5
F0
100
AcDbEntity
  8
0
390
0
 62
     7
100
AcDbMText
 10
453.962335
 20
278.729527
 30
0.0
 40
5.0
 41
7.090909
 71
     7
 72
     1
  1
A
210
0.0
220
0.0
230
1.0
 73
     1
 44
1.0
  0
ENDBLK
  5
F1
100
AcDbEntity
  8
0
390
0
100
AcDbBlockEnd
  0
BLOCK
  5
194
100
AcDbEntity
  8
0
390
0
100
AcDbBlockBegin
  2
AID601
 70
     0
 10
0.0
 20
0.0
 30
0.0
  3
#draft cross section view
  1

  0
MTEXT
  5
195
100
AcDbEntity
  8
0
390
0
 62
     7
100
AcDbMText
 10
574.760065
 20
154.229527
 30
0.0
 40
4.0
 41
38.945455
 71
     5
 72
     1
  1
ＳＥＣ A-A
210
0.0
220
0.0
230
1.0
 73
     1
 44
1.0
  0
ENDBLK
  5
196
100
AcDbEntity
  8
0
390
0
100
AcDbBlockEnd
  0
BLOCK
  5
19A
100
AcDbEntity
  8
0
390
0
100
AcDbBlockBegin
  2
*D2
 70
     1
 10
0.0
 20
0.0
 30
0.0
  3
DI2
  1

  0
MTEXT
  5
19B
100
AcDbEntity
  8
0
390
0
 62
     7
100
AcDbMText
 10
457.771425
 20
271.554892
 30
0.0
 40
3.5
 41
61.186364
 71
     7
 72
     1
  1
\A1;8.0\S+0.2^   0;
210
0.0
220
0.0
230
1.0
 73
     1
 44
1.0
  0
LINE
  5
19C
100
AcDbEntity
  8
0
390
0
  6
Continuous
 62
     7
100
AcDbLine
 10
439.462335
 20
269.820801
 30
0.0
 11
467.643016
 21
269.820801
 31
0.0
  0
LINE
  5
19D
100
AcDbEntity
  8
0
390
0
  6
Continuous
 62
     7
100
AcDbLine
 10
444.712335
 20
228.079527
 30
0.0
 11
444.712335
 21
270.870801
 31
0.0
  0
LINE
  5
19E
100
AcDbEntity
  8
0
390
0
  6
Continuous
 62
     7
100
AcDbLine
 10
452.712335
 20
228.079527
 30
0.0
 11
452.712335
 21
270.870801
 31
0.0
  0
POLYLINE
  5
19F
100
AcDbEntity
  8
0
390
0
  6
Continuous
 62
     7
100
AcDb2dPolyline
 66
     1
 10
0.0
 20
0.0
 30
0.0
 40
0.1
 41
0.1
  0
VERTEX
  5
1A0
100
AcDbEntity
  8
0
390
0
 62
     7
100
AcDbVertex
100
AcDb2dVertex
 10
442.087335
 20
269.295801
 30
0.0
  0
VERTEX
  5
1A1
100
AcDbEntity
  8
0
390
0
 62
     7
100
AcDbVertex
100
AcDb2dVertex
 10
444.712335
 20
269.820801
 30
0.0
  0
VERTEX
  5
1A2
100
AcDbEntity
  8
0
390
0
 62
     7
100
AcDbVertex
100
AcDb2dVertex
 10
442.087335
 20
270.345801
 30
0.0
  0
SEQEND
  5
1A3
100
AcDbEntity
  8
0
390
0
  0
POLYLINE
  5
1A4
100
AcDbEntity
  8
0
390
0
  6
Continuous
 62
     7
100
AcDb2dPolyline
 66
     1
 10
0.0
 20
0.0
 30
0.0
 40
0.1
 41
0.1
  0
VERTEX
  5
1A5
100
AcDbEntity
  8
0
390
0
 62
     7
100
AcDbVertex
100
AcDb2dVertex
 10
455.337335
 20
270.345801
 30
0.0
  0
VERTEX
  5
1A6
100
AcDbEntity
  8
0
390
0
 62
     7
100
AcDbVertex
100
AcDb2dVertex
 10
452.712335
 20
269.820801
 30
0.0
  0
VERTEX
  5
1A7
100
AcDbEntity
  8
0
390
0
 62
     7
100
AcDbVertex
100
AcDb2dVertex
 10
455.337335
 20
269.295801
 30
0.0
  0
SEQEND
  5
1A8
100
AcDbEntity
  8
0
390
0
  0
ENDBLK
  5
1A9
100
AcDbEntity
  8
0
390
0
100
AcDbBlockEnd
  0
BLOCK
  5
1AC
100
AcDbEntity
  8
0
390
0
100
AcDbBlockBegin
  2
*D3
 70
     1
 10
0.0
 20
0.0
 30
0.0
  3
DI3
  1

  0
MTEXT
  5
1AD
100
AcDbEntity
  8
0
390
0
 62
     7
100
AcDbMText
 10
392.079938
 20
232.072709
 30
0.0
 40
3.5
 41
61.186364
 71
     7
 72
     1
  1
\A1;3.3\S+0.2^   0;
210
0.0
220
0.0
230
1.0
 11
0.0
 21
1.0
 31
0.0
 73
     1
 44
1.0
  0
LINE
  5
1AE
100
AcDbEntity
  8
0
390
0
  6
Continuous
 62
     7
100
AcDbLine
 10
393.814029
 20
218.479527
 30
0.0
 11
393.814029
 21
241.880664
 31
0.0
  0
LINE
  5
1AF
100
AcDbEntity
  8
0
390
0
  6
Continuous
 62
     7
100
AcDbLine
 10
447.662335
 20
223.729527
 30
0.0
 11
392.764029
 21
223.729527
 31
0.0
  0
LINE
  5
1B0
100
AcDbEntity
  8
0
390
0
  6
Continuous
 62
     7
100
AcDbLine
 10
447.662335
 20
227.029527
 30
0.0
 11
392.764029
 21
227.029527
 31
0.0
  0
POLYLINE
  5
1B1
100
AcDbEntity
  8
0
390
0
  6
Continuous
 62
     7
100
AcDb2dPolyline
 66
     1
 10
0.0
 20
0.0
 30
0.0
 40
0.1
 41
0.1
  0
VERTEX
  5
1B2
100
AcDbEntity
  8
0
390
0
 62
     7
100
AcDbVertex
100
AcDb2dVertex
 10
394.339029
 20
221.104527
 30
0.0
  0
VERTEX
  5
1B3
100
AcDbEntity
  8
0
390
0
 62
     7
100
AcDbVertex
100
AcDb2dVertex
 10
393.814029
 20
223.729527
 30
0.0
  0
VERTEX
  5
1B4
100
AcDbEntity
  8
0
390
0
 62
     7
100
AcDbVertex
100
AcDb2dVertex
 10
393.289029
 20
221.104527
 30
0.0
  0
SEQEND
  5
1B5
100
AcDbEntity
  8
0
390
0
  0
POLYLINE
  5
1B6
100
AcDbEntity
  8
0
390
0
  6
Continuous
 62
     7
100
AcDb2dPolyline
 66
     1
 10
0.0
 20
0.0
 30
0.0
 40
0.1
 41
0.1
  0
VERTEX
  5
1B7
100
AcDbEntity
  8
0
390
0
 62
     7
100
AcDbVertex
100
AcDb2dVertex
 10
393.289029
 20
229.654527
 30
0.0
  0
VERTEX
  5
1B8
100
AcDbEntity
  8
0
390
0
 62
     7
100
AcDbVertex
100
AcDb2dVertex
 10
393.814029
 20
227.029527
 30
0.0
  0
VERTEX
  5
1B9
100
AcDbEntity
  8
0
390
0
 62
     7
100
AcDbVertex
100
AcDb2dVertex
 10
394.339029
 20
229.654527
 30
0.0
  0
SEQEND
  5
1BA
100
AcDbEntity
  8
0
390
0
  0
ENDBLK
  5
1BB
100
AcDbEntity
  8
0
390
0
100
AcDbBlockEnd
  0
BLOCK
  5
1BE
100
AcDbEntity
  8
0
390
0
100
AcDbBlockBegin
  2
*D4
 70
     1
 10
0.0
 20
0.0
 30
0.0
  3
DI4
  1

  0
MTEXT
  5
1BF
100
AcDbEntity
  8
0
390
0
 62
     7
100
AcDbMText
 10
590.50211
 20
290.377358
 30
0.0
 40
3.5
 41
46.295455
 71
     7
 72
     1
  1
\A1;39.0%%p0.3
210
0.0
220
0.0
230
1.0
 73
     1
 44
1.0
  0
LINE
  5
1C0
100
AcDbEntity
  8
0
390
0
  6
Continuous
 62
     7
100
AcDbLine
 10
579.760065
 20
288.643267
 30
0.0
 11
618.760065
 21
288.643267
 31
0.0
  0
LINE
  5
1C1
100
AcDbEntity
  8
0
390
0
  6
Continuous
 62
     7
100
AcDbLine
 10
579.760065
 20
259.773606
 30
0.0
 11
579.760065
 21
289.693267
 31
0.0
  0
LINE
  5
1C2
100
AcDbEntity
  8
0
390
0
  6
Continuous
 62
     7
100
AcDbLine
 10
618.760065
 20
242.279527
 30
0.0
 11
618.760065
 21
289.693267
 31
0.0
  0
POLYLINE
  5
1C3
100
AcDbEntity
  8
0
390
0
  6
Continuous
 62
     7
100
AcDb2dPolyline
 66
     1
 10
0.0
 20
0.0
 30
0.0
 40
0.1
 41
0.1
  0
VERTEX
  5
1C4
100
AcDbEntity
  8
0
390
0
 62
     7
100
AcDbVertex
100
AcDb2dVertex
 10
582.385065
 20
288.118267
 30
0.0
  0
VERTEX
  5
1C5
100
AcDbEntity
  8
0
390
0
 62
     7
100
AcDbVertex
100
AcDb2dVertex
 10
579.760065
 20
288.643267
 30
0.0
  0
VERTEX
  5
1C6
100
AcDbEntity
  8
0
390
0
 62
     7
100
AcDbVertex
100
AcDb2dVertex
 10
582.385065
 20
289.168267
 30
0.0
  0
SEQEND
  5
1C7
100
AcDbEntity
  8
0
390
0
  0
POLYLINE
  5
1C8
100
AcDbEntity
  8
0
390
0
  6
Continuous
 62
     7
100
AcDb2dPolyline
 66
     1
 10
0.0
 20
0.0
 30
0.0
 40
0.1
 41
0.1
  0
VERTEX
  5
1C9
100
AcDbEntity
  8
0
390
0
 62
     7
100
AcDbVertex
100
AcDb2dVertex
 10
616.135065
 20
289.168267
 30
0.0
  0
VERTEX
  5
1CA
100
AcDbEntity
  8
0
390
0
 62
     7
100
AcDbVertex
100
AcDb2dVertex
 10
618.760065
 20
288.643267
 30
0.0
  0
VERTEX
  5
1CB
100
AcDbEntity
  8
0
390
0
 62
     7
100
AcDbVertex
100
AcDb2dVertex
 10
616.135065
 20
288.118267
 30
0.0
  0
SEQEND
  5
1CC
100
AcDbEntity
  8
0
390
0
  0
ENDBLK
  5
1CD
100
AcDbEntity
  8
0
390
0
100
AcDbBlockEnd
  0
BLOCK
  5
1D2
100
AcDbEntity
  8
0
390
0
100
AcDbBlockBegin
  2
*D5
 70
     1
 10
0.0
 20
0.0
 30
0.0
  3
DI5
  1

  0
MTEXT
  5
1D3
100
AcDbEntity
  8
0
390
0
 62
     7
100
AcDbMText
 10
572.182792
 20
269.629332
 30
0.0
 40
3.5
 41
25.104545
 71
     7
 72
     1
  1
\A1;AG
210
0.0
220
0.0
230
1.0
 73
     1
 44
1.0
  0
LINE
  5
1D4
100
AcDbEntity
  8
0
390
0
  6
Continuous
 62
     7
100
AcDbLine
 10
579.760065
 20
267.895241
 30
0.0
 11
569.760065
 21
267.895241
 31
0.0
  0
LINE
  5
1D5
100
AcDbEntity
  8
0
390
0
  6
Continuous
 62
     7
100
AcDbLine
 10
579.760065
 20
259.773606
 30
0.0
 11
579.760065
 21
268.945241
 31
0.0
  0
LINE
  5
1D6
100
AcDbEntity
  8
0
390
0
  6
Continuous
 62
     7
100
AcDbLine
 10
569.760065
 20
259.773606
 30
0.0
 11
569.760065
 21
268.945241
 31
0.0
  0
POLYLINE
  5
1D7
100
AcDbEntity
  8
0
390
0
  6
Continuous
 62
     7
100
AcDb2dPolyline
 66
     1
 10
0.0
 20
0.0
 30
0.0
 40
0.1
 41
0.1
  0
VERTEX
  5
1D8
100
AcDbEntity
  8
0
390
0
 62
     7
100
AcDbVertex
100
AcDb2dVertex
 10
577.135065
 20
268.420241
 30
0.0
  0
VERTEX
  5
1D9
100
AcDbEntity
  8
0
390
0
 62
     7
100
AcDbVertex
100
AcDb2dVertex
 10
579.760065
 20
267.895241
 30
0.0
  0
VERTEX
  5
1DA
100
AcDbEntity
  8
0
390
0
 62
     7
100
AcDbVertex
100
AcDb2dVertex
 10
577.135065
 20
267.370241
 30
0.0
  0
SEQEND
  5
1DB
100
AcDbEntity
  8
0
390
0
  0
POLYLINE
  5
1DC
100
AcDbEntity
  8
0
390
0
  6
Continuous
 62
     7
100
AcDb2dPolyline
 66
     1
 10
0.0
 20
0.0
 30
0.0
 40
0.1
 41
0.1
  0
VERTEX
  5
1DD
100
AcDbEntity
  8
0
390
0
 62
     7
100
AcDbVertex
100
AcDb2dVertex
 10
572.385065
 20
267.370241
 30
0.0
  0
VERTEX
  5
1DE
100
AcDbEntity
  8
0
390
0
 62
     7
100
AcDbVertex
100
AcDb2dVertex
 10
569.760065
 20
267.895241
 30
0.0
  0
VERTEX
  5
1DF
100
AcDbEntity
  8
0
390
0
 62
     7
100
AcDbVertex
100
AcDb2dVertex
 10
572.385065
 20
268.420241
 30
0.0
  0
SEQEND
  5
1E0
100
AcDbEntity
  8
0
390
0
  0
ENDBLK
  5
1E1
100
AcDbEntity
  8
0
390
0
100
AcDbBlockEnd
  0
BLOCK
  5
1E4
100
AcDbEntity
  8
0
390
0
100
AcDbBlockBegin
  2
*D6
 70
     1
 10
0.0
 20
0.0
 30
0.0
  3
DI6
  1

  0
MTEXT
  5
1E5
100
AcDbEntity
  8
0
390
0
 62
     7
100
AcDbMText
 10
655.92538
 20
208.755664
 30
0.0
 40
3.5
 41
40.695455
 71
     7
 72
     1
  1
\A1;%%c100.0
210
0.0
220
0.0
230
1.0
 11
0.0
 21
1.0
 31
0.0
 73
     1
 44
1.0
  0
LINE
  5
1E6
100
AcDbEntity
  8
0
390
0
  6
Continuous
 62
     7
100
AcDbLine
 10
657.643562
 20
261.229527
 30
0.0
 11
657.643562
 21
161.229527
 31
0.0
  0
LINE
  5
1E7
100
AcDbEntity
  8
0
390
0
  6
Continuous
 62
     7
100
AcDbLine
 10
598.810065
 20
261.229527
 30
0.0
 11
658.693562
 21
261.229527
 31
0.0
  0
LINE
  5
1E8
100
AcDbEntity
  8
0
390
0
  6
Continuous
 62
     7
100
AcDbLine
 10
598.810065
 20
161.229527
 30
0.0
 11
658.693562
 21
161.229527
 31
0.0
  0
POLYLINE
  5
1E9
100
AcDbEntity
  8
0
390
0
  6
Continuous
 62
     7
100
AcDb2dPolyline
 66
     1
 10
0.0
 20
0.0
 30
0.0
 40
0.1
 41
0.1
  0
VERTEX
  5
1EA
100
AcDbEntity
  8
0
390
0
 62
     7
100
AcDbVertex
100
AcDb2dVertex
 10
657.118562
 20
258.604527
 30
0.0
  0
VERTEX
  5
1EB
100
AcDbEntity
  8
0
390
0
 62
     7
100
AcDbVertex
100
AcDb2dVertex
 10
657.643562
 20
261.229527
 30
0.0
  0
VERTEX
  5
1EC
100
AcDbEntity
  8
0
390
0
 62
     7
100
AcDbVertex
100
AcDb2dVertex
 10
658.168562
 20
258.604527
 30
0.0
  0
SEQEND
  5
1ED
100
AcDbEntity
  8
0
390
0
  0
POLYLINE
  5
1EE
100
AcDbEntity
  8
0
390
0
  6
Continuous
 62
     7
100
AcDb2dPolyline
 66
     1
 10
0.0
 20
0.0
 30
0.0
 40
0.1
 41
0.1
  0
VERTEX
  5
1EF
100
AcDbEntity
  8
0
390
0
 62
     7
100
AcDbVertex
100
AcDb2dVertex
 10
658.168562
 20
163.854527
 30
0.0
  0
VERTEX
  5
1F0
100
AcDbEntity
  8
0
390
0
 62
     7
100
AcDbVertex
100
AcDb2dVertex
 10
657.643562
 20
161.229527
 30
0.0
  0
VERTEX
  5
1F1
100
AcDbEntity
  8
0
390
0
 62
     7
100
AcDbVertex
100
AcDb2dVertex
 10
657.118562
 20
163.854527
 30
0.0
  0
SEQEND
  5
1F2
100
AcDbEntity
  8
0
390
0
  0
ENDBLK
  5
1F3
100
AcDbEntity
  8
0
390
0
100
AcDbBlockEnd
  0
BLOCK
  5
2A3
100
AcDbEntity
  8
0
390
0
100
AcDbBlockBegin
  2
*D7
 70
     1
 10
0.0
 20
0.0
 30
0.0
  3
DI7
  1

  0
MTEXT
  5
2A4
100
AcDbEntity
  8
0
390
0
 62
     7
100
AcDbMText
 10
583.648701
 20
269.629332
 30
0.0
 40
3.5
 41
28.477273
 71
     7
 72
     1
  1
\A1;15.0
210
0.0
220
0.0
230
1.0
 73
     1
 44
1.0
  0
LINE
  5
2A5
100
AcDbEntity
  8
0
390
0
  6
Continuous
 62
     7
100
AcDbLine
 10
579.760065
 20
267.895241
 30
0.0
 11
594.760065
 21
267.895241
 31
0.0
  0
LINE
  5
2A6
100
AcDbEntity
  8
0
390
0
  6
Continuous
 62
     7
100
AcDbLine
 10
579.760065
 20
259.773606
 30
0.0
 11
579.760065
 21
268.945241
 31
0.0
  0
LINE
  5
2A7
100
AcDbEntity
  8
0
390
0
  6
Continuous
 62
     7
100
AcDbLine
 10
594.760065
 20
233.279527
 30
0.0
 11
594.760065
 21
268.945241
 31
0.0
  0
POLYLINE
  5
2A8
100
AcDbEntity
  8
0
390
0
  6
Continuous
 62
     7
100
AcDb2dPolyline
 66
     1
 10
0.0
 20
0.0
 30
0.0
 40
0.1
 41
0.1
  0
VERTEX
  5
2A9
100
AcDbEntity
  8
0
390
0
 62
     7
100
AcDbVertex
100
AcDb2dVertex
 10
582.385065
 20
267.370241
 30
0.0
  0
VERTEX
  5
2AA
100
AcDbEntity
  8
0
390
0
 62
     7
100
AcDbVertex
100
AcDb2dVertex
 10
579.760065
 20
267.895241
 30
0.0
  0
VERTEX
  5
2AB
100
AcDbEntity
  8
0
390
0
 62
     7
100
AcDbVertex
100
AcDb2dVertex
 10
582.385065
 20
268.420241
 30
0.0
  0
SEQEND
  5
2AC
100
AcDbEntity
  8
0
390
0
  0
POLYLINE
  5
2AD
100
AcDbEntity
  8
0
390
0
  6
Continuous
 62
     7
100
AcDb2dPolyline
 66
     1
 10
0.0
 20
0.0
 30
0.0
 40
0.1
 41
0.1
  0
VERTEX
  5
2AE
100
AcDbEntity
  8
0
390
0
 62
     7
100
AcDbVertex
100
AcDb2dVertex
 10
592.135065
 20
268.420241
 30
0.0
  0
VERTEX
  5
2AF
100
AcDbEntity
  8
0
390
0
 62
     7
100
AcDbVertex
100
AcDb2dVertex
 10
594.760065
 20
267.895241
 30
0.0
  0
VERTEX
  5
2B0
100
AcDbEntity
  8
0
390
0
 62
     7
100
AcDbVertex
100
AcDb2dVertex
 10
592.135065
 20
267.370241
 30
0.0
  0
SEQEND
  5
2B1
100
AcDbEntity
  8
0
390
0
  0
ENDBLK
  5
2B2
100
AcDbEntity
  8
0
390
0
100
AcDbBlockEnd
  0
BLOCK
  5
2B5
100
AcDbEntity
  8
0
390
0
100
AcDbBlockBegin
  2
*D8
 70
     1
 10
0.0
 20
0.0
 30
0.0
  3
DI8
  1

  0
MTEXT
  5
2B6
100
AcDbEntity
  8
0
390
0
 62
     7
100
AcDbMText
 10
638.121164
 20
196.623277
 30
0.0
 40
3.5
 41
90.840909
 71
     7
 72
     1
  1
\A1;%%c25.0H8\S+0.033^   0;
210
0.0
220
0.0
230
1.0
 11
0.0
 21
1.0
 31
0.0
 73
     1
 44
1.0
  0
MTEXT
  5
2B7
100
AcDbEntity
  8
0
390
0
 62
     7
100
AcDbMText
 10
638.121164
 20
204.291459
 30
0.0
 40
3.5
 41
8.336364
 71
     7
 72
     1
  1
H8
210
0.0
220
0.0
230
1.0
 11
0.0
 21
1.0
 31
0.0
 73
     1
 44
1.0
  0
LINE
  5
2B8
100
AcDbEntity
  8
0
390
0
  6
Continuous
 62
     7
100
AcDbLine
 10
640.189346
 20
211.229527
 30
0.0
 11
640.189346
 21
198.729527
 31
0.0
  0
LINE
  5
2B9
100
AcDbEntity
  8
0
390
0
  6
Continuous
 62
     7
100
AcDbLine
 10
619.310065
 20
198.729527
 30
0.0
 11
641.239346
 21
198.729527
 31
0.0
  0
POLYLINE
  5
2BA
100
AcDbEntity
  8
0
390
0
  6
Continuous
 62
     7
100
AcDb2dPolyline
 66
     1
 10
0.0
 20
0.0
 30
0.0
 40
0.1
 41
0.1
  0
VERTEX
  5
2BB
100
AcDbEntity
  8
0
390
0
 62
     7
100
AcDbVertex
100
AcDb2dVertex
 10
640.714346
 20
201.354527
 30
0.0
  0
VERTEX
  5
2BC
100
AcDbEntity
  8
0
390
0
 62
     7
100
AcDbVertex
100
AcDb2dVertex
 10
640.189346
 20
198.729527
 30
0.0
  0
VERTEX
  5
2BD
100
AcDbEntity
  8
0
390
0
 62
     7
100
AcDbVertex
100
AcDb2dVertex
 10
639.664346
 20
201.354527
 30
0.0
  0
SEQEND
  5
2BE
100
AcDbEntity
  8
0
390
0
  0
ENDBLK
  5
2BF
100
AcDbEntity
  8
0
390
0
100
AcDbBlockEnd
  0
BLOCK
  5
2C2
100
AcDbEntity
  8
0
390
0
100
AcDbBlockBegin
  2
*D9
 70
     1
 10
0.0
 20
0.0
 30
0.0
  3
DI9
  1

  0
MTEXT
  5
2C3
100
AcDbEntity
  8
0
390
0
 62
     7
100
AcDbMText
 10
590.432068
 20
209.773846
 30
0.0
 40
3.5
 41
36.622727
 71
     7
 72
     1
  1
\A1;%%c42.0
210
0.0
220
0.0
230
1.0
 11
0.0
 21
1.0
 31
0.0
 73
     1
 44
1.0
  0
LINE
  5
2C4
100
AcDbEntity
  8
0
390
0
  6
Continuous
 62
     7
100
AcDbLine
 10
592.15025
 20
232.229527
 30
0.0
 11
592.15025
 21
190.229527
 31
0.0
  0
POLYLINE
  5
2C5
100
AcDbEntity
  8
0
390
0
  6
Continuous
 62
     7
100
AcDb2dPolyline
 66
     1
 10
0.0
 20
0.0
 30
0.0
 40
0.1
 41
0.1
  0
VERTEX
  5
2C6
100
AcDbEntity
  8
0
390
0
 62
     7
100
AcDbVertex
100
AcDb2dVertex
 10
591.62525
 20
229.604527
 30
0.0
  0
VERTEX
  5
2C7
100
AcDbEntity
  8
0
390
0
 62
     7
100
AcDbVertex
100
AcDb2dVertex
 10
592.15025
 20
232.229527
 30
0.0
  0
VERTEX
  5
2C8
100
AcDbEntity
  8
0
390
0
 62
     7
100
AcDbVertex
100
AcDb2dVertex
 10
592.67525
 20
229.604527
 30
0.0
  0
SEQEND
  5
2C9
100
AcDbEntity
  8
0
390
0
  0
POLYLINE
  5
2CA
100
AcDbEntity
  8
0
390
0
  6
Continuous
 62
     7
100
AcDb2dPolyline
 66
     1
 10
0.0
 20
0.0
 30
0.0
 40
0.1
 41
0.1
  0
VERTEX
  5
2CB
100
AcDbEntity
  8
0
390
0
 62
     7
100
AcDbVertex
100
AcDb2dVertex
 10
592.67525
 20
192.854527
 30
0.0
  0
VERTEX
  5
2CC
100
AcDbEntity
  8
0
390
0
 62
     7
100
AcDbVertex
100
AcDb2dVertex
 10
592.15025
 20
190.229527
 30
0.0
  0
VERTEX
  5
2CD
100
AcDbEntity
  8
0
390
0
 62
     7
100
AcDbVertex
100
AcDb2dVertex
 10
591.62525
 20
192.854527
 30
0.0
  0
SEQEND
  5
2CE
100
AcDbEntity
  8
0
390
0
  0
ENDBLK
  5
2CF
100
AcDbEntity
  8
0
390
0
100
AcDbBlockEnd
  0
BLOCK
  5
2D2
100
AcDbEntity
  8
0
390
0
100
AcDbBlockBegin
  2
*D10
 70
     1
 10
0.0
 20
0.0
 30
0.0
  3
DI10
  1

  0
MTEXT
  5
2D3
100
AcDbEntity
  8
0
390
0
 62
     7
100
AcDbMText
 10
585.148701
 20
276.742224
 30
0.0
 40
3.5
 41
28.477273
 71
     7
 72
     1
  1
\A1;18.0
210
0.0
220
0.0
230
1.0
 73
     1
 44
1.0
  0
LINE
  5
2D4
100
AcDbEntity
  8
0
390
0
  6
Continuous
 62
     7
100
AcDbLine
 10
579.760065
 20
275.008133
 30
0.0
 11
597.760065
 21
275.008133
 31
0.0
  0
LINE
  5
2D5
100
AcDbEntity
  8
0
390
0
  6
Continuous
 62
     7
100
AcDbLine
 10
579.760065
 20
259.773606
 30
0.0
 11
579.760065
 21
276.058133
 31
0.0
  0
LINE
  5
2D6
100
AcDbEntity
  8
0
390
0
  6
Continuous
 62
     7
100
AcDbLine
 10
597.760065
 20
262.279527
 30
0.0
 11
597.760065
 21
276.058133
 31
0.0
  0
POLYLINE
  5
2D7
100
AcDbEntity
  8
0
390
0
  6
Continuous
 62
     7
100
AcDb2dPolyline
 66
     1
 10
0.0
 20
0.0
 30
0.0
 40
0.1
 41
0.1
  0
VERTEX
  5
2D8
100
AcDbEntity
  8
0
390
0
 62
     7
100
AcDbVertex
100
AcDb2dVertex
 10
582.385065
 20
274.483133
 30
0.0
  0
VERTEX
  5
2D9
100
AcDbEntity
  8
0
390
0
 62
     7
100
AcDbVertex
100
AcDb2dVertex
 10
579.760065
 20
275.008133
 30
0.0
  0
VERTEX
  5
2DA
100
AcDbEntity
  8
0
390
0
 62
     7
100
AcDbVertex
100
AcDb2dVertex
 10
582.385065
 20
275.533133
 30
0.0
  0
SEQEND
  5
2DB
100
AcDbEntity
  8
0
390
0
  0
POLYLINE
  5
2DC
100
AcDbEntity
  8
0
390
0
  6
Continuous
 62
     7
100
AcDb2dPolyline
 66
     1
 10
0.0
 20
0.0
 30
0.0
 40
0.1
 41
0.1
  0
VERTEX
  5
2DD
100
AcDbEntity
  8
0
390
0
 62
     7
100
AcDbVertex
100
AcDb2dVertex
 10
595.135065
 20
275.533133
 30
0.0
  0
VERTEX
  5
2DE
100
AcDbEntity
  8
0
390
0
 62
     7
100
AcDbVertex
100
AcDb2dVertex
 10
597.760065
 20
275.008133
 30
0.0
  0
VERTEX
  5
2DF
100
AcDbEntity
  8
0
390
0
 62
     7
100
AcDbVertex
100
AcDb2dVertex
 10
595.135065
 20
274.483133
 30
0.0
  0
SEQEND
  5
2E0
100
AcDbEntity
  8
0
390
0
  0
ENDBLK
  5
2E1
100
AcDbEntity
  8
0
390
0
100
AcDbBlockEnd
  0
BLOCK
  5
2E4
100
AcDbEntity
  8
0
390
0
100
AcDbBlockBegin
  2
*D11
 70
     1
 10
0.0
 20
0.0
 30
0.0
  3
DI11
  1

  0
MTEXT
  5
2E5
100
AcDbEntity
  8
0
390
0
 62
     7
100
AcDbMText
 10
648.246174
 20
209.773846
 30
0.0
 40
3.5
 41
36.622727
 71
     7
 72
     1
  1
\A1;%%c60.0
210
0.0
220
0.0
230
1.0
 11
0.0
 21
1.0
 31
0.0
 73
     1
 44
1.0
  0
LINE
  5
2E6
100
AcDbEntity
  8
0
390
0
  6
Continuous
 62
     7
100
AcDbLine
 10
649.980265
 20
241.229527
 30
0.0
 11
649.980265
 21
181.229527
 31
0.0
  0
LINE
  5
2E7
100
AcDbEntity
  8
0
390
0
  6
Continuous
 62
     7
100
AcDbLine
 10
619.810065
 20
241.229527
 30
0.0
 11
651.030265
 21
241.229527
 31
0.0
  0
LINE
  5
2E8
100
AcDbEntity
  8
0
390
0
  6
Continuous
 62
     7
100
AcDbLine
 10
619.810065
 20
181.229527
 30
0.0
 11
651.030265
 21
181.229527
 31
0.0
  0
POLYLINE
  5
2E9
100
AcDbEntity
  8
0
390
0
  6
Continuous
 62
     7
100
AcDb2dPolyline
 66
     1
 10
0.0
 20
0.0
 30
0.0
 40
0.1
 41
0.1
  0
VERTEX
  5
2EA
100
AcDbEntity
  8
0
390
0
 62
     7
100
AcDbVertex
100
AcDb2dVertex
 10
649.455265
 20
238.604527
 30
0.0
  0
VERTEX
  5
2EB
100
AcDbEntity
  8
0
390
0
 62
     7
100
AcDbVertex
100
AcDb2dVertex
 10
649.980265
 20
241.229527
 30
0.0
  0
VERTEX
  5
2EC
100
AcDbEntity
  8
0
390
0
 62
     7
100
AcDbVertex
100
AcDb2dVertex
 10
650.505265
 20
238.604527
 30
0.0
  0
SEQEND
  5
2ED
100
AcDbEntity
  8
0
390
0
  0
POLYLINE
  5
2EE
100
AcDbEntity
  8
0
390
0
  6
Continuous
 62
     7
100
AcDb2dPolyline
 66
     1
 10
0.0
 20
0.0
 30
0.0
 40
0.1
 41
0.1
  0
VERTEX
  5
2EF
100
AcDbEntity
  8
0
390
0
 62
     7
100
AcDbVertex
100
AcDb2dVertex
 10
650.505265
 20
183.854527
 30
0.0
  0
VERTEX
  5
2F0
100
AcDbEntity
  8
0
390
0
 62
     7
100
AcDbVertex
100
AcDb2dVertex
 10
649.980265
 20
181.229527
 30
0.0
  0
VERTEX
  5
2F1
100
AcDbEntity
  8
0
390
0
 62
     7
100
AcDbVertex
100
AcDb2dVertex
 10
649.455265
 20
183.854527
 30
0.0
  0
SEQEND
  5
2F2
100
AcDbEntity
  8
0
390
0
  0
ENDBLK
  5
2F3
100
AcDbEntity
  8
0
390
0
100
AcDbBlockEnd
  0
BLOCK
  5
2F8
100
AcDbEntity
  8
0
390
0
100
AcDbBlockBegin
  2
*D12
 70
     1
 10
0.0
 20
0.0
 30
0.0
  3
DI12
  1

  0
MTEXT
  5
2F9
100
AcDbEntity
  8
0
390
0
 62
     7
100
AcDbMText
 10
590.760066
 20
283.503452
 30
0.0
 40
3.5
 41
28.477273
 71
     7
 72
     1
  1
\A1;29.0
210
0.0
220
0.0
230
1.0
 73
     1
 44
1.0
  0
LINE
  5
2FA
100
AcDbEntity
  8
0
390
0
  6
Continuous
 62
     7
100
AcDbLine
 10
579.760065
 20
281.769361
 30
0.0
 11
608.760067
 21
281.769361
 31
0.0
  0
LINE
  5
2FB
100
AcDbEntity
  8
0
390
0
  6
Continuous
 62
     7
100
AcDbLine
 10
579.760065
 20
259.773606
 30
0.0
 11
579.760065
 21
282.819361
 31
0.0
  0
LINE
  5
2FC
100
AcDbEntity
  8
0
390
0
  6
Continuous
 62
     7
100
AcDbLine
 10
608.760067
 20
244.279527
 30
0.0
 11
608.760067
 21
282.819361
 31
0.0
  0
POLYLINE
  5
2FD
100
AcDbEntity
  8
0
390
0
  6
Continuous
 62
     7
100
AcDb2dPolyline
 66
     1
 10
0.0
 20
0.0
 30
0.0
 40
0.1
 41
0.1
  0
VERTEX
  5
2FE
100
AcDbEntity
  8
0
390
0
 62
     7
100
AcDbVertex
100
AcDb2dVertex
 10
582.385065
 20
281.244361
 30
0.0
  0
VERTEX
  5
2FF
100
AcDbEntity
  8
0
390
0
 62
     7
100
AcDbVertex
100
AcDb2dVertex
 10
579.760065
 20
281.769361
 30
0.0
  0
VERTEX
  5
300
100
AcDbEntity
  8
0
390
0
 62
     7
100
AcDbVertex
100
AcDb2dVertex
 10
582.385065
 20
282.294361
 30
0.0
  0
SEQEND
  5
301
100
AcDbEntity
  8
0
390
0
  0
POLYLINE
  5
302
100
AcDbEntity
  8
0
390
0
  6
Continuous
 62
     7
100
AcDb2dPolyline
 66
     1
 10
0.0
 20
0.0
 30
0.0
 40
0.1
 41
0.1
  0
VERTEX
  5
303
100
AcDbEntity
  8
0
390
0
 62
     7
100
AcDbVertex
100
AcDb2dVertex
 10
606.135067
 20
282.294361
 30
0.0
  0
VERTEX
  5
304
100
AcDbEntity
  8
0
390
0
 62
     7
100
AcDbVertex
100
AcDb2dVertex
 10
608.760067
 20
281.769361
 30
0.0
  0
VERTEX
  5
305
100
AcDbEntity
  8
0
390
0
 62
     7
100
AcDbVertex
100
AcDb2dVertex
 10
606.135067
 20
281.244361
 30
0.0
  0
SEQEND
  5
306
100
AcDbEntity
  8
0
390
0
  0
ENDBLK
  5
307
100
AcDbEntity
  8
0
390
0
100
AcDbBlockEnd
  0
BLOCK
  5
30A
100
AcDbEntity
  8
0
390
0
100
AcDbBlockBegin
  2
*D13
 70
     1
 10
0.0
 20
0.0
 30
0.0
  3
DI13
  1

  0
MTEXT
  5
30B
100
AcDbEntity
  8
0
390
0
 62
     7
100
AcDbMText
 10
625.812688
 20
276.742224
 30
0.0
 40
3.5
 41
24.563636
 71
     7
 72
     1
  1
\A1;M6
210
0.0
220
0.0
230
1.0
 73
     1
 44
1.0
  0
LINE
  5
30C
100
AcDbEntity
  8
0
390
0
  6
Continuous
 62
     7
100
AcDbLine
 10
600.51007
 20
275.008133
 30
0.0
 11
628.501324
 21
275.008133
 31
0.0
  0
LINE
  5
30D
100
AcDbEntity
  8
0
390
0
  6
Continuous
 62
     7
100
AcDbLine
 10
605.76007
 20
242.279527
 30
0.0
 11
605.76007
 21
276.058133
 31
0.0
  0
LINE
  5
30E
100
AcDbEntity
  8
0
390
0
  6
Continuous
 62
     7
100
AcDbLine
 10
611.76006
 20
242.279527
 30
0.0
 11
611.76006
 21
276.058133
 31
0.0
  0
POLYLINE
  5
30F
100
AcDbEntity
  8
0
390
0
  6
Continuous
 62
     7
100
AcDb2dPolyline
 66
     1
 10
0.0
 20
0.0
 30
0.0
 40
0.1
 41
0.1
  0
VERTEX
  5
310
100
AcDbEntity
  8
0
390
0
 62
     7
100
AcDbVertex
100
AcDb2dVertex
 10
603.13507
 20
274.483133
 30
0.0
  0
VERTEX
  5
311
100
AcDbEntity
  8
0
390
0
 62
     7
100
AcDbVertex
100
AcDb2dVertex
 10
605.76007
 20
275.008133
 30
0.0
  0
VERTEX
  5
312
100
AcDbEntity
  8
0
390
0
 62
     7
100
AcDbVertex
100
AcDb2dVertex
 10
603.13507
 20
275.533133
 30
0.0
  0
SEQEND
  5
313
100
AcDbEntity
  8
0
390
0
  0
POLYLINE
  5
314
100
AcDbEntity
  8
0
390
0
  6
Continuous
 62
     7
100
AcDb2dPolyline
 66
     1
 10
0.0
 20
0.0
 30
0.0
 40
0.1
 41
0.1
  0
VERTEX
  5
315
100
AcDbEntity
  8
0
390
0
 62
     7
100
AcDbVertex
100
AcDb2dVertex
 10
614.38506
 20
275.533133
 30
0.0
  0
VERTEX
  5
316
100
AcDbEntity
  8
0
390
0
 62
     7
100
AcDbVertex
100
AcDb2dVertex
 10
611.76006
 20
275.008133
 30
0.0
  0
VERTEX
  5
317
100
AcDbEntity
  8
0
390
0
 62
     7
100
AcDbVertex
100
AcDb2dVertex
 10
614.38506
 20
274.483133
 30
0.0
  0
SEQEND
  5
318
100
AcDbEntity
  8
0
390
0
  0
ENDBLK
  5
319
100
AcDbEntity
  8
0
390
0
100
AcDbBlockEnd
  0
BLOCK
  5
31C
100
AcDbEntity
  8
0
390
0
100
AcDbBlockBegin
  2
*D14
 70
     1
 10
0.0
 20
0.0
 30
0.0
  3
DI14
  1

  0
MTEXT
  5
31D
100
AcDbEntity
  8
0
390
0
 62
     7
100
AcDbMText
 10
491.001463
 20
253.724912
 30
0.0
 40
3.5
 41
29.495455
 71
     7
 72
     1
  1
\A1;R4.0
210
0.0
220
0.0
230
1.0
 73
     1
 44
1.0
  0
POLYLINE
  5
31E
100
AcDbEntity
  8
0
390
0
  6
Continuous
 62
     7
100
AcDb2dPolyline
 66
     1
 10
0.0
 20
0.0
 30
0.0
 40
0.1
 41
0.1
  0
VERTEX
  5
31F
100
AcDbEntity
  8
0
390
0
 62
     7
100
AcDbVertex
100
AcDb2dVertex
 10
453.860872
 20
231.231767
 30
0.0
  0
VERTEX
  5
320
100
AcDbEntity
  8
0
390
0
 62
     7
100
AcDbVertex
100
AcDb2dVertex
 10
452.001292
 20
229.306094
 30
0.0
  0
VERTEX
  5
321
100
AcDbEntity
  8
0
390
0
 62
     7
100
AcDbVertex
100
AcDb2dVertex
 10
454.45847
 20
230.368416
 30
0.0
  0
SEQEND
  5
322
100
AcDbEntity
  8
0
390
0
  0
LINE
  5
323
100
AcDbEntity
  8
0
390
0
  6
Continuous
 62
     7
100
AcDbLine
 10
452.001292
 20
229.306094
 30
0.0
 11
484.796918
 21
252.00673
 31
0.0
  0
LINE
  5
324
100
AcDbEntity
  8
0
390
0
  6
Continuous
 62
     7
100
AcDbLine
 10
484.796918
 20
252.00673
 30
0.0
 11
496.633281
 21
252.00673
 31
0.0
  0
ENDBLK
  5
325
100
AcDbEntity
  8
0
390
0
100
AcDbBlockEnd
  0
BLOCK
  5
327
100
AcDbEntity
  8
0
390
0
100
AcDbBlockBegin
  2
AID1058
 70
     0
 10
0.0
 20
0.0
 30
0.0
  3
DIMENS
  1

  0
MTEXT
  5
328
100
AcDbEntity
  8
0
390
0
 62
     2
100
AcDbMText
 10
622.596074
 20
205.387152
 30
0.0
 40
3.5
 41
7.509091
 71
     7
 72
     1
  1
C
210
0.0
220
0.0
230
0.9999999999999999
 11
0.707107
 21
0.707107
 31
0.0
 73
     1
 44
1.0
  0
MTEXT
  5
329
100
AcDbEntity
  8
0
390
0
 62
     2
100
AcDbMText
 10
625.442178
 20
208.233257
 30
0.0
 40
3.5
 41
12.981818
 71
     7
 72
     1
  1
0.5
210
0.0
220
0.0
230
0.9999999999999999
 11
0.707107
 21
0.707107
 31
0.0
 73
     1
 44
1.0
  0
LINE
  5
32A
100
AcDbEntity
  8
0
390
0
  6
Continuous
 62
    11
100
AcDbLine
 10
618.325444
 20
198.664148
 30
0.0
 11
630.605665
 21
210.944369
 31
0.0
  0
POLYLINE
  5
32B
100
AcDbEntity
  8
0
390
0
  6
Continuous
 62
    11
100
AcDb2dPolyline
 66
     1
 10
0.0
 20
0.0
 30
0.0
 40
0.1
 41
0.1
  0
VERTEX
  5
32C
100
AcDbEntity
  8
0
390
0
 62
    11
100
AcDbVertex
100
AcDb2dVertex
 10
620.55283
 20
200.149072
 30
0.0
  0
VERTEX
  5
32D
100
AcDbEntity
  8
0
390
0
 62
    11
100
AcDbVertex
100
AcDb2dVertex
 10
618.325444
 20
198.664148
 30
0.0
  0
VERTEX
  5
32E
100
AcDbEntity
  8
0
390
0
 62
    11
100
AcDbVertex
100
AcDb2dVertex
 10
619.810368
 20
200.891534
 30
0.0
  0
SEQEND
  5
32F
100
AcDbEntity
  8
0
390
0
  0
ENDBLK
  5
330
100
AcDbEntity
  8
0
390
0
100
AcDbBlockEnd
  0
ENDSEC
  0
SECTION
  2
ENTITIES
  0
LINE
  5
28
100
AcDbEntity
  8
0
390
0
  6
DOT
 62
     2
100
AcDbLine
 10
451.71234
 20
240.262665
 30
0.0
 11
445.71233
 21
240.262665
 31
0.0
  0
ARC
  5
29
100
AcDbEntity
  8
0
390
0
  6
DOT
 62
     2
100
AcDbCircle
 10
448.712335
 20
211.229527
 30
0.0
 40
27.5
210
0.0
220
0.0
230
1.0
100
AcDbArc
 50
271.562806
 51
298.437194
  0
LINE
  5
2A
100
AcDbEntity
  8
0
390
0
  6
DOT
 62
     2
100
AcDbLine
 10
471.809855
 20
169.723449
 30
0.0
 11
463.058127
 21
184.881886
 31
0.0
  0
LINE
  5
2B
100
AcDbEntity
  8
0
390
0
  6
DOT
 62
     2
100
AcDbLine
 10
463.058127
 20
184.881886
 30
0.0
 11
461.807701
 21
187.047688
 31
0.0
  0
ARC
  5
2C
100
AcDbEntity
  8
0
390
0
  6
DOT
 62
     2
100
AcDbCircle
 10
448.712335
 20
211.229527
 30
0.0
 40
47.5
210
0.0
220
0.0
230
1.0
100
AcDbArc
 50
270.904708
 51
299.095292
  0
LINE
  5
2D
100
AcDbEntity
  8
0
390
0
  6
DOT
 62
     2
100
AcDbLine
 10
449.462335
 20
183.739757
 30
0.0
 11
449.462335
 21
181.238904
 31
0.0
  0
LINE
  5
2E
100
AcDbEntity
  8
0
390
0
  6
DOT
 62
     2
100
AcDbLine
 10
449.462335
 20
181.238904
 30
0.0
 11
449.462335
 21
163.735449
 31
0.0
  0
ARC
  5
2F
100
AcDbEntity
  8
0
390
0
  6
DOT
 62
     2
100
AcDbCircle
 10
448.712335
 20
211.229527
 30
0.0
 40
27.5
210
0.0
220
0.0
230
0.9999999999999999
100
AcDbArc
 50
241.562806
 51
268.437194
  0
LINE
  5
30
100
AcDbEntity
  8
0
390
0
  6
DOT
 62
     2
100
AcDbLine
 10
447.962335
 20
163.735449
 30
0.0
 11
447.962335
 21
181.238904
 31
0.0
  0
LINE
  5
31
100
AcDbEntity
  8
0
390
0
  6
DOT
 62
     2
100
AcDbLine
 10
447.962335
 20
181.238904
 30
0.0
 11
447.962335
 21
183.739757
 31
0.0
  0
ARC
  5
32
100
AcDbEntity
  8
0
390
0
  6
DOT
 62
     2
100
AcDbCircle
 10
448.712335
 20
211.229527
 30
0.0
 40
47.5
210
0.0
220
0.0
230
1.0
100
AcDbArc
 50
240.904708
 51
269.095292
  0
LINE
  5
33
100
AcDbEntity
  8
0
390
0
  6
DOT
 62
     2
100
AcDbLine
 10
435.616968
 20
187.047688
 30
0.0
 11
434.366542
 21
184.881886
 31
0.0
  0
LINE
  5
34
100
AcDbEntity
  8
0
390
0
  6
DOT
 62
     2
100
AcDbLine
 10
434.366542
 20
184.881886
 30
0.0
 11
425.614814
 21
169.723449
 31
0.0
  0
ARC
  5
35
100
AcDbEntity
  8
0
390
0
  6
DOT
 62
     2
100
AcDbCircle
 10
448.712335
 20
211.229527
 30
0.0
 40
27.5
210
0.0
220
0.0
230
0.9999999999999999
100
AcDbArc
 50
211.562806
 51
238.437194
  0
LINE
  5
36
100
AcDbEntity
  8
0
390
0
  6
DOT
 62
     2
100
AcDbLine
 10
424.315776
 20
170.473449
 30
0.0
 11
433.067504
 21
185.631886
 31
0.0
  0
LINE
  5
37
100
AcDbEntity
  8
0
390
0
  6
DOT
 62
     2
100
AcDbLine
 10
433.067504
 20
185.631886
 30
0.0
 11
434.31793
 21
187.797688
 31
0.0
  0
ARC
  5
38
100
AcDbEntity
  8
0
390
0
  6
DOT
 62
     2
100
AcDbCircle
 10
448.712335
 20
211.229527
 30
0.0
 40
47.5
210
0.0
220
0.0
230
1.0
100
AcDbArc
 50
210.904708
 51
239.095292
  0
LINE
  5
39
100
AcDbEntity
  8
0
390
0
  6
DOT
 62
     2
100
AcDbLine
 10
425.280495
 20
196.835123
 30
0.0
 11
423.114693
 21
195.584697
 31
0.0
  0
LINE
  5
3A
100
AcDbEntity
  8
0
390
0
  6
DOT
 62
     2
100
AcDbLine
 10
423.114693
 20
195.584697
 30
0.0
 11
407.956256
 21
186.832969
 31
0.0
  0
ARC
  5
3B
100
AcDbEntity
  8
0
390
0
  6
DOT
 62
     2
100
AcDbCircle
 10
448.712335
 20
211.229527
 30
0.0
 40
27.5
210
0.0
220
0.0
230
1.0
100
AcDbArc
 50
181.562806
 51
208.437194
  0
LINE
  5
3C
100
AcDbEntity
  8
0
390
0
  6
DOT
 62
     2
100
AcDbLine
 10
407.206256
 20
188.132007
 30
0.0
 11
422.364693
 21
196.883735
 31
0.0
  0
LINE
  5
3D
100
AcDbEntity
  8
0
390
0
  6
DOT
 62
     2
100
AcDbLine
 10
422.364693
 20
196.883735
 30
0.0
 11
424.530495
 21
198.134161
 31
0.0
  0
ARC
  5
3E
100
AcDbEntity
  8
0
390
0
  6
DOT
 62
     2
100
AcDbCircle
 10
448.712335
 20
211.229527
 30
0.0
 40
47.5
210
0.0
220
0.0
230
1.0
100
AcDbArc
 50
180.904708
 51
209.095292
  0
LINE
  5
3F
100
AcDbEntity
  8
0
390
0
  6
DOT
 62
     2
100
AcDbLine
 10
421.222564
 20
210.479527
 30
0.0
 11
418.721711
 21
210.479527
 31
0.0
  0
LINE
  5
40
100
AcDbEntity
  8
0
390
0
  6
DOT
 62
     2
100
AcDbLine
 10
418.721711
 20
210.479527
 30
0.0
 11
401.218256
 21
210.479527
 31
0.0
  0
ARC
  5
41
100
AcDbEntity
  8
0
390
0
  6
DOT
 62
     2
100
AcDbCircle
 10
448.712335
 20
211.229527
 30
0.0
 40
27.5
210
0.0
220
0.0
230
1.0
100
AcDbArc
 50
151.562806
 51
178.437194
  0
LINE
  5
42
100
AcDbEntity
  8
0
390
0
  6
DOT
 62
     2
100
AcDbLine
 10
401.218256
 20
211.979527
 30
0.0
 11
418.721711
 21
211.979527
 31
0.0
  0
LINE
  5
43
100
AcDbEntity
  8
0
390
0
  6
DOT
 62
     2
100
AcDbLine
 10
418.721711
 20
211.979527
 30
0.0
 11
421.222564
 21
211.979527
 31
0.0
  0
ARC
  5
44
100
AcDbEntity
  8
0
390
0
  6
DOT
 62
     2
100
AcDbCircle
 10
448.712335
 20
211.229527
 30
0.0
 40
47.5
210
0.0
220
0.0
230
1.0
100
AcDbArc
 50
150.904708
 51
179.095292
  0
LINE
  5
45
100
AcDbEntity
  8
0
390
0
  6
DOT
 62
     2
100
AcDbLine
 10
424.530495
 20
224.324894
 30
0.0
 11
422.364693
 21
225.57532
 31
0.0
  0
LINE
  5
46
100
AcDbEntity
  8
0
390
0
  6
DOT
 62
     2
100
AcDbLine
 10
422.364693
 20
225.57532
 30
0.0
 11
407.206256
 21
234.327048
 31
0.0
  0
ARC
  5
47
100
AcDbEntity
  8
0
390
0
  6
DOT
 62
     2
100
AcDbCircle
 10
448.712335
 20
211.229527
 30
0.0
 40
27.5
210
0.0
220
0.0
230
1.0
100
AcDbArc
 50
121.562806
 51
148.437194
  0
LINE
  5
48
100
AcDbEntity
  8
0
390
0
  6
DOT
 62
     2
100
AcDbLine
 10
407.956256
 20
235.626086
 30
0.0
 11
423.114693
 21
226.874358
 31
0.0
  0
LINE
  5
49
100
AcDbEntity
  8
0
390
0
  6
DOT
 62
     2
100
AcDbLine
 10
423.114693
 20
226.874358
 30
0.0
 11
425.280495
 21
225.623932
 31
0.0
  0
ARC
  5
4A
100
AcDbEntity
  8
0
390
0
  6
DOT
 62
     2
100
AcDbCircle
 10
448.712335
 20
211.229527
 30
0.0
 40
47.5
210
0.0
220
0.0
230
1.0
100
AcDbArc
 50
120.904708
 51
149.095292
  0
LINE
  5
4B
100
AcDbEntity
  8
0
390
0
  6
DOT
 62
     2
100
AcDbLine
 10
434.31793
 20
234.661367
 30
0.0
 11
433.067504
 21
236.827169
 31
0.0
  0
LINE
  5
4C
100
AcDbEntity
  8
0
390
0
  6
DOT
 62
     2
100
AcDbLine
 10
433.067504
 20
236.827169
 30
0.0
 11
424.315776
 21
251.985606
 31
0.0
  0
LINE
  5
4D
100
AcDbEntity
  8
0
390
0
  6
DOT
 62
     2
100
AcDbLine
 10
425.614814
 20
252.735606
 30
0.0
 11
434.366542
 21
237.577169
 31
0.0
  0
LINE
  5
4E
100
AcDbEntity
  8
0
390
0
  6
DOT
 62
     2
100
AcDbLine
 10
434.366542
 20
237.577169
 30
0.0
 11
435.616968
 21
235.411367
 31
0.0
  0
ARC
  5
4F
100
AcDbEntity
  8
0
390
0
  6
DOT
 62
     2
100
AcDbCircle
 10
448.712335
 20
211.229527
 30
0.0
 40
47.5
210
0.0
220
0.0
230
1.0
100
AcDbArc
 50
90.904708
 51
119.095292
  0
LINE
  5
50
100
AcDbEntity
  8
0
390
0
  6
DOT
 62
     2
100
AcDbLine
 10
447.962335
 20
238.719298
 30
0.0
 11
447.962335
 21
241.012089
 31
0.0
  0
LINE
  5
51
100
AcDbEntity
  8
0
390
0
  6
DOT
 62
     2
100
AcDbLine
 10
447.962335
 20
241.012089
 30
0.0
 11
447.962335
 21
241.220094
 31
0.0
  0
ARC
  5
52
100
AcDbEntity
  8
0
390
0
  6
DOT
 62
     2
100
AcDbCircle
 10
448.712335
 20
211.229527
 30
0.0
 40
27.5
210
0.0
220
0.0
230
1.0
100
AcDbArc
 50
84.784091
 51
88.437194
  0
ARC
  5
53
100
AcDbEntity
  8
0
390
0
  6
DOT
 62
     2
100
AcDbCircle
 10
448.712335
 20
211.229527
 30
0.0
 40
27.5
210
0.0
220
0.0
230
1.0
100
AcDbArc
 50
83.737087
 51
84.784091
  0
ARC
  5
54
100
AcDbEntity
  8
0
390
0
  6
DOT
 62
     2
100
AcDbCircle
 10
448.712335
 20
211.229527
 30
0.0
 40
27.5
210
0.0
220
0.0
230
1.0
100
AcDbArc
 50
61.562806
 51
83.737087
  0
LINE
  5
55
100
AcDbEntity
  8
0
390
0
  6
DOT
 62
     2
100
AcDbLine
 10
449.462335
 20
258.723606
 30
0.0
 11
449.462335
 21
241.220151
 31
0.0
  0
LINE
  5
56
100
AcDbEntity
  8
0
390
0
  6
DOT
 62
     2
100
AcDbLine
 10
449.462335
 20
241.220094
 30
0.0
 11
449.462335
 21
241.012089
 31
0.0
  0
ARC
  5
57
100
AcDbEntity
  8
0
390
0
  6
DOT
 62
     2
100
AcDbCircle
 10
448.712335
 20
211.229527
 30
0.0
 40
47.5
210
0.0
220
0.0
230
1.0
100
AcDbArc
 50
60.904708
 51
89.095292
  0
LINE
  5
58
100
AcDbEntity
  8
0
390
0
  6
DOT
 62
     2
100
AcDbLine
 10
461.807701
 20
235.411367
 30
0.0
 11
463.058127
 21
237.577169
 31
0.0
  0
LINE
  5
59
100
AcDbEntity
  8
0
390
0
  6
DOT
 62
     2
100
AcDbLine
 10
463.058127
 20
237.577169
 30
0.0
 11
471.809855
 21
252.735606
 31
0.0
  0
ARC
  5
5A
100
AcDbEntity
  8
0
390
0
  6
DOT
 62
     2
100
AcDbCircle
 10
448.712335
 20
211.229527
 30
0.0
 40
27.5
210
0.0
220
0.0
230
1.0
100
AcDbArc
 50
31.562806
 51
58.437194
  0
LINE
  5
5B
100
AcDbEntity
  8
0
390
0
  6
DOT
 62
     2
100
AcDbLine
 10
473.108893
 20
251.985606
 30
0.0
 11
464.357165
 21
236.827169
 31
0.0
  0
LINE
  5
5C
100
AcDbEntity
  8
0
390
0
  6
DOT
 62
     2
100
AcDbLine
 10
464.357165
 20
236.827169
 30
0.0
 11
463.106739
 21
234.661367
 31
0.0
  0
ARC
  5
5D
100
AcDbEntity
  8
0
390
0
  6
DOT
 62
     2
100
AcDbCircle
 10
448.712335
 20
211.229527
 30
0.0
 40
47.5
210
0.0
220
0.0
230
1.0
100
AcDbArc
 50
30.904708
 51
59.095292
  0
LINE
  5
5E
100
AcDbEntity
  8
0
390
0
  6
DOT
 62
     2
100
AcDbLine
 10
472.144174
 20
225.623932
 30
0.0
 11
474.309976
 21
226.874358
 31
0.0
  0
LINE
  5
5F
100
AcDbEntity
  8
0
390
0
  6
DOT
 62
     2
100
AcDbLine
 10
474.309976
 20
226.874358
 30
0.0
 11
489.468413
 21
235.626086
 31
0.0
  0
ARC
  5
60
100
AcDbEntity
  8
0
390
0
  6
DOT
 62
     2
100
AcDbCircle
 10
448.712335
 20
211.229527
 30
0.0
 40
27.5
210
0.0
220
0.0
230
0.9999999999999999
100
AcDbArc
 50
1.562806
 51
28.437194
  0
LINE
  5
61
100
AcDbEntity
  8
0
390
0
  6
DOT
 62
     2
100
AcDbLine
 10
490.218413
 20
234.327048
 30
0.0
 11
475.059976
 21
225.57532
 31
0.0
  0
LINE
  5
62
100
AcDbEntity
  8
0
390
0
  6
DOT
 62
     2
100
AcDbLine
 10
475.059976
 20
225.57532
 30
0.0
 11
472.894174
 21
224.324894
 31
0.0
  0
ARC
  5
63
100
AcDbEntity
  8
0
390
0
  6
DOT
 62
     2
100
AcDbCircle
 10
448.712335
 20
211.229527
 30
0.0
 40
47.5
210
0.0
220
0.0
230
1.0
100
AcDbArc
 50
0.904708
 51
29.095292
  0
LINE
  5
64
100
AcDbEntity
  8
0
390
0
  6
DOT
 62
     2
100
AcDbLine
 10
476.202105
 20
211.979527
 30
0.0
 11
478.702958
 21
211.979527
 31
0.0
  0
LINE
  5
65
100
AcDbEntity
  8
0
390
0
  6
DOT
 62
     2
100
AcDbLine
 10
478.702958
 20
211.979527
 30
0.0
 11
496.206413
 21
211.979527
 31
0.0
  0
LINE
  5
66
100
AcDbEntity
  8
0
390
0
  6
DOT
 62
     2
100
AcDbLine
 10
424.315776
 20
251.985606
 30
0.0
 11
433.067504
 21
236.827169
 31
0.0
  0
LINE
  5
67
100
AcDbEntity
  8
0
390
0
  6
DOT
 62
     2
100
AcDbLine
 10
433.067504
 20
236.827169
 30
0.0
 11
434.31793
 21
234.661367
 31
0.0
  0
LINE
  5
68
100
AcDbEntity
  8
0
390
0
  6
DOT
 62
     2
100
AcDbLine
 10
407.206256
 20
234.327048
 30
0.0
 11
422.364693
 21
225.57532
 31
0.0
  0
LINE
  5
69
100
AcDbEntity
  8
0
390
0
  6
DOT
 62
     2
100
AcDbLine
 10
422.364693
 20
225.57532
 30
0.0
 11
424.530495
 21
224.324894
 31
0.0
  0
ARC
  5
6A
100
AcDbEntity
  8
0
390
0
  6
DOT
 62
     2
100
AcDbCircle
 10
448.712335
 20
211.229527
 30
0.0
 40
47.5
210
0.0
220
0.0
230
1.0
100
AcDbArc
 50
150.904708
 51
179.095292
  0
ARC
  5
6B
100
AcDbEntity
  8
0
390
0
  6
DOT
 62
     2
100
AcDbCircle
 10
448.712335
 20
211.229527
 30
0.0
 40
27.5
210
0.0
220
0.0
230
1.0
100
AcDbArc
 50
121.562806
 51
148.437194
  0
ARC
  5
6C
100
AcDbEntity
  8
0
390
0
  6
DOT
 62
     2
100
AcDbCircle
 10
448.712335
 20
211.229527
 30
0.0
 40
47.5
210
0.0
220
0.0
230
0.9999999999999999
100
AcDbArc
 50
270.904708
 51
299.095292
  0
LINE
  5
6D
100
AcDbEntity
  8
0
390
0
  6
DOT
 62
     2
100
AcDbLine
 10
421.222564
 20
211.979527
 30
0.0
 11
418.721711
 21
211.979527
 31
0.0
  0
LINE
  5
6E
100
AcDbEntity
  8
0
390
0
  6
DOT
 62
     2
100
AcDbLine
 10
418.721711
 20
211.979527
 30
0.0
 11
401.218256
 21
211.979527
 31
0.0
  0
LINE
  5
6F
100
AcDbEntity
  8
0
390
0
  6
DOT
 62
     2
100
AcDbLine
 10
489.468413
 20
235.626086
 30
0.0
 11
474.309976
 21
226.874358
 31
0.0
  0
LINE
  5
70
100
AcDbEntity
  8
0
390
0
  6
DOT
 62
     2
100
AcDbLine
 10
474.309976
 20
226.874358
 30
0.0
 11
472.144174
 21
225.623932
 31
0.0
  0
LINE
  5
71
100
AcDbEntity
  8
0
390
0
  6
DOT
 62
     2
100
AcDbLine
 10
425.280495
 20
225.623932
 30
0.0
 11
423.114693
 21
226.874358
 31
0.0
  0
LINE
  5
72
100
AcDbEntity
  8
0
390
0
  6
DOT
 62
     2
100
AcDbLine
 10
423.114693
 20
226.874358
 30
0.0
 11
407.956256
 21
235.626086
 31
0.0
  0
LINE
  5
73
100
AcDbEntity
  8
0
390
0
  6
DOT
 62
     2
100
AcDbLine
 10
472.894174
 20
224.324894
 30
0.0
 11
475.059976
 21
225.57532
 31
0.0
  0
LINE
  5
74
100
AcDbEntity
  8
0
390
0
  6
DOT
 62
     2
100
AcDbLine
 10
475.059976
 20
225.57532
 30
0.0
 11
490.218413
 21
234.327048
 31
0.0
  0
LINE
  5
75
100
AcDbEntity
  8
0
390
0
  6
DOT
 62
     2
100
AcDbLine
 10
447.962335
 20
183.739757
 30
0.0
 11
447.962335
 21
181.238904
 31
0.0
  0
LINE
  5
76
100
AcDbEntity
  8
0
390
0
  6
DOT
 62
     2
100
AcDbLine
 10
447.962335
 20
181.238904
 30
0.0
 11
447.962335
 21
163.735449
 31
0.0
  0
ARC
  5
77
100
AcDbEntity
  8
0
390
0
  6
DOT
 62
     2
100
AcDbCircle
 10
448.712335
 20
211.229527
 30
0.0
 40
47.5
210
0.0
220
0.0
230
1.0
100
AcDbArc
 50
120.904708
 51
149.095292
  0
ARC
  5
78
100
AcDbEntity
  8
0
390
0
  6
DOT
 62
     2
100
AcDbCircle
 10
448.712335
 20
211.229527
 30
0.0
 40
47.5
210
0.0
220
0.0
230
1.0
100
AcDbArc
 50
30.904708
 51
59.095292
  0
ARC
  5
79
100
AcDbEntity
  8
0
390
0
  6
DOT
 62
     2
100
AcDbCircle
 10
448.712335
 20
211.229527
 30
0.0
 40
27.5
210
0.0
220
0.0
230
1.0
100
AcDbArc
 50
151.562806
 51
178.437194
  0
LINE
  5
7A
100
AcDbEntity
  8
0
390
0
  6
DOT
 62
     2
100
AcDbLine
 10
435.616968
 20
235.411367
 30
0.0
 11
434.366542
 21
237.577169
 31
0.0
  0
LINE
  5
7B
100
AcDbEntity
  8
0
390
0
  6
DOT
 62
     2
100
AcDbLine
 10
434.366542
 20
237.577169
 30
0.0
 11
425.614814
 21
252.735606
 31
0.0
  0
LINE
  5
7C
100
AcDbEntity
  8
0
390
0
  6
DOT
 62
     2
100
AcDbLine
 10
447.962335
 20
258.723606
 30
0.0
 11
447.962335
 21
241.220151
 31
0.0
  0
LINE
  5
7D
100
AcDbEntity
  8
0
390
0
  6
DOT
 62
     2
100
AcDbLine
 10
447.962335
 20
241.220094
 30
0.0
 11
447.962335
 21
241.012089
 31
0.0
  0
ARC
  5
7E
100
AcDbEntity
  8
0
390
0
  6
DOT
 62
     2
100
AcDbCircle
 10
448.712335
 20
211.229527
 30
0.0
 40
47.5
210
0.0
220
0.0
230
1.0
100
AcDbArc
 50
90.904708
 51
119.095292
  0
ARC
  5
7F
100
AcDbEntity
  8
0
390
0
  6
DOT
 62
     2
100
AcDbCircle
 10
448.712335
 20
211.229527
 30
0.0
 40
27.5
210
0.0
220
0.0
230
0.9999999999999999
100
AcDbArc
 50
1.562806
 51
28.437194
  0
LINE
  5
80
100
AcDbEntity
  8
0
390
0
  6
DOT
 62
     2
100
AcDbLine
 10
496.206413
 20
211.979527
 30
0.0
 11
478.702958
 21
211.979527
 31
0.0
  0
LINE
  5
81
100
AcDbEntity
  8
0
390
0
  6
DOT
 62
     2
100
AcDbLine
 10
478.702958
 20
211.979527
 30
0.0
 11
476.202105
 21
211.979527
 31
0.0
  0
ARC
  5
82
100
AcDbEntity
  8
0
390
0
  6
DOT
 62
     2
100
AcDbCircle
 10
448.712335
 20
211.229527
 30
0.0
 40
47.5
210
0.0
220
0.0
230
1.0
100
AcDbArc
 50
0.904708
 51
29.095292
  0
ARC
  5
83
100
AcDbEntity
  8
0
390
0
  6
DOT
 62
     2
100
AcDbCircle
 10
448.712335
 20
211.229527
 30
0.0
 40
27.5
210
0.0
220
0.0
230
0.9999999999999999
100
AcDbArc
 50
241.562806
 51
268.437194
  0
LINE
  5
84
100
AcDbEntity
  8
0
390
0
  6
DOT
 62
     2
100
AcDbLine
 10
463.106739
 20
234.661367
 30
0.0
 11
464.357165
 21
236.827169
 31
0.0
  0
LINE
  5
85
100
AcDbEntity
  8
0
390
0
  6
DOT
 62
     2
100
AcDbLine
 10
464.357165
 20
236.827169
 30
0.0
 11
473.108893
 21
251.985606
 31
0.0
  0
ARC
  5
86
100
AcDbEntity
  8
0
390
0
  6
DOT
 62
     2
100
AcDbCircle
 10
448.712335
 20
211.229527
 30
0.0
 40
27.5
210
0.0
220
0.0
230
1.0
100
AcDbArc
 50
31.562806
 51
58.437194
  0
ARC
  5
87
100
AcDbEntity
  8
0
390
0
  6
DOT
 62
     2
100
AcDbCircle
 10
448.712335
 20
211.229527
 30
0.0
 40
47.5
210
0.0
220
0.0
230
1.0
100
AcDbArc
 50
240.904708
 51
269.095292
  0
LINE
  5
88
100
AcDbEntity
  8
0
390
0
  6
DOT
 62
     2
100
AcDbLine
 10
434.31793
 20
187.797688
 30
0.0
 11
433.067504
 21
185.631886
 31
0.0
  0
LINE
  5
89
100
AcDbEntity
  8
0
390
0
  6
DOT
 62
     2
100
AcDbLine
 10
433.067504
 20
185.631886
 30
0.0
 11
424.315776
 21
170.473449
 31
0.0
  0
LINE
  5
8A
100
AcDbEntity
  8
0
390
0
  6
DOT
 62
     2
100
AcDbLine
 10
461.807701
 20
187.047688
 30
0.0
 11
463.058127
 21
184.881886
 31
0.0
  0
LINE
  5
8B
100
AcDbEntity
  8
0
390
0
  6
DOT
 62
     2
100
AcDbLine
 10
463.058127
 20
184.881886
 30
0.0
 11
471.809855
 21
169.723449
 31
0.0
  0
ARC
  5
8C
100
AcDbEntity
  8
0
390
0
  6
DOT
 62
     2
100
AcDbCircle
 10
448.712335
 20
211.229527
 30
0.0
 40
27.5
210
0.0
220
0.0
230
0.9999999999999999
100
AcDbArc
 50
271.562806
 51
298.437194
  0
LINE
  5
8D
100
AcDbEntity
  8
0
390
0
  6
DOT
 62
     2
100
AcDbLine
 10
449.462335
 20
163.735449
 30
0.0
 11
449.462335
 21
181.238904
 31
0.0
  0
LINE
  5
8E
100
AcDbEntity
  8
0
390
0
  6
DOT
 62
     2
100
AcDbLine
 10
449.462335
 20
181.238904
 30
0.0
 11
449.462335
 21
183.739757
 31
0.0
  0
ARC
  5
8F
100
AcDbEntity
  8
0
390
0
  6
DOT
 62
     2
100
AcDbCircle
 10
448.712335
 20
211.229527
 30
0.0
 40
47.5
210
0.0
220
0.0
230
1.0
100
AcDbArc
 50
60.904708
 51
89.095292
  0
ARC
  5
90
100
AcDbEntity
  8
0
390
0
  6
DOT
 62
     2
100
AcDbCircle
 10
448.712335
 20
211.229527
 30
0.0
 40
27.5
210
0.0
220
0.0
230
0.9999999999999999
100
AcDbArc
 50
181.562806
 51
208.437194
  0
LINE
  5
91
100
AcDbEntity
  8
0
390
0
  6
DOT
 62
     2
100
AcDbLine
 10
425.614814
 20
169.723449
 30
0.0
 11
434.366542
 21
184.881886
 31
0.0
  0
LINE
  5
92
100
AcDbEntity
  8
0
390
0
  6
DOT
 62
     2
100
AcDbLine
 10
434.366542
 20
184.881886
 30
0.0
 11
435.616968
 21
187.047688
 31
0.0
  0
ARC
  5
93
100
AcDbEntity
  8
0
390
0
  6
DOT
 62
     2
100
AcDbCircle
 10
448.712335
 20
211.229527
 30
0.0
 40
47.5
210
0.0
220
0.0
230
1.0
100
AcDbArc
 50
180.904708
 51
209.095292
  0
LINE
  5
94
100
AcDbEntity
  8
0
390
0
  6
DOT
 62
     2
100
AcDbLine
 10
407.956256
 20
186.832969
 30
0.0
 11
423.114693
 21
195.584697
 31
0.0
  0
LINE
  5
95
100
AcDbEntity
  8
0
390
0
  6
DOT
 62
     2
100
AcDbLine
 10
423.114693
 20
195.584697
 30
0.0
 11
425.280495
 21
196.835123
 31
0.0
  0
ARC
  5
96
100
AcDbEntity
  8
0
390
0
  6
DOT
 62
     2
100
AcDbCircle
 10
448.712335
 20
211.229527
 30
0.0
 40
27.5
210
0.0
220
0.0
230
1.0
100
AcDbArc
 50
211.562806
 51
238.437194
  0
LINE
  5
97
100
AcDbEntity
  8
0
390
0
  6
DOT
 62
     2
100
AcDbLine
 10
449.462335
 20
238.719298
 30
0.0
 11
449.462335
 21
241.012089
 31
0.0
  0
LINE
  5
98
100
AcDbEntity
  8
0
390
0
  6
DOT
 62
     2
100
AcDbLine
 10
449.462335
 20
241.012089
 30
0.0
 11
449.462335
 21
241.220094
 31
0.0
  0
ARC
  5
99
100
AcDbEntity
  8
0
390
0
  6
DOT
 62
     2
100
AcDbCircle
 10
448.712335
 20
211.229527
 30
0.0
 40
27.5
210
0.0
220
0.0
230
1.0
100
AcDbArc
 50
61.562806
 51
83.737087
  0
ARC
  5
9A
100
AcDbEntity
  8
0
390
0
  6
DOT
 62
     2
100
AcDbCircle
 10
448.712335
 20
211.229527
 30
0.0
 40
27.5
210
0.0
220
0.0
230
1.0
100
AcDbArc
 50
83.737087
 51
84.784091
  0
ARC
  5
9B
100
AcDbEntity
  8
0
390
0
  6
DOT
 62
     2
100
AcDbCircle
 10
448.712335
 20
211.229527
 30
0.0
 40
27.5
210
0.0
220
0.0
230
1.0
100
AcDbArc
 50
84.784091
 51
88.437194
  0
LINE
  5
9C
100
AcDbEntity
  8
0
390
0
  6
DOT
 62
     2
100
AcDbLine
 10
401.218256
 20
210.479527
 30
0.0
 11
418.721711
 21
210.479527
 31
0.0
  0
LINE
  5
9D
100
AcDbEntity
  8
0
390
0
  6
DOT
 62
     2
100
AcDbLine
 10
418.721711
 20
210.479527
 30
0.0
 11
421.222564
 21
210.479527
 31
0.0
  0
ARC
  5
9E
100
AcDbEntity
  8
0
390
0
  6
DOT
 62
     2
100
AcDbCircle
 10
448.712335
 20
211.229527
 30
0.0
 40
47.5
210
0.0
220
0.0
230
1.0
100
AcDbArc
 50
210.904708
 51
239.095292
  0
LINE
  5
9F
100
AcDbEntity
  8
0
390
0
  6
DOT
 62
     2
100
AcDbLine
 10
471.809855
 20
252.735606
 30
0.0
 11
463.058127
 21
237.577169
 31
0.0
  0
LINE
  5
A0
100
AcDbEntity
  8
0
390
0
  6
DOT
 62
     2
100
AcDbLine
 10
463.058127
 20
237.577169
 30
0.0
 11
461.807701
 21
235.411367
 31
0.0
  0
LINE
  5
A1
100
AcDbEntity
  8
0
390
0
  6
DOT
 62
     2
100
AcDbLine
 10
424.530495
 20
198.134161
 30
0.0
 11
422.364693
 21
196.883735
 31
0.0
  0
LINE
  5
A2
100
AcDbEntity
  8
0
390
0
  6
DOT
 62
     2
100
AcDbLine
 10
422.364693
 20
196.883735
 30
0.0
 11
407.206256
 21
188.132007
 31
0.0
  0
LINE
  5
A3
100
AcDbEntity
  8
0
390
0
  6
DOT
 62
     2
100
AcDbLine
 10
451.712335
 20
239.878689
 30
0.0
 11
445.712335
 21
239.878689
 31
0.0
  0
ARC
  5
A4
100
AcDbEntity
  8
0
390
0
  6
DOT
 62
     2
100
AcDbCircle
 10
447.962335
 20
238.141788
 30
0.0
 40
2.486675
210
0.0
220
0.0
230
1.0
100
AcDbArc
 50
72.445818
 51
107.554182
  0
ARC
  5
A5
100
AcDbEntity
  8
0
390
0
  6
DOT
 62
     2
100
AcDbCircle
 10
449.462335
 20
238.141788
 30
0.0
 40
2.486675
210
0.0
220
0.0
230
1.0
100
AcDbArc
 50
72.445818
 51
107.554182
  0
LINE
  5
A6
100
AcDbEntity
  8
0
390
0
  6
Continuous
 62
     7
100
AcDbLine
 10
450.212335
 20
228.628689
 30
0.0
 11
447.212335
 21
228.628689
 31
0.0
  0
LINE
  5
A7
100
AcDbEntity
  8
0
390
0
  6
DOT
 62
     2
100
AcDbLine
 10
447.212335
 20
237.128689
 30
0.0
 11
448.712335
 21
237.128689
 31
0.0
  0
LINE
  5
A8
100
AcDbEntity
  8
0
390
0
  6
DOT
 62
     2
100
AcDbLine
 10
448.712335
 20
237.512665
 30
0.0
 11
448.712335
 21
237.128689
 31
0.0
  0
LINE
  5
A9
100
AcDbEntity
  8
0
390
0
  6
DOT
 62
     2
100
AcDbLine
 10
448.712335
 20
237.128689
 30
0.0
 11
450.212335
 21
237.128689
 31
0.0
  0
LINE
  5
AA
100
AcDbEntity
  8
0
390
0
  6
DOT
 62
     2
100
AcDbLine
 10
447.212335
 20
237.512665
 30
0.0
 11
447.212335
 21
237.128689
 31
0.0
  0
LINE
  5
AB
100
AcDbEntity
  8
0
390
0
  6
DOT
 62
     2
100
AcDbLine
 10
450.212335
 20
237.512665
 30
0.0
 11
450.212335
 21
237.128689
 31
0.0
  0
LINE
  5
AC
100
AcDbEntity
  8
0
390
0
  6
Continuous
 62
     7
100
AcDbLine
 10
450.212335
 20
229.012665
 30
0.0
 11
447.212335
 21
229.012665
 31
0.0
  0
LINE
  5
AD
100
AcDbEntity
  8
0
390
0
  6
DOT
 62
     2
100
AcDbLine
 10
451.712335
 20
240.262665
 30
0.0
 11
445.712335
 21
240.262665
 31
0.0
  0
LINE
  5
AE
100
AcDbEntity
  8
0
390
0
  6
DOT
 62
     2
100
AcDbLine
 10
450.212335
 20
241.012665
 30
0.0
 11
450.212335
 21
240.896639
 31
0.0
  0
LINE
  5
AF
100
AcDbEntity
  8
0
390
0
  6
DOT
 62
     2
100
AcDbLine
 10
447.212335
 20
240.896639
 30
0.0
 11
447.212335
 21
241.012665
 31
0.0
  0
ARC
  5
B0
100
AcDbEntity
  8
0
390
0
  6
DOT
 62
     2
100
AcDbCircle
 10
447.962335
 20
238.525763
 30
0.0
 40
2.486675
210
0.0
220
0.0
230
1.0
100
AcDbArc
 50
72.445818
 51
107.554182
  0
ARC
  5
B1
100
AcDbEntity
  8
0
390
0
  6
DOT
 62
     2
100
AcDbCircle
 10
449.462335
 20
238.525763
 30
0.0
 40
2.486675
210
0.0
220
0.0
230
1.0
100
AcDbArc
 50
72.445818
 51
107.554182
  0
LINE
  5
B2
100
AcDbEntity
  8
0
390
0
  6
DOT
 62
     2
100
AcDbLine
 10
448.712335
 20
240.896639
 30
0.0
 11
448.712335
 21
240.262665
 31
0.0
  0
LINE
  5
B3
100
AcDbEntity
  8
0
390
0
  6
DOT
 62
     2
100
AcDbLine
 10
448.712335
 20
240.262665
 30
0.0
 11
448.712335
 21
237.512665
 31
0.0
  0
LINE
  5
B4
100
AcDbEntity
  8
0
390
0
  6
DOT
 62
     2
100
AcDbLine
 10
447.212335
 20
237.512665
 30
0.0
 11
448.712335
 21
237.512665
 31
0.0
  0
LINE
  5
B5
100
AcDbEntity
  8
0
390
0
  6
DOT
 62
     2
100
AcDbLine
 10
448.712335
 20
237.512665
 30
0.0
 11
450.212335
 21
237.512665
 31
0.0
  0
LINE
  5
B6
100
AcDbEntity
  8
0
390
0
  6
DOT
 62
     2
100
AcDbLine
 10
447.212335
 20
240.896639
 30
0.0
 11
447.212335
 21
240.262665
 31
0.0
  0
LINE
  5
B7
100
AcDbEntity
  8
0
390
0
  6
DOT
 62
     2
100
AcDbLine
 10
447.212335
 20
240.262665
 30
0.0
 11
447.212335
 21
237.512665
 31
0.0
  0
LINE
  5
B8
100
AcDbEntity
  8
0
390
0
  6
DOT
 62
     2
100
AcDbLine
 10
450.212335
 20
240.896639
 30
0.0
 11
450.212335
 21
240.262665
 31
0.0
  0
LINE
  5
B9
100
AcDbEntity
  8
0
390
0
  6
DOT
 62
     2
100
AcDbLine
 10
450.212335
 20
240.262665
 30
0.0
 11
450.212335
 21
237.512665
 31
0.0
  0
LINE
  5
BA
100
AcDbEntity
  8
0
390
0
  6
DOT
 62
     2
100
AcDbLine
 10
451.212335
 20
230.152286
 30
0.0
 11
451.212335
 21
240.262665
 31
0.0
  0
LINE
  5
BB
100
AcDbEntity
  8
0
390
0
  6
DOT
 62
     2
100
AcDbLine
 10
446.212335
 20
240.262665
 30
0.0
 11
446.212335
 21
230.152026
 31
0.0
  0
LINE
  5
BC
100
AcDbEntity
  8
0
390
0
  6
DOT
 62
     2
100
AcDbLine
 10
445.71234
 20
241.079151
 30
0.0
 11
445.71234
 21
240.262684
 31
0.0
  0
LINE
  5
BD
100
AcDbEntity
  8
0
390
0
  6
DOT
 62
     2
100
AcDbLine
 10
445.71234
 20
240.262667
 30
0.0
 11
445.71234
 21
230.512659
 31
0.0
  0
LINE
  5
BE
100
AcDbEntity
  8
0
390
0
  6
DOT
 62
     2
100
AcDbLine
 10
451.541116
 20
229.8576
 30
0.0
 11
451.71233
 21
229.675284
 31
0.0
  0
LINE
  5
BF
100
AcDbEntity
  8
0
390
0
  6
DOT
 62
     2
100
AcDbLine
 10
445.71234
 20
229.675284
 30
0.0
 11
445.739733
 21
229.706025
 31
0.0
  0
LINE
  5
C0
100
AcDbEntity
  8
0
390
0
  6
DOT
 62
     2
100
AcDbLine
 10
451.71233
 20
230.512659
 30
0.0
 11
451.71233
 21
240.262667
 31
0.0
  0
LINE
  5
C1
100
AcDbEntity
  8
0
390
0
  6
DOT
 62
     2
100
AcDbLine
 10
451.71233
 20
240.262684
 30
0.0
 11
451.71233
 21
241.079151
 31
0.0
  0
LINE
  5
C2
100
AcDbEntity
  8
0
390
0
  6
DOT
 62
     2
100
AcDbLine
 10
451.712335
 20
239.878689
 30
0.0
 11
451.212335
 21
240.128689
 31
0.0
  0
LINE
  5
C3
100
AcDbEntity
  8
0
390
0
  6
DOT
 62
     2
100
AcDbLine
 10
451.212335
 20
240.128689
 30
0.0
 11
450.212335
 21
240.628689
 31
0.0
  0
LINE
  5
C4
100
AcDbEntity
  8
0
390
0
  6
DOT
 62
     2
100
AcDbLine
 10
447.212335
 20
240.628689
 30
0.0
 11
446.212335
 21
240.128689
 31
0.0
  0
LINE
  5
C5
100
AcDbEntity
  8
0
390
0
  6
DOT
 62
     2
100
AcDbLine
 10
446.212335
 20
240.128689
 30
0.0
 11
445.712335
 21
239.878689
 31
0.0
  0
LINE
  5
C6
100
AcDbEntity
  8
0
390
0
  6
DOT
 62
     2
100
AcDbLine
 10
445.712335
 20
230.128689
 30
0.0
 11
445.933923
 21
229.907101
 31
0.0
  0
LINE
  5
C7
100
AcDbEntity
  8
0
390
0
  6
Continuous
 62
     7
100
AcDbLine
 10
446.212335
 20
229.628689
 30
0.0
 11
447.212335
 21
228.628689
 31
0.0
  0
LINE
  5
C8
100
AcDbEntity
  8
0
390
0
  6
Continuous
 62
     7
100
AcDbLine
 10
450.212335
 20
228.628689
 30
0.0
 11
451.212335
 21
229.628689
 31
0.0
  0
LINE
  5
C9
100
AcDbEntity
  8
0
390
0
  6
DOT
 62
     2
100
AcDbLine
 10
451.490746
 20
229.907101
 30
0.0
 11
451.712335
 21
230.128689
 31
0.0
  0
LINE
  5
CA
100
AcDbEntity
  8
0
390
0
  6
DOT
 62
     2
100
AcDbLine
 10
450.212335
 20
228.628689
 30
0.0
 11
448.712335
 21
229.495741
 31
0.0
  0
LINE
  5
CB
100
AcDbEntity
  8
0
390
0
  6
DOT
 62
     2
100
AcDbLine
 10
448.712335
 20
229.495741
 30
0.0
 11
447.212335
 21
228.628689
 31
0.0
  0
LINE
  5
CC
100
AcDbEntity
  8
0
390
0
  6
DOT
 62
     2
100
AcDbLine
 10
445.712335
 20
230.512665
 30
0.0
 11
446.135811
 21
230.089188
 31
0.0
  0
LINE
  5
CD
100
AcDbEntity
  8
0
390
0
  6
Continuous
 62
     7
100
AcDbLine
 10
446.212335
 20
230.012665
 30
0.0
 11
447.212335
 21
229.012665
 31
0.0
  0
LINE
  5
CE
100
AcDbEntity
  8
0
390
0
  6
Continuous
 62
     7
100
AcDbLine
 10
450.212335
 20
229.012665
 30
0.0
 11
451.212335
 21
230.012665
 31
0.0
  0
LINE
  5
CF
100
AcDbEntity
  8
0
390
0
  6
DOT
 62
     2
100
AcDbLine
 10
451.288858
 20
230.089188
 30
0.0
 11
451.712335
 21
230.512665
 31
0.0
  0
LINE
  5
D0
100
AcDbEntity
  8
0
390
0
  6
DOT
 62
     2
100
AcDbLine
 10
451.712335
 20
230.512665
 30
0.0
 11
451.712335
 21
240.262665
 31
0.0
  0
LINE
  5
D1
100
AcDbEntity
  8
0
390
0
  6
DOT
 62
     2
100
AcDbLine
 10
445.712335
 20
240.262665
 30
0.0
 11
445.712335
 21
230.512665
 31
0.0
  0
LINE
  5
D2
100
AcDbEntity
  8
0
390
0
  6
DOT
 62
     2
100
AcDbLine
 10
451.712335
 20
240.262665
 30
0.0
 11
451.212335
 21
240.512665
 31
0.0
  0
LINE
  5
D3
100
AcDbEntity
  8
0
390
0
  6
DOT
 62
     2
100
AcDbLine
 10
451.212335
 20
240.512665
 30
0.0
 11
450.212335
 21
241.012665
 31
0.0
  0
LINE
  5
D4
100
AcDbEntity
  8
0
390
0
  6
DOT
 62
     2
100
AcDbLine
 10
447.212335
 20
241.012665
 30
0.0
 11
446.212335
 21
240.512665
 31
0.0
  0
LINE
  5
D5
100
AcDbEntity
  8
0
390
0
  6
DOT
 62
     2
100
AcDbLine
 10
446.212335
 20
240.512665
 30
0.0
 11
445.712335
 21
240.262665
 31
0.0
  0
LINE
  5
D6
100
AcDbEntity
  8
0
390
0
  6
DOT
 62
     2
100
AcDbLine
 10
450.212335
 20
229.012665
 30
0.0
 11
448.712335
 21
229.879717
 31
0.0
  0
LINE
  5
D7
100
AcDbEntity
  8
0
390
0
  6
DOT
 62
     2
100
AcDbLine
 10
448.712335
 20
229.879717
 30
0.0
 11
447.212335
 21
229.012665
 31
0.0
  0
LINE
  5
D8
100
AcDbEntity
  8
0
390
0
  6
DOT
 62
     2
100
AcDbLine
 10
446.212335
 20
241.125179
 30
0.0
 11
446.212335
 21
240.512665
 31
0.0
  0
LINE
  5
D9
100
AcDbEntity
  8
0
390
0
  6
DOT
 62
     2
100
AcDbLine
 10
446.212335
 20
240.512665
 30
0.0
 11
446.212335
 21
240.262685
 31
0.0
  0
LINE
  5
DA
100
AcDbEntity
  8
0
390
0
  6
DOT
 62
     2
100
AcDbLine
 10
451.212335
 20
240.262685
 30
0.0
 11
451.212335
 21
240.512665
 31
0.0
  0
LINE
  5
DB
100
AcDbEntity
  8
0
390
0
  6
DOT
 62
     2
100
AcDbLine
 10
451.212335
 20
240.512665
 30
0.0
 11
451.212335
 21
241.125224
 31
0.0
  0
LINE
  5
DD
100
AcDbEntity
  8
0
390
0
  6
CENTER
 62
     1
100
AcDbLine
 10
396.712335
 20
211.229527
 30
0.0
 11
500.712335
 21
211.229527
 31
0.0
  0
INSERT
  5
F2
100
AcDbEntity
  8
0
390
0
100
AcDbBlockReference
  2
AID365
 10
0.0
 20
0.0
 30
0.0
  0
LINE
  5
F3
100
AcDbEntity
  8
0
390
0
  6
Continuous
 62
     7
100
AcDbLine
 10
585.260065
 20
196.835123
 30
0.0
 11
579.760065
 21
196.835123
 31
0.0
  0
LINE
  5
F4
100
AcDbEntity
  8
0
390
0
  6
Continuous
 62
     7
100
AcDbLine
 10
579.760065
 20
196.835123
 30
0.0
 11
579.760065
 21
187.797688
 31
0.0
  0
LINE
  5
F5
100
AcDbEntity
  8
0
390
0
  6
Continuous
 62
     7
100
AcDbLine
 10
585.260065
 20
198.134161
 30
0.0
 11
579.760065
 21
198.134161
 31
0.0
  0
LINE
  5
F6
100
AcDbEntity
  8
0
390
0
  6
Continuous
 62
     7
100
AcDbLine
 10
579.760065
 20
196.835123
 30
0.0
 11
579.760065
 21
198.134161
 31
0.0
  0
LINE
  5
F7
100
AcDbEntity
  8
0
390
0
  6
Continuous
 62
     7
100
AcDbLine
 10
585.260065
 20
210.479527
 30
0.0
 11
579.760065
 21
210.479527
 31
0.0
  0
LINE
  5
F8
100
AcDbEntity
  8
0
390
0
  6
Continuous
 62
     7
100
AcDbLine
 10
579.760065
 20
210.479527
 30
0.0
 11
579.760065
 21
198.134161
 31
0.0
  0
LINE
  5
F9
100
AcDbEntity
  8
0
390
0
  6
Continuous
 62
     7
100
AcDbLine
 10
585.260065
 20
211.979527
 30
0.0
 11
579.760065
 21
211.979527
 31
0.0
  0
LINE
  5
FA
100
AcDbEntity
  8
0
390
0
  6
Continuous
 62
     7
100
AcDbLine
 10
585.260065
 20
224.324894
 30
0.0
 11
579.760065
 21
224.324894
 31
0.0
  0
LINE
  5
FB
100
AcDbEntity
  8
0
390
0
  6
Continuous
 62
     7
100
AcDbLine
 10
579.760065
 20
224.324894
 30
0.0
 11
579.760065
 21
211.979527
 31
0.0
  0
LINE
  5
FC
100
AcDbEntity
  8
0
390
0
  6
Continuous
 62
     7
100
AcDbLine
 10
585.260065
 20
234.661367
 30
0.0
 11
579.760065
 21
234.661367
 31
0.0
  0
LINE
  5
FD
100
AcDbEntity
  8
0
390
0
  6
Continuous
 62
     7
100
AcDbLine
 10
579.760065
 20
234.661367
 30
0.0
 11
579.760065
 21
235.411367
 31
0.0
  0
LINE
  5
FE
100
AcDbEntity
  8
0
390
0
  6
Continuous
 62
     7
100
AcDbLine
 10
585.260065
 20
225.623932
 30
0.0
 11
579.760065
 21
225.623932
 31
0.0
  0
LINE
  5
FF
100
AcDbEntity
  8
0
390
0
  6
Continuous
 62
     7
100
AcDbLine
 10
579.760065
 20
234.661367
 30
0.0
 11
579.760065
 21
225.623932
 31
0.0
  0
LINE
  5
100
100
AcDbEntity
  8
0
390
0
  6
Continuous
 62
     7
100
AcDbLine
 10
585.760065
 20
238.719298
 30
0.0
 11
579.760065
 21
238.719298
 31
0.0
  0
LINE
  5
101
100
AcDbEntity
  8
0
390
0
  6
Continuous
 62
     7
100
AcDbLine
 10
579.760065
 20
238.719298
 30
0.0
 11
579.760065
 21
258.723606
 31
0.0
  0
LINE
  5
102
100
AcDbEntity
  8
0
390
0
  6
Continuous
 62
     7
100
AcDbLine
 10
585.260065
 20
235.411367
 30
0.0
 11
579.760065
 21
235.411367
 31
0.0
  0
LINE
  5
103
100
AcDbEntity
  8
0
390
0
  6
Continuous
 62
     7
100
AcDbLine
 10
579.760065
 20
238.719298
 30
0.0
 11
579.760065
 21
235.411367
 31
0.0
  0
LINE
  5
104
100
AcDbEntity
  8
0
390
0
  6
Continuous
 62
     7
100
AcDbLine
 10
587.760065
 20
161.229527
 30
0.0
 11
585.760065
 21
161.229527
 31
0.0
  0
LINE
  5
105
100
AcDbEntity
  8
0
390
0
  6
Continuous
 62
     7
100
AcDbLine
 10
585.760065
 20
186.229527
 30
0.0
 11
585.760065
 21
161.229527
 31
0.0
  0
LINE
  5
106
100
AcDbEntity
  8
0
390
0
  6
Continuous
 62
     7
100
AcDbLine
 10
587.760065
 20
186.229527
 30
0.0
 11
587.760065
 21
161.229527
 31
0.0
  0
LINE
  5
107
100
AcDbEntity
  8
0
390
0
  6
Continuous
 62
     7
100
AcDbLine
 10
585.760065
 20
236.229527
 30
0.0
 11
587.760065
 21
236.229527
 31
0.0
  0
LINE
  5
108
100
AcDbEntity
  8
0
390
0
  6
Continuous
 62
     7
100
AcDbLine
 10
587.760065
 20
186.229527
 30
0.0
 11
585.760065
 21
186.229527
 31
0.0
  0
LINE
  5
109
100
AcDbEntity
  8
0
390
0
  6
Continuous
 62
     7
100
AcDbLine
 10
585.760065
 20
261.229527
 30
0.0
 11
587.760065
 21
261.229527
 31
0.0
  0
LINE
  5
10A
100
AcDbEntity
  8
0
390
0
  6
Continuous
 62
     7
100
AcDbLine
 10
587.760065
 20
261.229527
 30
0.0
 11
587.760065
 21
236.229527
 31
0.0
  0
LINE
  5
10B
100
AcDbEntity
  8
0
390
0
  6
Continuous
 62
     7
100
AcDbLine
 10
585.760065
 20
261.229527
 30
0.0
 11
585.760065
 21
236.229527
 31
0.0
  0
LINE
  5
10C
100
AcDbEntity
  8
0
390
0
  6
Continuous
 62
     7
100
AcDbLine
 10
564.260065
 20
196.835123
 30
0.0
 11
569.760065
 21
196.835123
 31
0.0
  0
LINE
  5
10D
100
AcDbEntity
  8
0
390
0
  6
Continuous
 62
     7
100
AcDbLine
 10
569.760065
 20
196.835123
 30
0.0
 11
569.760065
 21
187.797688
 31
0.0
  0
LINE
  5
10E
100
AcDbEntity
  8
0
390
0
  6
Continuous
 62
     7
100
AcDbLine
 10
564.260065
 20
198.134161
 30
0.0
 11
569.760065
 21
198.134161
 31
0.0
  0
LINE
  5
10F
100
AcDbEntity
  8
0
390
0
  6
Continuous
 62
     7
100
AcDbLine
 10
569.760065
 20
196.835123
 30
0.0
 11
569.760065
 21
198.134161
 31
0.0
  0
LINE
  5
110
100
AcDbEntity
  8
0
390
0
  6
Continuous
 62
     7
100
AcDbLine
 10
564.260065
 20
210.479527
 30
0.0
 11
569.760065
 21
210.479527
 31
0.0
  0
LINE
  5
111
100
AcDbEntity
  8
0
390
0
  6
Continuous
 62
     7
100
AcDbLine
 10
569.760065
 20
210.479527
 30
0.0
 11
569.760065
 21
198.134161
 31
0.0
  0
LINE
  5
112
100
AcDbEntity
  8
0
390
0
  6
Continuous
 62
     7
100
AcDbLine
 10
564.260065
 20
211.979527
 30
0.0
 11
569.760065
 21
211.979527
 31
0.0
  0
LINE
  5
113
100
AcDbEntity
  8
0
390
0
  6
Continuous
 62
     7
100
AcDbLine
 10
564.260065
 20
224.324894
 30
0.0
 11
569.760065
 21
224.324894
 31
0.0
  0
LINE
  5
114
100
AcDbEntity
  8
0
390
0
  6
Continuous
 62
     7
100
AcDbLine
 10
569.760065
 20
224.324894
 30
0.0
 11
569.760065
 21
211.979527
 31
0.0
  0
LINE
  5
115
100
AcDbEntity
  8
0
390
0
  6
Continuous
 62
     7
100
AcDbLine
 10
564.260065
 20
225.623932
 30
0.0
 11
569.760065
 21
225.623932
 31
0.0
  0
LINE
  5
116
100
AcDbEntity
  8
0
390
0
  6
Continuous
 62
     7
100
AcDbLine
 10
564.260065
 20
234.661367
 30
0.0
 11
569.760065
 21
234.661367
 31
0.0
  0
LINE
  5
117
100
AcDbEntity
  8
0
390
0
  6
Continuous
 62
     7
100
AcDbLine
 10
569.760065
 20
234.661367
 30
0.0
 11
569.760065
 21
225.623932
 31
0.0
  0
LINE
  5
118
100
AcDbEntity
  8
0
390
0
  6
Continuous
 62
     7
100
AcDbLine
 10
569.760065
 20
234.661367
 30
0.0
 11
569.760065
 21
235.411367
 31
0.0
  0
LINE
  5
119
100
AcDbEntity
  8
0
390
0
  6
Continuous
 62
     7
100
AcDbLine
 10
564.260065
 20
235.411367
 30
0.0
 11
569.760065
 21
235.411367
 31
0.0
  0
LINE
  5
11A
100
AcDbEntity
  8
0
390
0
  6
Continuous
 62
     7
100
AcDbLine
 10
563.760065
 20
238.719298
 30
0.0
 11
569.760065
 21
238.719298
 31
0.0
  0
LINE
  5
11B
100
AcDbEntity
  8
0
390
0
  6
Continuous
 62
     7
100
AcDbLine
 10
569.760065
 20
238.719298
 30
0.0
 11
569.760065
 21
235.411367
 31
0.0
  0
LINE
  5
11C
100
AcDbEntity
  8
0
390
0
  6
Continuous
 62
     7
100
AcDbLine
 10
569.760065
 20
238.719298
 30
0.0
 11
569.760065
 21
258.723606
 31
0.0
  0
LINE
  5
11D
100
AcDbEntity
  8
0
390
0
  6
Continuous
 62
     7
100
AcDbLine
 10
563.760065
 20
186.229527
 30
0.0
 11
561.760065
 21
186.229527
 31
0.0
  0
LINE
  5
11E
100
AcDbEntity
  8
0
390
0
  6
Continuous
 62
     7
100
AcDbLine
 10
561.760065
 20
236.229527
 30
0.0
 11
563.760065
 21
236.229527
 31
0.0
  0
LINE
  5
11F
100
AcDbEntity
  8
0
390
0
  6
Continuous
 62
     7
100
AcDbLine
 10
561.760065
 20
261.229527
 30
0.0
 11
563.760065
 21
261.229527
 31
0.0
  0
LINE
  5
120
100
AcDbEntity
  8
0
390
0
  6
Continuous
 62
     7
100
AcDbLine
 10
563.760065
 20
236.229527
 30
0.0
 11
563.760065
 21
261.229527
 31
0.0
  0
LINE
  5
121
100
AcDbEntity
  8
0
390
0
  6
Continuous
 62
     7
100
AcDbLine
 10
561.760065
 20
236.229527
 30
0.0
 11
561.760065
 21
261.229527
 31
0.0
  0
LINE
  5
122
100
AcDbEntity
  8
0
390
0
  6
Continuous
 62
     7
100
AcDbLine
 10
563.760065
 20
161.229527
 30
0.0
 11
561.760065
 21
161.229527
 31
0.0
  0
LINE
  5
123
100
AcDbEntity
  8
0
390
0
  6
Continuous
 62
     7
100
AcDbLine
 10
563.760065
 20
161.229527
 30
0.0
 11
563.760065
 21
186.229527
 31
0.0
  0
LINE
  5
124
100
AcDbEntity
  8
0
390
0
  6
Continuous
 62
     7
100
AcDbLine
 10
561.760065
 20
161.229527
 30
0.0
 11
561.760065
 21
186.229527
 31
0.0
  0
LINE
  5
125
100
AcDbEntity
  8
0
390
0
  6
Continuous
 62
     7
100
AcDbLine
 10
611.76007
 20
239.878689
 30
0.0
 11
608.760065
 21
239.878689
 31
0.0
  0
LINE
  5
126
100
AcDbEntity
  8
0
390
0
  6
Continuous
 62
     7
100
AcDbLine
 10
608.760065
 20
239.878689
 30
0.0
 11
605.76006
 21
239.878689
 31
0.0
  0
LINE
  5
127
100
AcDbEntity
  8
0
390
0
  6
Continuous
 62
     7
100
AcDbLine
 10
611.760065
 20
239.878689
 30
0.0
 11
608.760065
 21
239.878689
 31
0.0
  0
POLYLINE
  5
128
100
AcDbEntity
  8
0
390
0
  6
Continuous
 62
     7
100
AcDb2dPolyline
 66
     1
 10
0.0
 20
0.0
 30
0.0
 40
0.1
 41
0.1
  0
VERTEX
  5
129
100
AcDbEntity
  8
0
390
0
 62
     7
100
AcDbVertex
100
AcDb2dVertex
 10
610.492115
 20
240.512664
 30
0.0
  0
VERTEX
  5
12A
100
AcDbEntity
  8
0
390
0
 62
     7
100
AcDbVertex
100
AcDb2dVertex
 10
610.396449
 20
240.556285
 30
0.0
  0
VERTEX
  5
12B
100
AcDbEntity
  8
0
390
0
 62
     7
100
AcDbVertex
100
AcDb2dVertex
 10
610.299829
 20
240.590967
 30
0.0
  0
VERTEX
  5
12C
100
AcDbEntity
  8
0
390
0
 62
     7
100
AcDbVertex
100
AcDb2dVertex
 10
610.202497
 20
240.615104
 30
0.0
  0
VERTEX
  5
12D
100
AcDbEntity
  8
0
390
0
 62
     7
100
AcDbVertex
100
AcDb2dVertex
 10
610.126902
 20
240.625506
 30
0.0
  0
VERTEX
  5
12E
100
AcDbEntity
  8
0
390
0
 62
     7
100
AcDbVertex
100
AcDb2dVertex
 10
610.05105
 20
240.628424
 30
0.0
  0
VERTEX
  5
12F
100
AcDbEntity
  8
0
390
0
 62
     7
100
AcDbVertex
100
AcDb2dVertex
 10
609.975216
 20
240.623889
 30
0.0
  0
VERTEX
  5
130
100
AcDbEntity
  8
0
390
0
 62
     7
100
AcDbVertex
100
AcDb2dVertex
 10
609.899677
 20
240.611932
 30
0.0
  0
VERTEX
  5
131
100
AcDbEntity
  8
0
390
0
 62
     7
100
AcDbVertex
100
AcDb2dVertex
 10
609.830832
 20
240.594716
 30
0.0
  0
VERTEX
  5
132
100
AcDbEntity
  8
0
390
0
 62
     7
100
AcDbVertex
100
AcDb2dVertex
 10
609.762373
 20
240.572123
 30
0.0
  0
VERTEX
  5
133
100
AcDbEntity
  8
0
390
0
 62
     7
100
AcDbVertex
100
AcDb2dVertex
 10
609.693999
 20
240.544543
 30
0.0
  0
VERTEX
  5
134
100
AcDbEntity
  8
0
390
0
 62
     7
100
AcDbVertex
100
AcDb2dVertex
 10
609.62609
 20
240.512664
 30
0.0
  0
SEQEND
  5
135
100
AcDbEntity
  8
0
390
0
  0
POLYLINE
  5
136
100
AcDbEntity
  8
0
390
0
  6
Continuous
 62
     7
100
AcDb2dPolyline
 66
     1
 10
0.0
 20
0.0
 30
0.0
 40
0.1
 41
0.1
  0
VERTEX
  5
137
100
AcDbEntity
  8
0
390
0
 62
     7
100
AcDbVertex
100
AcDb2dVertex
 10
607.894039
 20
240.512664
 30
0.0
  0
VERTEX
  5
138
100
AcDbEntity
  8
0
390
0
 62
     7
100
AcDbVertex
100
AcDb2dVertex
 10
607.798372
 20
240.556285
 30
0.0
  0
VERTEX
  5
139
100
AcDbEntity
  8
0
390
0
 62
     7
100
AcDbVertex
100
AcDb2dVertex
 10
607.701753
 20
240.590967
 30
0.0
  0
VERTEX
  5
13A
100
AcDbEntity
  8
0
390
0
 62
     7
100
AcDbVertex
100
AcDb2dVertex
 10
607.604421
 20
240.615104
 30
0.0
  0
VERTEX
  5
13B
100
AcDbEntity
  8
0
390
0
 62
     7
100
AcDbVertex
100
AcDb2dVertex
 10
607.528826
 20
240.625506
 30
0.0
  0
VERTEX
  5
13C
100
AcDbEntity
  8
0
390
0
 62
     7
100
AcDbVertex
100
AcDb2dVertex
 10
607.452974
 20
240.628424
 30
0.0
  0
VERTEX
  5
13D
100
AcDbEntity
  8
0
390
0
 62
     7
100
AcDbVertex
100
AcDb2dVertex
 10
607.37714
 20
240.623889
 30
0.0
  0
VERTEX
  5
13E
100
AcDbEntity
  8
0
390
0
 62
     7
100
AcDbVertex
100
AcDb2dVertex
 10
607.301601
 20
240.611932
 30
0.0
  0
VERTEX
  5
13F
100
AcDbEntity
  8
0
390
0
 62
     7
100
AcDbVertex
100
AcDb2dVertex
 10
607.232756
 20
240.594716
 30
0.0
  0
VERTEX
  5
140
100
AcDbEntity
  8
0
390
0
 62
     7
100
AcDbVertex
100
AcDb2dVertex
 10
607.164297
 20
240.572123
 30
0.0
  0
VERTEX
  5
141
100
AcDbEntity
  8
0
390
0
 62
     7
100
AcDbVertex
100
AcDb2dVertex
 10
607.095922
 20
240.544543
 30
0.0
  0
VERTEX
  5
142
100
AcDbEntity
  8
0
390
0
 62
     7
100
AcDbVertex
100
AcDb2dVertex
 10
607.028014
 20
240.512664
 30
0.0
  0
SEQEND
  5
143
100
AcDbEntity
  8
0
390
0
  0
ARC
  5
144
100
AcDbEntity
  8
0
390
0
  6
Continuous
 62
     7
100
AcDbCircle
 10
608.760065
 20
237.336138
 30
0.0
 40
3.292464
210
0.0
220
0.0
230
1.0
100
AcDbArc
 50
74.749916
 51
105.250084
  0
LINE
  5
145
100
AcDbEntity
  8
0
390
0
  6
Continuous
 62
     7
100
AcDbLine
 10
608.760065
 20
239.878689
 30
0.0
 11
605.760065
 21
239.878689
 31
0.0
  0
LINE
  5
146
100
AcDbEntity
  8
0
390
0
  6
Continuous
 62
     7
100
AcDbLine
 10
611.760065
 20
230.128689
 30
0.0
 11
608.760065
 21
230.128689
 31
0.0
  0
LINE
  5
147
100
AcDbEntity
  8
0
390
0
  6
Continuous
 62
     7
100
AcDbLine
 10
608.760065
 20
230.128689
 30
0.0
 11
605.760065
 21
230.128689
 31
0.0
  0
LINE
  5
148
100
AcDbEntity
  8
0
390
0
  6
Continuous
 62
     7
100
AcDbLine
 10
610.260065
 20
228.628689
 30
0.0
 11
608.760065
 21
228.628689
 31
0.0
  0
LINE
  5
149
100
AcDbEntity
  8
0
390
0
  6
Continuous
 62
     7
100
AcDbLine
 10
608.760065
 20
228.628689
 30
0.0
 11
607.260065
 21
228.628689
 31
0.0
  0
LINE
  5
14A
100
AcDbEntity
  8
0
390
0
  6
Continuous
 62
     7
100
AcDbLine
 10
543.76007
 20
240.262665
 30
0.0
 11
540.760065
 21
240.262665
 31
0.0
  0
LINE
  5
14B
100
AcDbEntity
  8
0
390
0
  6
Continuous
 62
     7
100
AcDbLine
 10
540.760065
 20
240.262665
 30
0.0
 11
537.76006
 21
240.262665
 31
0.0
  0
LINE
  5
14C
100
AcDbEntity
  8
0
390
0
  6
Continuous
 62
     7
100
AcDbLine
 10
543.760065
 20
230.512665
 30
0.0
 11
540.760065
 21
230.512665
 31
0.0
  0
LINE
  5
14D
100
AcDbEntity
  8
0
390
0
  6
Continuous
 62
     7
100
AcDbLine
 10
543.760065
 20
240.262665
 30
0.0
 11
540.760065
 21
240.262665
 31
0.0
  0
LINE
  5
14E
100
AcDbEntity
  8
0
390
0
  6
Continuous
 62
     7
100
AcDbLine
 10
540.760065
 20
230.512665
 30
0.0
 11
537.760065
 21
230.512665
 31
0.0
  0
LINE
  5
14F
100
AcDbEntity
  8
0
390
0
  6
Continuous
 62
     7
100
AcDbLine
 10
540.760065
 20
240.262665
 30
0.0
 11
537.760065
 21
240.262665
 31
0.0
  0
POLYLINE
  5
150
100
AcDbEntity
  8
0
390
0
  6
Continuous
 62
     7
100
AcDb2dPolyline
 66
     1
 10
0.0
 20
0.0
 30
0.0
 40
0.1
 41
0.1
  0
VERTEX
  5
151
100
AcDbEntity
  8
0
390
0
 62
     7
100
AcDbVertex
100
AcDb2dVertex
 10
542.492115
 20
240.896639
 30
0.0
  0
VERTEX
  5
152
100
AcDbEntity
  8
0
390
0
 62
     7
100
AcDbVertex
100
AcDb2dVertex
 10
542.396449
 20
240.94026
 30
0.0
  0
VERTEX
  5
153
100
AcDbEntity
  8
0
390
0
 62
     7
100
AcDbVertex
100
AcDb2dVertex
 10
542.299829
 20
240.974942
 30
0.0
  0
VERTEX
  5
154
100
AcDbEntity
  8
0
390
0
 62
     7
100
AcDbVertex
100
AcDb2dVertex
 10
542.202497
 20
240.99908
 30
0.0
  0
VERTEX
  5
155
100
AcDbEntity
  8
0
390
0
 62
     7
100
AcDbVertex
100
AcDb2dVertex
 10
542.126902
 20
241.009482
 30
0.0
  0
VERTEX
  5
156
100
AcDbEntity
  8
0
390
0
 62
     7
100
AcDbVertex
100
AcDb2dVertex
 10
542.05105
 20
241.012399
 30
0.0
  0
VERTEX
  5
157
100
AcDbEntity
  8
0
390
0
 62
     7
100
AcDbVertex
100
AcDb2dVertex
 10
541.975216
 20
241.007864
 30
0.0
  0
VERTEX
  5
158
100
AcDbEntity
  8
0
390
0
 62
     7
100
AcDbVertex
100
AcDb2dVertex
 10
541.899677
 20
240.995907
 30
0.0
  0
VERTEX
  5
159
100
AcDbEntity
  8
0
390
0
 62
     7
100
AcDbVertex
100
AcDb2dVertex
 10
541.830832
 20
240.978691
 30
0.0
  0
VERTEX
  5
15A
100
AcDbEntity
  8
0
390
0
 62
     7
100
AcDbVertex
100
AcDb2dVertex
 10
541.762373
 20
240.956099
 30
0.0
  0
VERTEX
  5
15B
100
AcDbEntity
  8
0
390
0
 62
     7
100
AcDbVertex
100
AcDb2dVertex
 10
541.693999
 20
240.928518
 30
0.0
  0
VERTEX
  5
15C
100
AcDbEntity
  8
0
390
0
 62
     7
100
AcDbVertex
100
AcDb2dVertex
 10
541.62609
 20
240.896639
 30
0.0
  0
SEQEND
  5
15D
100
AcDbEntity
  8
0
390
0
  0
POLYLINE
  5
15E
100
AcDbEntity
  8
0
390
0
  6
Continuous
 62
     7
100
AcDb2dPolyline
 66
     1
 10
0.0
 20
0.0
 30
0.0
 40
0.1
 41
0.1
  0
VERTEX
  5
15F
100
AcDbEntity
  8
0
390
0
 62
     7
100
AcDbVertex
100
AcDb2dVertex
 10
539.894039
 20
240.896639
 30
0.0
  0
VERTEX
  5
160
100
AcDbEntity
  8
0
390
0
 62
     7
100
AcDbVertex
100
AcDb2dVertex
 10
539.798372
 20
240.94026
 30
0.0
  0
VERTEX
  5
161
100
AcDbEntity
  8
0
390
0
 62
     7
100
AcDbVertex
100
AcDb2dVertex
 10
539.701753
 20
240.974942
 30
0.0
  0
VERTEX
  5
162
100
AcDbEntity
  8
0
390
0
 62
     7
100
AcDbVertex
100
AcDb2dVertex
 10
539.604421
 20
240.99908
 30
0.0
  0
VERTEX
  5
163
100
AcDbEntity
  8
0
390
0
 62
     7
100
AcDbVertex
100
AcDb2dVertex
 10
539.528826
 20
241.009482
 30
0.0
  0
VERTEX
  5
164
100
AcDbEntity
  8
0
390
0
 62
     7
100
AcDbVertex
100
AcDb2dVertex
 10
539.452974
 20
241.012399
 30
0.0
  0
VERTEX
  5
165
100
AcDbEntity
  8
0
390
0
 62
     7
100
AcDbVertex
100
AcDb2dVertex
 10
539.37714
 20
241.007864
 30
0.0
  0
VERTEX
  5
166
100
AcDbEntity
  8
0
390
0
 62
     7
100
AcDbVertex
100
AcDb2dVertex
 10
539.301601
 20
240.995907
 30
0.0
  0
VERTEX
  5
167
100
AcDbEntity
  8
0
390
0
 62
     7
100
AcDbVertex
100
AcDb2dVertex
 10
539.232756
 20
240.978691
 30
0.0
  0
VERTEX
  5
168
100
AcDbEntity
  8
0
390
0
 62
     7
100
AcDbVertex
100
AcDb2dVertex
 10
539.164297
 20
240.956099
 30
0.0
  0
VERTEX
  5
169
100
AcDbEntity
  8
0
390
0
 62
     7
100
AcDbVertex
100
AcDb2dVertex
 10
539.095922
 20
240.928518
 30
0.0
  0
VERTEX
  5
16A
100
AcDbEntity
  8
0
390
0
 62
     7
100
AcDbVertex
100
AcDb2dVertex
 10
539.028014
 20
240.896639
 30
0.0
  0
SEQEND
  5
16B
100
AcDbEntity
  8
0
390
0
  0
ARC
  5
16C
100
AcDbEntity
  8
0
390
0
  6
Continuous
 62
     7
100
AcDbCircle
 10
540.760065
 20
237.720113
 30
0.0
 40
3.292464
210
0.0
220
0.0
230
1.0
100
AcDbArc
 50
74.749916
 51
105.250084
  0
LINE
  5
16D
100
AcDbEntity
  8
0
390
0
  6
Continuous
 62
     7
100
AcDbLine
 10
542.260065
 20
229.012665
 30
0.0
 11
540.760065
 21
229.012665
 31
0.0
  0
LINE
  5
16E
100
AcDbEntity
  8
0
390
0
  6
Continuous
 62
     7
100
AcDbLine
 10
540.760065
 20
229.012665
 30
0.0
 11
539.260065
 21
229.012665
 31
0.0
  0
LINE
  5
16F
100
AcDbEntity
  8
0
390
0
  6
Continuous
 62
     2
100
AcDbLine
 10
605.76007
 20
231.029527
 30
0.0
 11
605.76007
 21
239.878692
 31
0.0
  0
LINE
  5
170
100
AcDbEntity
  8
0
390
0
  6
Continuous
 62
     2
100
AcDbLine
 10
605.76007
 20
239.878709
 30
0.0
 11
605.76007
 21
241.229527
 31
0.0
  0
LINE
  5
171
100
AcDbEntity
  8
0
390
0
  6
Continuous
 62
     2
100
AcDbLine
 10
611.76006
 20
241.229527
 30
0.0
 11
611.76006
 21
239.878709
 31
0.0
  0
LINE
  5
172
100
AcDbEntity
  8
0
390
0
  6
Continuous
 62
     2
100
AcDbLine
 10
611.76006
 20
239.878692
 30
0.0
 11
611.76006
 21
231.029527
 31
0.0
  0
LINE
  5
173
100
AcDbEntity
  8
0
390
0
  6
Continuous
 62
     7
100
AcDbLine
 10
618.760065
 20
198.229527
 30
0.0
 11
618.760065
 21
181.229527
 31
0.0
  0
LINE
  5
174
100
AcDbEntity
  8
0
390
0
  6
Continuous
 62
     7
100
AcDbLine
 10
587.760065
 20
161.229527
 30
0.0
 11
597.760065
 21
161.229527
 31
0.0
  0
LINE
  5
175
100
AcDbEntity
  8
0
390
0
  6
Continuous
 62
     7
100
AcDbLine
 10
597.760065
 20
261.229527
 30
0.0
 11
587.760065
 21
261.229527
 31
0.0
  0
LINE
  5
176
100
AcDbEntity
  8
0
390
0
  6
Continuous
 62
     7
100
AcDbLine
 10
618.760065
 20
241.229527
 30
0.0
 11
618.760065
 21
231.029527
 31
0.0
  0
LINE
  5
177
100
AcDbEntity
  8
0
390
0
  6
Continuous
 62
     2
100
AcDbLine
 10
537.76007
 20
231.029527
 30
0.0
 11
537.76007
 21
240.262667
 31
0.0
  0
LINE
  5
178
100
AcDbEntity
  8
0
390
0
  6
Continuous
 62
     2
100
AcDbLine
 10
537.76007
 20
240.262684
 30
0.0
 11
537.76007
 21
241.229527
 31
0.0
  0
LINE
  5
179
100
AcDbEntity
  8
0
390
0
  6
Continuous
 62
     2
100
AcDbLine
 10
543.76006
 20
241.229527
 30
0.0
 11
543.76006
 21
240.262684
 31
0.0
  0
LINE
  5
17A
100
AcDbEntity
  8
0
390
0
  6
Continuous
 62
     2
100
AcDbLine
 10
543.76006
 20
240.262667
 30
0.0
 11
543.76006
 21
231.029527
 31
0.0
  0
LINE
  5
17B
100
AcDbEntity
  8
0
390
0
  6
Continuous
 62
     7
100
AcDbLine
 10
530.760065
 20
181.229527
 30
0.0
 11
530.760065
 21
198.229527
 31
0.0
  0
LINE
  5
17C
100
AcDbEntity
  8
0
390
0
  6
Continuous
 62
     7
100
AcDbLine
 10
551.760065
 20
161.229527
 30
0.0
 11
561.760065
 21
161.229527
 31
0.0
  0
LINE
  5
17D
100
AcDbEntity
  8
0
390
0
  6
Continuous
 62
     7
100
AcDbLine
 10
530.760065
 20
231.029527
 30
0.0
 11
530.760065
 21
241.229527
 31
0.0
  0
LINE
  5
17E
100
AcDbEntity
  8
0
390
0
  6
Continuous
 62
     7
100
AcDbLine
 10
561.760065
 20
261.229527
 30
0.0
 11
551.760065
 21
261.229527
 31
0.0
  0
LINE
  5
17F
100
AcDbEntity
  8
0
390
0
  6
Continuous
 62
     7
100
AcDbLine
 10
611.760065
 20
239.878689
 30
0.0
 11
610.492115
 21
240.512664
 31
0.0
  0
LINE
  5
180
100
AcDbEntity
  8
0
390
0
  6
Continuous
 62
     7
100
AcDbLine
 10
607.028014
 20
240.512664
 30
0.0
 11
605.760065
 21
239.878689
 31
0.0
  0
LINE
  5
181
100
AcDbEntity
  8
0
390
0
  6
Continuous
 62
     7
100
AcDbLine
 10
611.760065
 20
231.029527
 30
0.0
 11
611.760065
 21
239.878689
 31
0.0
  0
LINE
  5
182
100
AcDbEntity
  8
0
390
0
  6
Continuous
 62
     7
100
AcDbLine
 10
605.760065
 20
239.878689
 30
0.0
 11
605.760065
 21
231.029527
 31
0.0
  0
LINE
  5
183
100
AcDbEntity
  8
0
390
0
  6
Continuous
 62
     7
100
AcDbLine
 10
605.760065
 20
230.128689
 30
0.0
 11
606.260065
 21
229.628689
 31
0.0
  0
LINE
  5
184
100
AcDbEntity
  8
0
390
0
  6
Continuous
 62
     7
100
AcDbLine
 10
606.260065
 20
229.628689
 30
0.0
 11
607.260065
 21
228.628689
 31
0.0
  0
LINE
  5
185
100
AcDbEntity
  8
0
390
0
  6
Continuous
 62
     7
100
AcDbLine
 10
610.260065
 20
228.628689
 30
0.0
 11
611.260065
 21
229.628689
 31
0.0
  0
LINE
  5
186
100
AcDbEntity
  8
0
390
0
  6
Continuous
 62
     7
100
AcDbLine
 10
611.260065
 20
229.628689
 30
0.0
 11
611.760065
 21
230.128689
 31
0.0
  0
LINE
  5
187
100
AcDbEntity
  8
0
390
0
  6
Continuous
 62
     7
100
AcDbLine
 10
543.760065
 20
231.029527
 30
0.0
 11
543.760065
 21
240.262665
 31
0.0
  0
LINE
  5
188
100
AcDbEntity
  8
0
390
0
  6
Continuous
 62
     7
100
AcDbLine
 10
537.760065
 20
240.262665
 30
0.0
 11
537.760065
 21
231.029527
 31
0.0
  0
LINE
  5
189
100
AcDbEntity
  8
0
390
0
  6
Continuous
 62
     7
100
AcDbLine
 10
543.760065
 20
240.262665
 30
0.0
 11
542.492115
 21
240.896639
 31
0.0
  0
LINE
  5
18A
100
AcDbEntity
  8
0
390
0
  6
Continuous
 62
     7
100
AcDbLine
 10
539.028014
 20
240.896639
 30
0.0
 11
537.760065
 21
240.262665
 31
0.0
  0
LINE
  5
18B
100
AcDbEntity
  8
0
390
0
  6
Continuous
 62
     7
100
AcDbLine
 10
537.760065
 20
230.512665
 30
0.0
 11
538.260065
 21
230.012665
 31
0.0
  0
LINE
  5
18C
100
AcDbEntity
  8
0
390
0
  6
Continuous
 62
     7
100
AcDbLine
 10
538.260065
 20
230.012665
 30
0.0
 11
539.260065
 21
229.012665
 31
0.0
  0
LINE
  5
18D
100
AcDbEntity
  8
0
390
0
  6
Continuous
 62
     7
100
AcDbLine
 10
542.260065
 20
229.012665
 30
0.0
 11
543.260065
 21
230.012665
 31
0.0
  0
LINE
  5
18E
100
AcDbEntity
  8
0
390
0
  6
Continuous
 62
     7
100
AcDbLine
 10
543.260065
 20
230.012665
 30
0.0
 11
543.760065
 21
230.512665
 31
0.0
  0
HATCH
  5
18F
100
AcDbEntity
  8
0
390
0
 62
     3
100
AcDbHatch
 10
530.76006456547236
 20
231.02952746059475
 30
0.0
210
0.0
220
0.0
230
1.0
  2
ANSI31
 70
     0
 71
     0
 91
        3
 92
        1
 93
        4
 72
     1
 10
530.76006456547236
 20
231.02952746059475
 11
538.26006456547236
 21
231.02952746059475
 72
     1
 10
538.26006456547236
 20
231.02952746059475
 11
538.26006456547236
 21
241.22952746059474
 72
     1
 10
538.26006456547236
 20
241.22952746059474
 11
530.76006456547236
 21
241.22952746059474
 72
     1
 10
530.76006456547236
 20
241.22952746059474
 11
530.76006456547236
 21
231.02952746059475
 97
        0
 92
        1
 93
       10
 72
     1
 10
554.76006456547236
 20
231.02952746059475
 11
554.76006456547236
 21
232.22952746059471
 72
     1
 10
554.76006456547236
 20
232.22952746059471
 11
564.26006456547236
 21
232.22952746059471
 72
     1
 10
564.26006456547236
 20
232.22952746059471
 11
564.26006456547236
 21
236.22952746059471
 72
     1
 10
564.26006456547236
 20
236.22952746059471
 11
561.76006456547236
 21
236.22952746059471
 72
     1
 10
561.76006456547236
 20
236.22952746059471
 11
561.76006456547236
 21
261.22952746059474
 72
     1
 10
561.76006456547236
 20
261.22952746059474
 11
551.76006456547236
 21
261.22952746059474
 72
     1
 10
551.76006456547236
 20
261.22952746059474
 11
551.76006456547236
 21
241.22952746059474
 72
     1
 10
551.76006456547236
 20
241.22952746059474
 11
543.26006456547236
 21
241.22952746059474
 72
     1
 10
543.26006456547236
 20
241.22952746059474
 11
543.26006456547236
 21
231.02952746059475
 72
     1
 10
543.26006456547236
 20
231.02952746059475
 11
554.76006456547236
 21
231.02952746059475
 97
        0
 92
        1
 93
       11
 72
     1
 10
561.76006456547236
 20
161.22952746059471
 11
561.76006456547236
 21
186.22952746059474
 72
     1
 10
561.76006456547236
 20
186.22952746059474
 11
564.26006456547236
 21
186.22952746059474
 72
     1
 10
564.26006456547236
 20
186.22952746059474
 11
564.26006456547236
 21
190.22952746059474
 72
     1
 10
564.26006456547236
 20
190.22952746059474
 11
554.76006456547236
 21
190.22952746059474
 72
     1
 10
554.76006456547236
 20
190.22952746059474
 11
554.76006456547236
 21
198.72952746059471
 72
     1
 10
554.76006456547236
 20
198.72952746059471
 11
531.26006456547236
 21
198.72952746059471
 72
     1
 10
531.26006456547236
 20
198.72952746059471
 11
530.76006456547236
 21
198.22952746059471
 72
     1
 10
530.76006456547236
 20
198.22952746059471
 11
530.76006456547236
 21
181.22952746059474
 72
     1
 10
530.76006456547236
 20
181.22952746059474
 11
551.76006456547236
 21
181.22952746059474
 72
     1
 10
551.76006456547236
 20
181.22952746059474
 11
551.76006456547236
 21
161.22952746059471
 72
     1
 10
551.76006456547236
 20
161.22952746059471
 11
561.76006456547236
 21
161.22952746059471
 97
        0
 75
     0
 76
     1
 52
0.0
 41
33.375
 77
     0
 78
     1
 53
45.0
 43
0.0
 44
0.0
 45
-2.94996110276263
 46
2.9499611027626305
 79
     0
 98
        1
 10
0.0
 20
0.0
  0
HATCH
  5
190
100
AcDbEntity
  8
0
390
0
 62
     3
100
AcDbHatch
 10
618.76006456547236
 20
241.22952746059474
 30
0.0
210
0.0
220
0.0
230
1.0
  2
ANSI31
 70
     0
 71
     0
 91
        3
 92
        1
 93
        4
 72
     1
 10
618.76006456547236
 20
241.22952746059474
 11
611.26006456547236
 21
241.22952746059474
 72
     1
 10
611.26006456547236
 20
241.22952746059474
 11
611.26006456547236
 21
231.02952746059475
 72
     1
 10
611.26006456547236
 20
231.02952746059475
 11
618.76006456547236
 21
231.02952746059475
 72
     1
 10
618.76006456547236
 20
231.02952746059475
 11
618.76006456547236
 21
241.22952746059474
 97
        0
 92
        1
 93
       10
 72
     1
 10
606.26006456547236
 20
231.02952746059475
 11
606.26006456547236
 21
241.22952746059474
 72
     1
 10
606.26006456547236
 20
241.22952746059474
 11
597.76006456547236
 21
241.22952746059474
 72
     1
 10
597.76006456547236
 20
241.22952746059474
 11
597.76006456547236
 21
261.22952746059474
 72
     1
 10
597.76006456547236
 20
261.22952746059474
 11
587.76006456547236
 21
261.22952746059474
 72
     1
 10
587.76006456547236
 20
261.22952746059474
 11
587.76006456547236
 21
236.22952746059471
 72
     1
 10
587.76006456547236
 20
236.22952746059471
 11
585.26006456547225
 21
236.22952746059471
 72
     1
 10
585.26006456547225
 20
236.22952746059471
 11
585.26006456547225
 21
232.22952746059471
 72
     1
 10
585.26006456547225
 20
232.22952746059471
 11
594.76006456547236
 21
232.22952746059471
 72
     1
 10
594.76006456547236
 20
232.22952746059471
 11
594.76006456547236
 21
231.02952746059475
 72
     1
 10
594.76006456547236
 20
231.02952746059475
 11
606.26006456547236
 21
231.02952746059475
 97
        0
 92
        1
 93
       11
 72
     1
 10
587.76006456547236
 20
186.22952746059474
 11
587.76006456547236
 21
161.22952746059471
 72
     1
 10
587.76006456547236
 20
161.22952746059471
 11
597.76006456547236
 21
161.22952746059471
 72
     1
 10
597.76006456547236
 20
161.22952746059471
 11
597.76006456547236
 21
181.22952746059474
 72
     1
 10
597.76006456547236
 20
181.22952746059474
 11
618.76006456547236
 21
181.22952746059474
 72
     1
 10
618.76006456547236
 20
181.22952746059474
 11
618.76006456547236
 21
198.22952746059471
 72
     1
 10
618.76006456547236
 20
198.22952746059471
 11
618.26006456547236
 21
198.72952746059471
 72
     1
 10
618.26006456547236
 20
198.72952746059471
 11
594.76006456547236
 21
198.72952746059471
 72
     1
 10
594.76006456547236
 20
198.72952746059471
 11
594.76006456547236
 21
190.22952746059474
 72
     1
 10
594.76006456547236
 20
190.22952746059474
 11
585.26006456547225
 21
190.22952746059474
 72
     1
 10
585.26006456547225
 20
190.22952746059474
 11
585.26006456547225
 21
186.22952746059474
 72
     1
 10
585.26006456547225
 20
186.22952746059474
 11
587.76006456547236
 21
186.22952746059474
 97
        0
 75
     0
 76
     1
 52
0.0
 41
33.375
 77
     0
 78
     1
 53
45.0
 43
0.0
 44
0.0
 45
-2.94996110276263
 46
2.9499611027626305
 79
     0
 98
        1
 10
0.0
 20
0.0
  0
HATCH
  5
191
100
AcDbEntity
  8
0
390
0
 62
     3
100
AcDbHatch
 10
561.76006456547236
 20
261.22952746059474
 30
0.0
210
0.0
220
0.0
230
1.0
  2
ANSI31
 70
     0
 71
     0
 91
        2
 92
        1
 93
        4
 72
     1
 10
561.76006456547236
 20
261.22952746059474
 11
561.76006456547236
 21
236.22952746059471
 72
     1
 10
561.76006456547236
 20
236.22952746059471
 11
563.76006456547236
 21
236.22952746059471
 72
     1
 10
563.76006456547236
 20
236.22952746059471
 11
563.76006456547236
 21
261.22952746059474
 72
     1
 10
563.76006456547236
 20
261.22952746059474
 11
561.76006456547236
 21
261.22952746059474
 97
        0
 92
        1
 93
        4
 72
     1
 10
563.76006456547236
 20
161.22952746059471
 11
563.76006456547236
 21
186.22952746059474
 72
     1
 10
563.76006456547236
 20
186.22952746059474
 11
561.76006456547236
 21
186.22952746059474
 72
     1
 10
561.76006456547236
 20
186.22952746059474
 11
561.76006456547236
 21
161.22952746059471
 72
     1
 10
561.76006456547236
 20
161.22952746059471
 11
563.76006456547236
 21
161.22952746059471
 97
        0
 75
     0
 76
     1
 52
0.0
 41
25.5
 77
     0
 78
     1
 53
45.0
 43
0.0
 44
0.0
 45
-2.2539028650321207
 46
2.2539028650321211
 79
     0
 98
        1
 10
0.0
 20
0.0
  0
HATCH
  5
192
100
AcDbEntity
  8
0
390
0
 62
     3
100
AcDbHatch
 10
587.76006456547236
 20
161.22952746059471
 30
0.0
210
0.0
220
0.0
230
1.0
  2
ANSI31
 70
     0
 71
     0
 91
        2
 92
        1
 93
        4
 72
     1
 10
587.76006456547236
 20
161.22952746059471
 11
587.76006456547236
 21
186.22952746059474
 72
     1
 10
587.76006456547236
 20
186.22952746059474
 11
585.76006456547236
 21
186.22952746059474
 72
     1
 10
585.76006456547236
 20
186.22952746059474
 11
585.76006456547236
 21
161.22952746059471
 72
     1
 10
585.76006456547236
 20
161.22952746059471
 11
587.76006456547236
 21
161.22952746059471
 97
        0
 92
        1
 93
        4
 72
     1
 10
585.76006456547236
 20
261.22952746059474
 11
585.76006456547236
 21
236.22952746059471
 72
     1
 10
585.76006456547236
 20
236.22952746059471
 11
587.76006456547236
 21
236.22952746059471
 72
     1
 10
587.76006456547236
 20
236.22952746059471
 11
587.76006456547236
 21
261.22952746059474
 72
     1
 10
587.76006456547236
 20
261.22952746059474
 11
585.76006456547236
 21
261.22952746059474
 97
        0
 75
     0
 76
     1
 52
0.0
 41
25.5
 77
     0
 78
     1
 53
45.0
 43
0.0
 44
0.0
 45
-2.2539028650321207
 46
2.2539028650321211
 79
     0
 98
        1
 10
0.0
 20
0.0
  0
INSERT
  5
197
100
AcDbEntity
  8
0
390
0
100
AcDbBlockReference
  2
AID601
 10
0.0
 20
0.0
 30
0.0
  0
DIMENSION
  5
198
100
AcDbEntity
  8
0
390
0
100
AcDbDimension
  2
*D2
 10
444.712335
 20
269.820801
 30
0.0
 11
462.365175
 21
273.285006
 31
0.0
 71
     5
 72
     1
 41
1.0
 42
0.0
  3
Standard
100
AcDbAlignedDimension
 13
444.712335
 23
227.029527
 33
0.0
 14
452.712335
 24
227.029527
 34
0.0
100
AcDbRotatedDimension
1001
ACAD
1000
DSTYLE
1002
{
1070
    47
1040
0.2
1070
    71
1070
     1
1070
    48
1040
0.0
1070
    71
1070
     1
1070
   280
1040
0.0
1070
   271
1070
     1
1070
   179
1070
     1
1002
}
  0
DIMENSION
  5
1AA
100
AcDbEntity
  8
0
390
0
100
AcDbDimension
  2
*D3
 10
393.814029
 20
223.729527
 30
0.0
 11
390.349825
 21
236.642596
 31
0.0
 71
     5
 72
     1
 41
1.0
 42
0.0
  3
Standard
100
AcDbAlignedDimension
 13
448.712335
 23
223.729527
 33
0.0
 14
448.712335
 24
227.029527
 34
0.0
 50
90.0
100
AcDbRotatedDimension
1001
ACAD
1000
DSTYLE
1002
{
1070
    47
1040
0.2
1070
    71
1070
     1
1070
    48
1040
0.0
1070
    71
1070
     1
1070
   280
1040
0.0
1070
   271
1070
     1
1070
   179
1070
     1
1002
}
  0
DIMENSION
  5
1BC
100
AcDbEntity
  8
0
390
0
100
AcDbDimension
  2
*D4
 10
579.760065
 20
288.643267
 30
0.0
 11
599.260065
 21
291.793267
 31
0.0
 71
     5
 72
     1
 41
1.0
 42
0.0
  3
Standard
100
AcDbAlignedDimension
 13
579.760065
 23
258.723606
 33
0.0
 14
618.760065
 24
241.229527
 34
0.0
100
AcDbRotatedDimension
1001
ACAD
1000
DSTYLE
1002
{
1070
    47
1040
0.3
1070
    71
1070
     1
1070
    48
1040
0.3
1070
    71
1070
     1
1070
   271
1070
     1
1070
   179
1070
     1
1002
}
  0
LINE
  5
1CE
100
AcDbEntity
  8
0
390
0
  6
CENTER
 62
     1
100
AcDbLine
 10
608.760067
 20
228.128689
 30
0.0
 11
608.760067
 21
243.229527
 31
0.0
  0
LINE
  5
1CF
100
AcDbEntity
  8
0
390
0
  6
CENTER
 62
     1
100
AcDbLine
 10
540.760065
 20
229.029527
 30
0.0
 11
540.760065
 21
242.262667
 31
0.0
  0
DIMENSION
  5
1D0
100
AcDbEntity
  8
0
390
0
100
AcDbDimension
  2
*D5
 10
579.760065
 20
267.895241
 30
0.0
 11
574.760065
 21
271.037287
 31
0.0
 71
     5
 72
     1
 41
1.0
 42
0.0
  1
AG
  3
Standard
100
AcDbAlignedDimension
 13
579.760065
 23
258.723606
 33
0.0
 14
569.760065
 24
258.723606
 34
0.0
100
AcDbRotatedDimension
1001
ACAD
1000
DSTYLE
1002
{
1070
   271
1070
     1
1070
   179
1070
     1
1002
}
  0
DIMENSION
  5
1E2
100
AcDbEntity
  8
0
390
0
100
AcDbDimension
  2
*D6
 10
657.643562
 20
261.229527
 30
0.0
 11
654.342425
 21
211.229527
 31
0.0
 71
     5
 72
     1
 41
1.0
 42
0.0
  3
Standard
100
AcDbAlignedDimension
 13
597.760065
 23
261.229527
 33
0.0
 14
597.760065
 24
161.229527
 34
0.0
 50
270.0
100
AcDbRotatedDimension
1001
ACAD
1000
DSTYLE
1002
{
1070
     3
1000
%%c<>
1070
   271
1070
     1
1070
   179
1070
     1
1002
}
  0
LINE
  5
1F4
100
AcDbEntity
  8
0
390
0
  6
CENTER
 62
     1
100
AcDbLine
 10
620.760065
 20
211.229527
 30
0.0
 11
528.760065
 21
211.229527
 31
0.0
  0
LINE
  5
1F5
100
AcDbEntity
  8
0
390
0
  6
DOT
 62
     2
100
AcDbLine
 10
451.71234
 20
239.878689
 30
0.0
 11
445.71233
 21
239.878689
 31
0.0
  0
ARC
  5
1F6
100
AcDbEntity
  8
0
390
0
  6
DOT
 62
     2
100
AcDbCircle
 10
448.712335
 20
211.229527
 30
0.0
 40
27.5
210
0.0
220
0.0
230
0.9999999999999999
100
AcDbArc
 50
331.562806
 51
358.437194
  0
LINE
  5
1F7
100
AcDbEntity
  8
0
390
0
  6
DOT
 62
     2
100
AcDbLine
 10
496.206413
 20
210.479527
 30
0.0
 11
478.702958
 21
210.479527
 31
0.0
  0
LINE
  5
1F8
100
AcDbEntity
  8
0
390
0
  6
DOT
 62
     2
100
AcDbLine
 10
478.702958
 20
210.479527
 30
0.0
 11
476.202105
 21
210.479527
 31
0.0
  0
ARC
  5
1F9
100
AcDbEntity
  8
0
390
0
  6
DOT
 62
     2
100
AcDbCircle
 10
448.712335
 20
211.229527
 30
0.0
 40
47.5
210
0.0
220
0.0
230
1.0
100
AcDbArc
 50
330.904708
 51
359.095292
  0
LINE
  5
1FA
100
AcDbEntity
  8
0
390
0
  6
DOT
 62
     2
100
AcDbLine
 10
472.894174
 20
198.134161
 30
0.0
 11
475.059976
 21
196.883735
 31
0.0
  0
LINE
  5
1FB
100
AcDbEntity
  8
0
390
0
  6
DOT
 62
     2
100
AcDbLine
 10
475.059976
 20
196.883735
 30
0.0
 11
490.218413
 21
188.132007
 31
0.0
  0
ARC
  5
1FC
100
AcDbEntity
  8
0
390
0
  6
DOT
 62
     2
100
AcDbCircle
 10
448.712335
 20
211.229527
 30
0.0
 40
27.5
210
0.0
220
0.0
230
0.9999999999999999
100
AcDbArc
 50
301.562806
 51
328.437194
  0
LINE
  5
1FD
100
AcDbEntity
  8
0
390
0
  6
DOT
 62
     2
100
AcDbLine
 10
489.468413
 20
186.832969
 30
0.0
 11
474.309976
 21
195.584697
 31
0.0
  0
LINE
  5
1FE
100
AcDbEntity
  8
0
390
0
  6
DOT
 62
     2
100
AcDbLine
 10
474.309976
 20
195.584697
 30
0.0
 11
472.144174
 21
196.835123
 31
0.0
  0
ARC
  5
1FF
100
AcDbEntity
  8
0
390
0
  6
DOT
 62
     2
100
AcDbCircle
 10
448.712335
 20
211.229527
 30
0.0
 40
47.5
210
0.0
220
0.0
230
1.0
100
AcDbArc
 50
300.904708
 51
329.095292
  0
LINE
  5
200
100
AcDbEntity
  8
0
390
0
  6
DOT
 62
     2
100
AcDbLine
 10
463.106739
 20
187.797688
 30
0.0
 11
464.357165
 21
185.631886
 31
0.0
  0
LINE
  5
201
100
AcDbEntity
  8
0
390
0
  6
DOT
 62
     2
100
AcDbLine
 10
464.357165
 20
185.631886
 30
0.0
 11
473.108893
 21
170.473449
 31
0.0
  0
ARC
  5
202
100
AcDbEntity
  8
0
390
0
  6
DOT
 62
     2
100
AcDbCircle
 10
448.712335
 20
211.229527
 30
0.0
 40
27.5
210
0.0
220
0.0
230
1.0
100
AcDbArc
 50
96.262913
 51
118.437194
  0
ARC
  5
203
100
AcDbEntity
  8
0
390
0
  6
DOT
 62
     2
100
AcDbCircle
 10
448.712335
 20
211.229527
 30
0.0
 40
27.5
210
0.0
220
0.0
230
1.0
100
AcDbArc
 50
95.215909
 51
96.262913
  0
ARC
  5
204
100
AcDbEntity
  8
0
390
0
  6
DOT
 62
     2
100
AcDbCircle
 10
448.712335
 20
211.229527
 30
0.0
 40
27.5
210
0.0
220
0.0
230
1.0
100
AcDbArc
 50
91.562806
 51
95.215909
  0
LINE
  5
205
100
AcDbEntity
  8
0
390
0
  6
DOT
 62
     2
100
AcDbLine
 10
447.962335
 20
241.220151
 30
0.0
 11
447.962335
 21
258.723606
 31
0.0
  0
LINE
  5
206
100
AcDbEntity
  8
0
390
0
  6
DOT
 62
     2
100
AcDbLine
 10
449.462335
 20
241.012089
 30
0.0
 11
449.462335
 21
238.719298
 31
0.0
  0
ARC
  5
207
100
AcDbEntity
  8
0
390
0
  6
DOT
 62
     2
100
AcDbCircle
 10
448.712335
 20
211.229527
 30
0.0
 40
27.5
210
0.0
220
0.0
230
0.9999999999999999
100
AcDbArc
 50
331.562806
 51
358.437194
  0
LINE
  5
208
100
AcDbEntity
  8
0
390
0
  6
DOT
 62
     2
100
AcDbLine
 10
490.218413
 20
188.132007
 30
0.0
 11
475.059976
 21
196.883735
 31
0.0
  0
LINE
  5
209
100
AcDbEntity
  8
0
390
0
  6
DOT
 62
     2
100
AcDbLine
 10
475.059976
 20
196.883735
 30
0.0
 11
472.894174
 21
198.134161
 31
0.0
  0
ARC
  5
20A
100
AcDbEntity
  8
0
390
0
  6
DOT
 62
     2
100
AcDbCircle
 10
448.712335
 20
211.229527
 30
0.0
 40
27.5
210
0.0
220
0.0
230
0.9999999999999999
100
AcDbArc
 50
91.562806
 51
95.215909
  0
ARC
  5
20B
100
AcDbEntity
  8
0
390
0
  6
DOT
 62
     2
100
AcDbCircle
 10
448.712335
 20
211.229527
 30
0.0
 40
27.5
210
0.0
220
0.0
230
1.0
100
AcDbArc
 50
95.215909
 51
96.262913
  0
ARC
  5
20C
100
AcDbEntity
  8
0
390
0
  6
DOT
 62
     2
100
AcDbCircle
 10
448.712335
 20
211.229527
 30
0.0
 40
27.5
210
0.0
220
0.0
230
1.0
100
AcDbArc
 50
96.262913
 51
118.437194
  0
LINE
  5
20D
100
AcDbEntity
  8
0
390
0
  6
DOT
 62
     2
100
AcDbLine
 10
447.962335
 20
241.012089
 30
0.0
 11
447.962335
 21
238.719298
 31
0.0
  0
LINE
  5
20E
100
AcDbEntity
  8
0
390
0
  6
DOT
 62
     2
100
AcDbLine
 10
449.462335
 20
241.220151
 30
0.0
 11
449.462335
 21
258.723606
 31
0.0
  0
ARC
  5
20F
100
AcDbEntity
  8
0
390
0
  6
DOT
 62
     2
100
AcDbCircle
 10
448.712335
 20
211.229527
 30
0.0
 40
27.5
210
0.0
220
0.0
230
1.0
100
AcDbArc
 50
301.562806
 51
328.437194
  0
LINE
  5
210
100
AcDbEntity
  8
0
390
0
  6
DOT
 62
     2
100
AcDbLine
 10
473.108893
 20
170.473449
 30
0.0
 11
464.357165
 21
185.631886
 31
0.0
  0
LINE
  5
211
100
AcDbEntity
  8
0
390
0
  6
DOT
 62
     2
100
AcDbLine
 10
464.357165
 20
185.631886
 30
0.0
 11
463.106739
 21
187.797688
 31
0.0
  0
ARC
  5
212
100
AcDbEntity
  8
0
390
0
  6
DOT
 62
     2
100
AcDbCircle
 10
448.712335
 20
211.229527
 30
0.0
 40
47.5
210
0.0
220
0.0
230
1.0
100
AcDbArc
 50
300.904708
 51
329.095292
  0
CIRCLE
  5
213
100
AcDbEntity
  8
0
390
0
  6
DOT
 62
     2
100
AcDbCircle
 10
448.712335
 20
211.229527
 30
0.0
 40
25.0
210
0.0
220
0.0
230
1.0
  0
LINE
  5
214
100
AcDbEntity
  8
0
390
0
  6
DOT
 62
     2
100
AcDbLine
 10
476.202105
 20
210.479527
 30
0.0
 11
478.702958
 21
210.479527
 31
0.0
  0
LINE
  5
215
100
AcDbEntity
  8
0
390
0
  6
DOT
 62
     2
100
AcDbLine
 10
478.702958
 20
210.479527
 30
0.0
 11
496.206413
 21
210.479527
 31
0.0
  0
LINE
  5
216
100
AcDbEntity
  8
0
390
0
  6
DOT
 62
     2
100
AcDbLine
 10
472.144174
 20
196.835123
 30
0.0
 11
474.309976
 21
195.584697
 31
0.0
  0
LINE
  5
217
100
AcDbEntity
  8
0
390
0
  6
DOT
 62
     2
100
AcDbLine
 10
474.309976
 20
195.584697
 30
0.0
 11
489.468413
 21
186.832969
 31
0.0
  0
ARC
  5
218
100
AcDbEntity
  8
0
390
0
  6
DOT
 62
     2
100
AcDbCircle
 10
448.712335
 20
211.229527
 30
0.0
 40
47.5
210
0.0
220
0.0
230
1.0
100
AcDbArc
 50
330.904708
 51
359.095292
  0
LINE
  5
219
100
AcDbEntity
  8
0
390
0
  6
DOT
 62
     2
100
AcDbLine
 10
451.712335
 20
230.512665
 30
0.0
 11
450.678996
 21
230.512665
 31
0.0
  0
LINE
  5
21A
100
AcDbEntity
  8
0
390
0
  6
Continuous
 62
     7
100
AcDbLine
 10
450.678996
 20
230.512665
 30
0.0
 11
446.745673
 21
230.512665
 31
0.0
  0
LINE
  5
21B
100
AcDbEntity
  8
0
390
0
  6
DOT
 62
     2
100
AcDbLine
 10
446.745673
 20
230.512665
 30
0.0
 11
445.712335
 21
230.512665
 31
0.0
  0
ARC
  5
21C
100
AcDbEntity
  8
0
390
0
  6
Continuous
 62
     7
100
AcDbCircle
 10
448.712335
 20
211.229527
 30
0.0
 40
12.5
210
0.0
220
0.0
230
1.0
100
AcDbArc
 50
108.662925
 51
71.337075
  0
LINE
  5
21D
100
AcDbEntity
  8
0
390
0
  6
Continuous
 62
     7
100
AcDbLine
 10
452.712335
 20
223.072247
 30
0.0
 11
452.712335
 21
223.598844
 31
0.0
  0
ARC
  5
21E
100
AcDbEntity
  8
0
390
0
  6
Continuous
 62
     7
100
AcDbCircle
 10
448.712335
 20
211.229527
 30
0.0
 40
13.0
210
0.0
220
0.0
230
1.0
100
AcDbArc
 50
107.920213
 51
72.079787
  0
LINE
  5
21F
100
AcDbEntity
  8
0
390
0
  6
Continuous
 62
     7
100
AcDbLine
 10
444.712335
 20
223.598844
 30
0.0
 11
444.712335
 21
223.072247
 31
0.0
  0
ARC
  5
220
100
AcDbEntity
  8
0
390
0
  6
Continuous
 62
     7
100
AcDbCircle
 10
448.712335
 20
227.029527
 30
0.0
 40
4.0
210
0.0
220
0.0
230
1.0
100
AcDbArc
 50
0.0
 51
180.0
  0
CIRCLE
  5
221
100
AcDbEntity
  8
0
390
0
  6
Continuous
 62
     7
100
AcDbCircle
 10
448.712335
 20
211.229527
 30
0.0
 40
30.0
210
0.0
220
0.0
230
1.0
  0
LINE
  5
222
100
AcDbEntity
  8
0
390
0
  6
Continuous
 62
     7
100
AcDbLine
 10
452.712335
 20
223.598844
 30
0.0
 11
452.712335
 21
227.029527
 31
0.0
  0
LINE
  5
223
100
AcDbEntity
  8
0
390
0
  6
Continuous
 62
     7
100
AcDbLine
 10
444.712335
 20
227.029527
 30
0.0
 11
444.712335
 21
223.598844
 31
0.0
  0
CIRCLE
  5
224
100
AcDbEntity
  8
0
390
0
  6
Continuous
 62
     7
100
AcDbCircle
 10
448.712335
 20
211.229527
 30
0.0
 40
50.0
210
0.0
220
0.0
230
1.0
  0
CIRCLE
  5
225
100
AcDbEntity
  8
0
390
0
  6
DOT
 62
     2
100
AcDbCircle
 10
448.712335
 20
211.229527
 30
0.0
 40
21.0
210
0.0
220
0.0
230
1.0
  0
CIRCLE
  5
226
100
AcDbEntity
  8
0
390
0
  6
DOT
 62
     2
100
AcDbCircle
 10
448.712335
 20
211.229527
 30
0.0
 40
25.0
210
0.0
220
0.0
230
1.0
  0
LINE
  5
227
100
AcDbEntity
  8
0
390
0
  6
Continuous
 62
     2
100
AcDbLine
 10
451.212335
 20
230.012665
 30
0.0
 11
451.212335
 21
230.151758
 31
0.0
  0
LINE
  5
228
100
AcDbEntity
  8
0
390
0
  6
Continuous
 62
     2
100
AcDbLine
 10
451.212335
 20
230.151758
 30
0.0
 11
451.212335
 21
230.152026
 31
0.0
  0
LINE
  5
229
100
AcDbEntity
  8
0
390
0
  6
DOT
 62
     2
100
AcDbLine
 10
451.212335
 20
230.152026
 30
0.0
 11
451.212335
 21
230.152266
 31
0.0
  0
LINE
  5
22A
100
AcDbEntity
  8
0
390
0
  6
Continuous
 62
     2
100
AcDbLine
 10
446.212335
 20
230.152006
 30
0.0
 11
446.212335
 21
230.151647
 31
0.0
  0
LINE
  5
22B
100
AcDbEntity
  8
0
390
0
  6
Continuous
 62
     2
100
AcDbLine
 10
446.212335
 20
230.151647
 30
0.0
 11
446.212335
 21
230.012665
 31
0.0
  0
LINE
  5
22C
100
AcDbEntity
  8
0
390
0
  6
DOT
 62
     2
100
AcDbLine
 10
445.71234
 20
230.512645
 30
0.0
 11
445.71234
 21
229.675596
 31
0.0
  0
LINE
  5
22D
100
AcDbEntity
  8
0
390
0
  6
DOT
 62
     2
100
AcDbLine
 10
451.71233
 20
229.675284
 30
0.0
 11
451.71233
 21
230.512645
 31
0.0
  0
LINE
  5
22E
100
AcDbEntity
  8
0
390
0
  6
Continuous
 62
     7
100
AcDbLine
 10
445.934035
 20
229.906989
 30
0.0
 11
446.212335
 21
229.628689
 31
0.0
  0
LINE
  5
22F
100
AcDbEntity
  8
0
390
0
  6
Continuous
 62
     7
100
AcDbLine
 10
451.212335
 20
229.628689
 30
0.0
 11
451.490646
 21
229.907001
 31
0.0
  0
LINE
  5
230
100
AcDbEntity
  8
0
390
0
  6
DOT
 62
     2
100
AcDbLine
 10
446.135811
 20
230.089188
 30
0.0
 11
446.135977
 21
230.089022
 31
0.0
  0
LINE
  5
231
100
AcDbEntity
  8
0
390
0
  6
Continuous
 62
     7
100
AcDbLine
 10
446.135977
 20
230.089022
 30
0.0
 11
446.212335
 21
230.012665
 31
0.0
  0
LINE
  5
232
100
AcDbEntity
  8
0
390
0
  6
Continuous
 62
     7
100
AcDbLine
 10
451.212335
 20
230.012665
 30
0.0
 11
451.288696
 21
230.089026
 31
0.0
  0
LINE
  5
233
100
AcDbEntity
  8
0
390
0
  6
DOT
 62
     2
100
AcDbLine
 10
451.288696
 20
230.089026
 30
0.0
 11
451.288858
 21
230.089188
 31
0.0
  0
LINE
  5
234
100
AcDbEntity
  8
0
390
0
  6
Continuous
 62
     7
100
AcDbLine
 10
585.760065
 20
183.739757
 30
0.0
 11
579.760065
 21
183.739757
 31
0.0
  0
LINE
  5
235
100
AcDbEntity
  8
0
390
0
  6
Continuous
 62
     7
100
AcDbLine
 10
585.760065
 20
163.735449
 30
0.0
 11
579.760065
 21
163.735449
 31
0.0
  0
LINE
  5
236
100
AcDbEntity
  8
0
390
0
  6
Continuous
 62
     7
100
AcDbLine
 10
579.760065
 20
163.735449
 30
0.0
 11
579.760065
 21
183.739757
 31
0.0
  0
LINE
  5
237
100
AcDbEntity
  8
0
390
0
  6
Continuous
 62
     7
100
AcDbLine
 10
585.260065
 20
187.047688
 30
0.0
 11
579.760065
 21
187.047688
 31
0.0
  0
LINE
  5
238
100
AcDbEntity
  8
0
390
0
  6
Continuous
 62
     7
100
AcDbLine
 10
579.760065
 20
187.047688
 30
0.0
 11
579.760065
 21
183.739757
 31
0.0
  0
LINE
  5
239
100
AcDbEntity
  8
0
390
0
  6
Continuous
 62
     7
100
AcDbLine
 10
585.260065
 20
187.797688
 30
0.0
 11
579.760065
 21
187.797688
 31
0.0
  0
LINE
  5
23A
100
AcDbEntity
  8
0
390
0
  6
Continuous
 62
     7
100
AcDbLine
 10
579.760065
 20
187.047688
 30
0.0
 11
579.760065
 21
187.797688
 31
0.0
  0
LINE
  5
23B
100
AcDbEntity
  8
0
390
0
  6
Continuous
 62
     7
100
AcDbLine
 10
579.760065
 20
224.324894
 30
0.0
 11
579.760065
 21
225.623932
 31
0.0
  0
LINE
  5
23C
100
AcDbEntity
  8
0
390
0
  6
Continuous
 62
     7
100
AcDbLine
 10
585.760065
 20
258.723606
 30
0.0
 11
579.760065
 21
258.723606
 31
0.0
  0
LINE
  5
23D
100
AcDbEntity
  8
0
390
0
  6
Continuous
 62
     7
100
AcDbLine
 10
563.760065
 20
163.735449
 30
0.0
 11
569.760065
 21
163.735449
 31
0.0
  0
LINE
  5
23E
100
AcDbEntity
  8
0
390
0
  6
Continuous
 62
     7
100
AcDbLine
 10
563.760065
 20
183.739757
 30
0.0
 11
569.760065
 21
183.739757
 31
0.0
  0
LINE
  5
23F
100
AcDbEntity
  8
0
390
0
  6
Continuous
 62
     7
100
AcDbLine
 10
569.760065
 20
163.735449
 30
0.0
 11
569.760065
 21
183.739757
 31
0.0
  0
LINE
  5
240
100
AcDbEntity
  8
0
390
0
  6
Continuous
 62
     7
100
AcDbLine
 10
564.260065
 20
187.047688
 30
0.0
 11
569.760065
 21
187.047688
 31
0.0
  0
LINE
  5
241
100
AcDbEntity
  8
0
390
0
  6
Continuous
 62
     7
100
AcDbLine
 10
569.760065
 20
187.047688
 30
0.0
 11
569.760065
 21
183.739757
 31
0.0
  0
LINE
  5
242
100
AcDbEntity
  8
0
390
0
  6
Continuous
 62
     7
100
AcDbLine
 10
564.260065
 20
187.797688
 30
0.0
 11
569.760065
 21
187.797688
 31
0.0
  0
LINE
  5
243
100
AcDbEntity
  8
0
390
0
  6
Continuous
 62
     7
100
AcDbLine
 10
569.760065
 20
187.047688
 30
0.0
 11
569.760065
 21
187.797688
 31
0.0
  0
LINE
  5
244
100
AcDbEntity
  8
0
390
0
  6
Continuous
 62
     7
100
AcDbLine
 10
569.760065
 20
224.324894
 30
0.0
 11
569.760065
 21
225.623932
 31
0.0
  0
LINE
  5
245
100
AcDbEntity
  8
0
390
0
  6
Continuous
 62
     7
100
AcDbLine
 10
563.760065
 20
258.723606
 30
0.0
 11
569.760065
 21
258.723606
 31
0.0
  0
LINE
  5
246
100
AcDbEntity
  8
0
390
0
  6
Continuous
 62
     9
100
AcDbLine
 10
618.760065
 20
227.029527
 30
0.0
 11
594.760065
 21
227.029527
 31
0.0
  0
LINE
  5
247
100
AcDbEntity
  8
0
390
0
  6
Continuous
 62
     7
100
AcDbLine
 10
594.760065
 20
227.029527
 30
0.0
 11
594.760065
 21
231.029527
 31
0.0
  0
LINE
  5
248
100
AcDbEntity
  8
0
390
0
  6
Continuous
 62
     7
100
AcDbLine
 10
618.760065
 20
227.029527
 30
0.0
 11
618.760065
 21
231.029527
 31
0.0
  0
ARC
  5
249
100
AcDbEntity
  8
0
390
0
  6
Continuous
 62
     7
100
AcDbCircle
 10
608.760065
 20
271.125759
 30
0.0
 40
30.000578
210
0.0
220
0.0
230
1.0
100
AcDbArc
 50
265.2199
 51
274.7801
  0
LINE
  5
24A
100
AcDbEntity
  8
0
390
0
  6
Continuous
 62
     7
100
AcDbLine
 10
606.260065
 20
241.229527
 30
0.0
 11
605.76007
 21
241.229527
 31
0.0
  0
LINE
  5
24B
100
AcDbEntity
  8
0
390
0
  6
Continuous
 62
     7
100
AcDbLine
 10
605.76007
 20
241.229527
 30
0.0
 11
597.760065
 21
241.229527
 31
0.0
  0
LINE
  5
24C
100
AcDbEntity
  8
0
390
0
  6
Continuous
 62
     7
100
AcDbLine
 10
597.760065
 20
181.229527
 30
0.0
 11
618.760065
 21
181.229527
 31
0.0
  0
LINE
  5
24D
100
AcDbEntity
  8
0
390
0
  6
Continuous
 62
     7
100
AcDbLine
 10
618.760065
 20
241.229527
 30
0.0
 11
611.76006
 21
241.229527
 31
0.0
  0
LINE
  5
24E
100
AcDbEntity
  8
0
390
0
  6
Continuous
 62
     7
100
AcDbLine
 10
611.76006
 20
241.229527
 30
0.0
 11
611.260065
 21
241.229527
 31
0.0
  0
LINE
  5
24F
100
AcDbEntity
  8
0
390
0
  6
Continuous
 62
     7
100
AcDbLine
 10
587.760065
 20
186.229527
 30
0.0
 11
585.760065
 21
186.229527
 31
0.0
  0
LINE
  5
250
100
AcDbEntity
  8
0
390
0
  6
Continuous
 62
     7
100
AcDbLine
 10
585.760065
 20
186.229527
 30
0.0
 11
585.260065
 21
186.229527
 31
0.0
  0
LINE
  5
251
100
AcDbEntity
  8
0
390
0
  6
Continuous
 62
     7
100
AcDbLine
 10
585.260065
 20
190.229527
 30
0.0
 11
585.260065
 21
186.229527
 31
0.0
  0
LINE
  5
252
100
AcDbEntity
  8
0
390
0
  6
Continuous
 62
     7
100
AcDbLine
 10
594.760065
 20
190.229527
 30
0.0
 11
585.260065
 21
190.229527
 31
0.0
  0
LINE
  5
253
100
AcDbEntity
  8
0
390
0
  6
Continuous
 62
     7
100
AcDbLine
 10
594.760065
 20
198.729527
 30
0.0
 11
594.760065
 21
190.229527
 31
0.0
  0
LINE
  5
254
100
AcDbEntity
  8
0
390
0
  6
Continuous
 62
     7
100
AcDbLine
 10
594.760065
 20
198.729527
 30
0.0
 11
618.260065
 21
198.729527
 31
0.0
  0
LINE
  5
255
100
AcDbEntity
  8
0
390
0
  6
Continuous
 62
     7
100
AcDbLine
 10
618.260065
 20
198.729527
 30
0.0
 11
618.760065
 21
198.229527
 31
0.0
  0
LINE
  5
256
100
AcDbEntity
  8
0
390
0
  6
Continuous
 62
     7
100
AcDbLine
 10
597.760065
 20
181.229527
 30
0.0
 11
597.760065
 21
161.229527
 31
0.0
  0
LINE
  5
257
100
AcDbEntity
  8
0
390
0
  6
Continuous
 62
     7
100
AcDbLine
 10
587.760065
 20
186.229527
 30
0.0
 11
587.760065
 21
161.229527
 31
0.0
  0
LINE
  5
258
100
AcDbEntity
  8
0
390
0
  6
Continuous
 62
     7
100
AcDbLine
 10
585.260065
 20
236.229527
 30
0.0
 11
585.760065
 21
236.229527
 31
0.0
  0
LINE
  5
259
100
AcDbEntity
  8
0
390
0
  6
Continuous
 62
     7
100
AcDbLine
 10
585.760065
 20
236.229527
 30
0.0
 11
587.760065
 21
236.229527
 31
0.0
  0
LINE
  5
25A
100
AcDbEntity
  8
0
390
0
  6
Continuous
 62
     7
100
AcDbLine
 10
594.760065
 20
232.229527
 30
0.0
 11
594.760065
 21
231.029527
 31
0.0
  0
LINE
  5
25B
100
AcDbEntity
  8
0
390
0
  6
Continuous
 62
     7
100
AcDbLine
 10
585.260065
 20
232.229527
 30
0.0
 11
594.760065
 21
232.229527
 31
0.0
  0
LINE
  5
25C
100
AcDbEntity
  8
0
390
0
  6
Continuous
 62
     7
100
AcDbLine
 10
587.760065
 20
261.229527
 30
0.0
 11
587.760065
 21
236.229527
 31
0.0
  0
LINE
  5
25D
100
AcDbEntity
  8
0
390
0
  6
Continuous
 62
     7
100
AcDbLine
 10
597.760065
 20
261.229527
 30
0.0
 11
597.760065
 21
241.229527
 31
0.0
  0
LINE
  5
25E
100
AcDbEntity
  8
0
390
0
  6
Continuous
 62
     7
100
AcDbLine
 10
585.260065
 20
236.229527
 30
0.0
 11
585.260065
 21
232.229527
 31
0.0
  0
LINE
  5
25F
100
AcDbEntity
  8
0
390
0
  6
Continuous
 62
     7
100
AcDbLine
 10
585.260065
 20
190.229527
 30
0.0
 11
585.260065
 21
232.229527
 31
0.0
  0
LINE
  5
260
100
AcDbEntity
  8
0
390
0
  6
Continuous
 62
     7
100
AcDbLine
 10
618.260065
 20
223.072247
 30
0.0
 11
594.760065
 21
223.072247
 31
0.0
  0
LINE
  5
261
100
AcDbEntity
  8
0
390
0
  6
Continuous
 62
     7
100
AcDbLine
 10
618.260065
 20
198.729527
 30
0.0
 11
618.260065
 21
223.072247
 31
0.0
  0
LINE
  5
262
100
AcDbEntity
  8
0
390
0
  6
Continuous
 62
     7
100
AcDbLine
 10
594.760065
 20
198.729527
 30
0.0
 11
594.760065
 21
223.072247
 31
0.0
  0
LINE
  5
263
100
AcDbEntity
  8
0
390
0
  6
Continuous
 62
     7
100
AcDbLine
 10
618.760065
 20
223.598844
 30
0.0
 11
618.260065
 21
223.072247
 31
0.0
  0
LINE
  5
264
100
AcDbEntity
  8
0
390
0
  6
Continuous
 62
     7
100
AcDbLine
 10
618.760065
 20
223.598844
 30
0.0
 11
618.760065
 21
198.229527
 31
0.0
  0
LINE
  5
265
100
AcDbEntity
  8
0
390
0
  6
Continuous
 62
     7
100
AcDbLine
 10
618.760065
 20
227.029527
 30
0.0
 11
618.760065
 21
223.598844
 31
0.0
  0
LINE
  5
266
100
AcDbEntity
  8
0
390
0
  6
Continuous
 62
     7
100
AcDbLine
 10
594.760065
 20
227.029527
 30
0.0
 11
594.760065
 21
223.072247
 31
0.0
  0
LINE
  5
267
100
AcDbEntity
  8
0
390
0
  6
Continuous
 62
     9
100
AcDbLine
 10
530.760065
 20
227.029527
 30
0.0
 11
554.760065
 21
227.029527
 31
0.0
  0
LINE
  5
268
100
AcDbEntity
  8
0
390
0
  6
Continuous
 62
     7
100
AcDbLine
 10
530.760065
 20
227.029527
 30
0.0
 11
530.760065
 21
231.029527
 31
0.0
  0
LINE
  5
269
100
AcDbEntity
  8
0
390
0
  6
Continuous
 62
     7
100
AcDbLine
 10
537.76007
 20
231.029527
 30
0.0
 11
530.760065
 21
231.029527
 31
0.0
  0
LINE
  5
26A
100
AcDbEntity
  8
0
390
0
  6
Continuous
 62
     7
100
AcDbLine
 10
554.760065
 20
231.029527
 30
0.0
 11
543.76006
 21
231.029527
 31
0.0
  0
LINE
  5
26B
100
AcDbEntity
  8
0
390
0
  6
Continuous
 62
     7
100
AcDbLine
 10
554.760065
 20
227.029527
 30
0.0
 11
554.760065
 21
231.029527
 31
0.0
  0
LINE
  5
26C
100
AcDbEntity
  8
0
390
0
  6
Continuous
 62
     7
100
AcDbLine
 10
538.260065
 20
240.512665
 30
0.0
 11
538.260065
 21
241.229527
 31
0.0
  0
ARC
  5
26D
100
AcDbEntity
  8
0
390
0
  6
Continuous
 62
     7
100
AcDbCircle
 10
540.760065
 20
271.125759
 30
0.0
 40
30.000578
210
0.0
220
0.0
230
1.0
100
AcDbArc
 50
265.2199
 51
274.7801
  0
LINE
  5
26E
100
AcDbEntity
  8
0
390
0
  6
Continuous
 62
     7
100
AcDbLine
 10
543.260065
 20
241.229527
 30
0.0
 11
543.260065
 21
240.512665
 31
0.0
  0
LINE
  5
26F
100
AcDbEntity
  8
0
390
0
  6
Continuous
 62
     7
100
AcDbLine
 10
551.760065
 20
241.229527
 30
0.0
 11
543.76006
 21
241.229527
 31
0.0
  0
LINE
  5
270
100
AcDbEntity
  8
0
390
0
  6
Continuous
 62
     7
100
AcDbLine
 10
543.76006
 20
241.229527
 30
0.0
 11
543.260065
 21
241.229527
 31
0.0
  0
LINE
  5
271
100
AcDbEntity
  8
0
390
0
  6
Continuous
 62
     7
100
AcDbLine
 10
538.260065
 20
241.229527
 30
0.0
 11
537.76007
 21
241.229527
 31
0.0
  0
LINE
  5
272
100
AcDbEntity
  8
0
390
0
  6
Continuous
 62
     7
100
AcDbLine
 10
537.76007
 20
241.229527
 30
0.0
 11
530.760065
 21
241.229527
 31
0.0
  0
LINE
  5
273
100
AcDbEntity
  8
0
390
0
  6
Continuous
 62
     7
100
AcDbLine
 10
530.760065
 20
181.229527
 30
0.0
 11
551.760065
 21
181.229527
 31
0.0
  0
LINE
  5
274
100
AcDbEntity
  8
0
390
0
  6
Continuous
 62
     7
100
AcDbLine
 10
551.760065
 20
161.229527
 30
0.0
 11
551.760065
 21
181.229527
 31
0.0
  0
LINE
  5
275
100
AcDbEntity
  8
0
390
0
  6
Continuous
 62
     7
100
AcDbLine
 10
530.760065
 20
198.229527
 30
0.0
 11
531.260065
 21
198.729527
 31
0.0
  0
LINE
  5
276
100
AcDbEntity
  8
0
390
0
  6
Continuous
 62
     7
100
AcDbLine
 10
531.260065
 20
198.729527
 30
0.0
 11
554.760065
 21
198.729527
 31
0.0
  0
LINE
  5
277
100
AcDbEntity
  8
0
390
0
  6
Continuous
 62
     7
100
AcDbLine
 10
554.760065
 20
190.229527
 30
0.0
 11
554.760065
 21
198.729527
 31
0.0
  0
LINE
  5
278
100
AcDbEntity
  8
0
390
0
  6
Continuous
 62
     7
100
AcDbLine
 10
564.260065
 20
190.229527
 30
0.0
 11
554.760065
 21
190.229527
 31
0.0
  0
LINE
  5
279
100
AcDbEntity
  8
0
390
0
  6
Continuous
 62
     7
100
AcDbLine
 10
564.260065
 20
186.229527
 30
0.0
 11
564.260065
 21
190.229527
 31
0.0
  0
LINE
  5
27A
100
AcDbEntity
  8
0
390
0
  6
Continuous
 62
     7
100
AcDbLine
 10
564.260065
 20
186.229527
 30
0.0
 11
563.760065
 21
186.229527
 31
0.0
  0
LINE
  5
27B
100
AcDbEntity
  8
0
390
0
  6
Continuous
 62
     7
100
AcDbLine
 10
563.760065
 20
186.229527
 30
0.0
 11
561.760065
 21
186.229527
 31
0.0
  0
LINE
  5
27C
100
AcDbEntity
  8
0
390
0
  6
Continuous
 62
     7
100
AcDbLine
 10
561.760065
 20
161.229527
 30
0.0
 11
561.760065
 21
186.229527
 31
0.0
  0
LINE
  5
27D
100
AcDbEntity
  8
0
390
0
  6
Continuous
 62
     7
100
AcDbLine
 10
530.760065
 20
223.598844
 30
0.0
 11
531.260065
 21
223.072247
 31
0.0
  0
LINE
  5
27E
100
AcDbEntity
  8
0
390
0
  6
Continuous
 62
     7
100
AcDbLine
 10
531.260065
 20
198.729527
 30
0.0
 11
531.260065
 21
223.072247
 31
0.0
  0
LINE
  5
27F
100
AcDbEntity
  8
0
390
0
  6
Continuous
 62
     7
100
AcDbLine
 10
530.760065
 20
223.598844
 30
0.0
 11
530.760065
 21
198.229527
 31
0.0
  0
LINE
  5
280
100
AcDbEntity
  8
0
390
0
  6
Continuous
 62
     7
100
AcDbLine
 10
531.260065
 20
223.072247
 30
0.0
 11
554.760065
 21
223.072247
 31
0.0
  0
LINE
  5
281
100
AcDbEntity
  8
0
390
0
  6
Continuous
 62
     7
100
AcDbLine
 10
554.760065
 20
198.729527
 30
0.0
 11
554.760065
 21
223.072247
 31
0.0
  0
LINE
  5
282
100
AcDbEntity
  8
0
390
0
  6
Continuous
 62
     7
100
AcDbLine
 10
551.760065
 20
241.229527
 30
0.0
 11
551.760065
 21
261.229527
 31
0.0
  0
LINE
  5
283
100
AcDbEntity
  8
0
390
0
  6
Continuous
 62
     7
100
AcDbLine
 10
561.760065
 20
236.229527
 30
0.0
 11
561.760065
 21
261.229527
 31
0.0
  0
LINE
  5
284
100
AcDbEntity
  8
0
390
0
  6
Continuous
 62
     7
100
AcDbLine
 10
561.760065
 20
236.229527
 30
0.0
 11
563.760065
 21
236.229527
 31
0.0
  0
LINE
  5
285
100
AcDbEntity
  8
0
390
0
  6
Continuous
 62
     7
100
AcDbLine
 10
563.760065
 20
236.229527
 30
0.0
 11
564.260065
 21
236.229527
 31
0.0
  0
LINE
  5
286
100
AcDbEntity
  8
0
390
0
  6
Continuous
 62
     7
100
AcDbLine
 10
564.260065
 20
232.229527
 30
0.0
 11
564.260065
 21
236.229527
 31
0.0
  0
LINE
  5
287
100
AcDbEntity
  8
0
390
0
  6
Continuous
 62
     7
100
AcDbLine
 10
554.760065
 20
232.229527
 30
0.0
 11
564.260065
 21
232.229527
 31
0.0
  0
LINE
  5
288
100
AcDbEntity
  8
0
390
0
  6
Continuous
 62
     7
100
AcDbLine
 10
554.760065
 20
231.029527
 30
0.0
 11
554.760065
 21
232.229527
 31
0.0
  0
LINE
  5
289
100
AcDbEntity
  8
0
390
0
  6
Continuous
 62
     7
100
AcDbLine
 10
564.260065
 20
190.229527
 30
0.0
 11
564.260065
 21
232.229527
 31
0.0
  0
LINE
  5
28A
100
AcDbEntity
  8
0
390
0
  6
Continuous
 62
     7
100
AcDbLine
 10
554.760065
 20
227.029527
 30
0.0
 11
554.760065
 21
223.072247
 31
0.0
  0
LINE
  5
28B
100
AcDbEntity
  8
0
390
0
  6
Continuous
 62
     7
100
AcDbLine
 10
530.760065
 20
227.029527
 30
0.0
 11
530.760065
 21
223.598844
 31
0.0
  0
LINE
  5
28C
100
AcDbEntity
  8
0
390
0
  6
Continuous
 62
     7
100
AcDbLine
 10
543.760065
 20
230.512665
 30
0.0
 11
543.760065
 21
231.027834
 31
0.0
  0
LINE
  5
28D
100
AcDbEntity
  8
0
390
0
  6
Continuous
 62
     7
100
AcDbLine
 10
543.760065
 20
231.027834
 30
0.0
 11
543.760065
 21
231.029508
 31
0.0
  0
LINE
  5
28E
100
AcDbEntity
  8
0
390
0
  6
Continuous
 62
     7
100
AcDbLine
 10
537.760065
 20
231.029508
 30
0.0
 11
537.760065
 21
231.028695
 31
0.0
  0
LINE
  5
28F
100
AcDbEntity
  8
0
390
0
  6
Continuous
 62
     7
100
AcDbLine
 10
537.760065
 20
231.028695
 30
0.0
 11
537.760065
 21
230.512665
 31
0.0
  0
LINE
  5
290
100
AcDbEntity
  8
0
390
0
  6
DOT
 62
     2
100
AcDbLine
 10
451.712335
 20
230.128689
 30
0.0
 11
451.328359
 21
230.128689
 31
0.0
  0
LINE
  5
291
100
AcDbEntity
  8
0
390
0
  6
DOT
 62
     2
100
AcDbLine
 10
451.328359
 20
230.128689
 30
0.0
 11
451.241207
 21
230.128689
 31
0.0
  0
LINE
  5
292
100
AcDbEntity
  8
0
390
0
  6
DOT
 62
     2
100
AcDbLine
 10
451.241207
 20
230.128689
 30
0.0
 11
451.212335
 21
230.128689
 31
0.0
  0
LINE
  5
293
100
AcDbEntity
  8
0
390
0
  6
DOT
 62
     2
100
AcDbLine
 10
451.212335
 20
230.128689
 30
0.0
 11
446.212335
 21
230.128689
 31
0.0
  0
LINE
  5
294
100
AcDbEntity
  8
0
390
0
  6
DOT
 62
     2
100
AcDbLine
 10
446.212335
 20
230.128689
 30
0.0
 11
446.183462
 21
230.128689
 31
0.0
  0
LINE
  5
295
100
AcDbEntity
  8
0
390
0
  6
DOT
 62
     2
100
AcDbLine
 10
446.183462
 20
230.128689
 30
0.0
 11
446.09631
 21
230.128689
 31
0.0
  0
LINE
  5
296
100
AcDbEntity
  8
0
390
0
  6
DOT
 62
     2
100
AcDbLine
 10
446.09631
 20
230.128689
 30
0.0
 11
445.712335
 21
230.128689
 31
0.0
  0
LINE
  5
297
100
AcDbEntity
  8
0
390
0
  6
Continuous
 62
     2
100
AcDbLine
 10
451.212335
 20
229.628689
 30
0.0
 11
451.212335
 21
230.012665
 31
0.0
  0
LINE
  5
298
100
AcDbEntity
  8
0
390
0
  6
Continuous
 62
     2
100
AcDbLine
 10
446.212335
 20
230.012665
 30
0.0
 11
446.212335
 21
229.628689
 31
0.0
  0
LINE
  5
299
100
AcDbEntity
  8
0
390
0
  6
Continuous
 62
     7
100
AcDbLine
 10
605.76007
 20
231.029527
 30
0.0
 11
594.760065
 21
231.029527
 31
0.0
  0
LINE
  5
29A
100
AcDbEntity
  8
0
390
0
  6
Continuous
 62
     7
100
AcDbLine
 10
618.760065
 20
231.029527
 30
0.0
 11
611.76006
 21
231.029527
 31
0.0
  0
LINE
  5
29B
100
AcDbEntity
  8
0
390
0
  6
Continuous
 62
     7
100
AcDbLine
 10
606.260065
 20
240.128689
 30
0.0
 11
606.260065
 21
241.229527
 31
0.0
  0
LINE
  5
29C
100
AcDbEntity
  8
0
390
0
  6
Continuous
 62
     7
100
AcDbLine
 10
611.260065
 20
241.229527
 30
0.0
 11
611.260065
 21
240.128689
 31
0.0
  0
LINE
  5
29D
100
AcDbEntity
  8
0
390
0
  6
Continuous
 62
     7
100
AcDbLine
 10
611.760065
 20
230.128689
 30
0.0
 11
611.760065
 21
231.027834
 31
0.0
  0
LINE
  5
29E
100
AcDbEntity
  8
0
390
0
  6
Continuous
 62
     7
100
AcDbLine
 10
611.760065
 20
231.027834
 30
0.0
 11
611.760065
 21
231.029508
 31
0.0
  0
LINE
  5
29F
100
AcDbEntity
  8
0
390
0
  6
Continuous
 62
     7
100
AcDbLine
 10
605.760065
 20
231.029508
 30
0.0
 11
605.760065
 21
231.028695
 31
0.0
  0
LINE
  5
2A0
100
AcDbEntity
  8
0
390
0
  6
Continuous
 62
     7
100
AcDbLine
 10
605.760065
 20
231.028695
 30
0.0
 11
605.760065
 21
230.128689
 31
0.0
  0
DIMENSION
  5
2A1
100
AcDbEntity
  8
0
390
0
100
AcDbDimension
  2
*D7
 10
579.760065
 20
267.895241
 30
0.0
 11
587.260065
 21
271.045241
 31
0.0
 71
     5
 72
     1
 41
1.0
 42
0.0
  3
Standard
100
AcDbAlignedDimension
 13
579.760065
 23
258.723606
 33
0.0
 14
594.760065
 24
232.229527
 34
0.0
100
AcDbRotatedDimension
1001
ACAD
1000
DSTYLE
1002
{
1070
   271
1070
     1
1070
   179
1070
     1
1002
}
  0
DIMENSION
  5
2B3
100
AcDbEntity
  8
0
390
0
100
AcDbDimension
  2
*D8
 10
640.189346
 20
211.229527
 30
0.0
 11
636.558096
 21
204.979527
 31
0.0
 71
     5
 72
     1
 41
1.0
 42
0.0
  3
Standard
100
AcDbAlignedDimension
 13
620.760065
 23
211.229527
 33
0.0
 14
618.260065
 24
198.729527
 34
0.0
 50
270.0
100
AcDbRotatedDimension
1001
ACAD
1000
DSTYLE
1002
{
1070
    47
1040
0.0
1070
    71
1070
     1
1070
    48
1040
0.0
1070
    71
1070
     1
1070
    73
1070
     1
1070
     3
1000
%%c<>H8
1070
   144
1040
2.0
1070
   271
1070
     1
1070
   179
1070
     1
1002
}
  0
DIMENSION
  5
2C0
100
AcDbEntity
  8
0
390
0
100
AcDbDimension
  2
*D9
 10
592.15025
 20
232.229527
 30
0.0
 11
588.849114
 21
211.229527
 31
0.0
 71
     5
 72
     1
 41
1.0
 42
0.0
  3
Standard
100
AcDbAlignedDimension
 13
590.010065
 23
232.229527
 33
0.0
 14
590.010065
 24
190.229527
 34
0.0
 50
270.0
100
AcDbRotatedDimension
1001
ACAD
1000
DSTYLE
1002
{
1070
     3
1000
%%c<>
1070
   271
1070
     1
1070
   179
1070
     1
1002
}
  0
DIMENSION
  5
2D0
100
AcDbEntity
  8
0
390
0
100
AcDbDimension
  2
*D10
 10
597.760065
 20
275.008133
 30
0.0
 11
588.760065
 21
278.158133
 31
0.0
 71
     5
 72
     1
 41
1.0
 42
0.0
  3
Standard
100
AcDbAlignedDimension
 13
579.760065
 23
258.723606
 33
0.0
 14
597.760065
 24
261.229527
 34
0.0
100
AcDbRotatedDimension
1001
ACAD
1000
DSTYLE
1002
{
1070
   271
1070
     1
1070
   179
1070
     1
1002
}
  0
DIMENSION
  5
2E2
100
AcDbEntity
  8
0
390
0
100
AcDbDimension
  2
*D11
 10
649.980265
 20
241.229527
 30
0.0
 11
646.671174
 21
211.229527
 31
0.0
 71
     5
 72
     1
 41
1.0
 42
0.0
  3
Standard
100
AcDbAlignedDimension
 13
618.760065
 23
241.229527
 33
0.0
 14
618.760065
 24
181.229527
 34
0.0
 50
270.0
100
AcDbRotatedDimension
1001
ACAD
1000
DSTYLE
1002
{
1070
     3
1000
%%c<>
1070
   271
1070
     1
1070
   179
1070
     1
1002
}
  0
POINT
  5
2F4
100
AcDbEntity
  8
0
390
0
 62
     7
100
AcDbPoint
 10
448.712335
 20
223.729527
 30
0.0
  0
POINT
  5
2F5
100
AcDbEntity
  8
0
390
0
 62
     7
100
AcDbPoint
 10
448.712335
 20
227.029527
 30
0.0
  0
DIMENSION
  5
2F6
100
AcDbEntity
  8
0
390
0
100
AcDbDimension
  2
*D12
 10
579.760065
 20
281.769361
 30
0.0
 11
594.260066
 21
284.919361
 31
0.0
 71
     5
 72
     1
 41
1.0
 42
0.0
  3
Standard
100
AcDbAlignedDimension
 13
579.760065
 23
258.723606
 33
0.0
 14
608.760067
 24
243.229527
 34
0.0
100
AcDbRotatedDimension
1001
ACAD
1000
DSTYLE
1002
{
1070
   271
1070
     1
1070
   179
1070
     1
1002
}
  0
DIMENSION
  5
308
100
AcDbEntity
  8
0
390
0
100
AcDbDimension
  2
*D13
 10
605.76007
 20
275.008133
 30
0.0
 11
624.762688
 21
278.150178
 31
0.0
 71
     5
 72
     1
 41
1.0
 42
0.0
  3
Standard
100
AcDbAlignedDimension
 13
605.76007
 23
241.229527
 33
0.0
 14
611.76006
 24
241.229527
 34
0.0
100
AcDbRotatedDimension
1001
ACAD
1000
DSTYLE
1002
{
1070
     3
1000
M<>
1070
   271
1070
     0
1070
   179
1070
     0
1002
}
  0
DIMENSION
  5
31A
100
AcDbEntity
  8
0
390
0
100
AcDbDimension
  2
*D14
 10
448.712335
 20
227.029527
 30
0.0
 11
491.5901
 21
255.148776
 31
0.0
 70
     4
 71
     5
 72
     1
 41
1.0
 42
0.0
  3
Standard
100
AcDbRadialDimension
 15
452.001292
 25
229.306094
 35
0.0
 40
0.0
1001
ACAD
1000
DSTYLE
1002
{
1070
    73
1070
     1
1070
    74
1070
     1
1070
     3
1000
R<>
1070
   288
1070
     1
1070
   280
1040
0.0
1070
   271
1070
     1
1070
   179
1070
     1
1002
}
  0
INSERT
  5
331
100
AcDbEntity
  8
0
390
0
100
AcDbBlockReference
  2
AID1058
 10
0.0
 20
0.0
 30
0.0
  0
ENDSEC
  0
SECTION
  2
OBJECTS
  0
DICTIONARY
  5
19
100
AcDbDictionary
280
     0
281
     1
  3
ACAD_GROUP
350
1A
  3
ACAD_MLINESTYLE
350
1B
  3
ACAD_LAYOUT
350
1E
  3
ACAD_PLOTSETTINGS
350
22
  3
ACAD_PLOTSTYLENAME
350
1F
  3
ACAD_WIPEOUT_VARS
350
23
  0
DICTIONARY
  5
1A
102
{ACAD_REACTORS
330
19
102
}
100
AcDbDictionary
280
     0
281
     1
  0
DICTIONARY
  5
1B
102
{ACAD_REACTORS
330
19
102
}
100
AcDbDictionary
280
     0
281
     1
  3
Standard
350
1C
  0
MLINESTYLE
  5
1C
102
{ACAD_REACTORS
330
1B
102
}
100
AcDbMlineStyle
  2
Standard
 70
     0
  3

 62
     0
 51
90.0
 52
90.0
 71
     2
 49
0.5
 62
   256
  6
ByLayer
 49
-0.5
 62
   256
  6
ByLayer
  0
ACDBDICTIONARYWDFLT
  5
1F
102
{ACAD_REACTORS
330
19
102
}
100
AcDbDictionary
281
     1
  3
Normal
350
1D
100
AcDbDictionaryWithDefault
340
1D
  0
ACDBPLACEHOLDER
  5
1D
102
{ACAD_REACTORS
330
1F
102
}
  0
LAYOUT
  5
20
102
{ACAD_REACTORS
330
1E
102
}
100
AcDbPlotSettings
  1

  2

  4

  6

 40
0.0
 41
0.0
 42
0.0
 43
0.0
 44
0.0
 45
0.0
 46
0.0
 47
0.0
 48
0.0
 49
0.0
140
0.0
141
0.0
142
1.0
143
1.0
 70
  1024
 72
     0
 73
     0
 74
     0
  7

 75
     0
147
1.0
148
0.0
149
0.0
100
AcDbLayout
  1
Model
 70
     0
 71
     1
 10
0.0
 20
0.0
 11
0.0
 21
0.0
 12
0.0
 22
0.0
 32
0.0
 14
0.0
 24
0.0
 34
0.0
 15
0.0
 25
0.0
 35
0.0
146
0.0
 13
0.0
 23
0.0
 33
0.0
 16
0.0
 26
0.0
 36
0.0
 17
0.0
 27
0.0
 37
0.0
 76
     0
330
A
331
0
345
0
346
0
  0
LAYOUT
  5
21
102
{ACAD_REACTORS
330
1E
102
}
100
AcDbPlotSettings
  1

  2

  4

  6

 40
0.0
 41
0.0
 42
0.0
 43
0.0
 44
0.0
 45
0.0
 46
0.0
 47
0.0
 48
0.0
 49
0.0
140
0.0
141
0.0
142
1.0
143
1.0
 70
     0
 72
     0
 73
     0
 74
     0
  7

 75
     0
147
1.0
148
0.0
149
0.0
100
AcDbLayout
  1
Layout1
 70
     0
 71
     2
 10
0.0
 20
0.0
 11
0.0
 21
0.0
 12
0.0
 22
0.0
 32
0.0
 14
0.0
 24
0.0
 34
0.0
 15
0.0
 25
0.0
 35
0.0
146
0.0
 13
0.0
 23
0.0
 33
0.0
 16
0.0
 26
0.0
 36
0.0
 17
0.0
 27
0.0
 37
0.0
 76
     0
330
B
331
0
345
0
346
0
  0
DICTIONARY
  5
1E
102
{ACAD_REACTORS
330
19
102
}
100
AcDbDictionary
280
     0
281
     1
  3
Layout1
350
21
  3
Model
350
20
  0
DICTIONARY
  5
22
102
{ACAD_REACTORS
330
19
102
}
100
AcDbDictionary
280
     0
281
     1
  0
WIPEOUTVARIABLES
  5
23
100
AcDbWipeoutVariables
 70
     1
  0
ENDSEC
  0
EOF
